osu file format v14

[General]
AudioFilename: audio.mp3
AudioLeadIn: 0
PreviewTime: 60857
Countdown: 0
SampleSet: Soft
StackLeniency: 0.2
Mode: 0
LetterboxInBreaks: 0
WidescreenStoryboard: 0

[Editor]
DistanceSpacing: 0.8
BeatDivisor: 4
GridSize: 32
TimelineZoom: 2.7

[Metadata]
Title:Sumairu (Short Ver.)
TitleUnicode:Sumairu (Short Ver.)
Artist:Chata
ArtistUnicode:Chata
Creator:Xilver
Version:4.26
Source:
Tags:Nanairo
BeatmapID:1278117
BeatmapSetID:604927

[Difficulty]
HPDrainRate:7
CircleSize:4
OverallDifficulty:8
ApproachRate:8
SliderMultiplier:1.5
SliderTickRate:1

[Events]
//Background and Video events
0,0,"20100616111011.jpg",0,0
//Break Periods
//Storyboard Layer 0 (Background)
//Storyboard Layer 1 (Fail)
//Storyboard Layer 2 (Pass)
//Storyboard Layer 3 (Foreground)
//Storyboard Sound Samples

[TimingPoints]
-587,444.444444444444,4,2,0,40,1,0
1190,-200,4,2,0,40,0,0
1857,-100,4,2,0,40,0,0
2968,-200,4,2,0,40,0,0
3635,-100,4,2,0,40,0,0
4746,-200,4,2,0,40,0,0
6968,-142.857142857143,4,2,0,40,0,0
7412,-200,4,2,0,40,0,0
8968,-100,4,2,0,40,0,0
10079,-200,4,2,0,40,0,0
10746,-100,4,2,0,40,0,0
11857,-200,4,2,0,40,0,0
13412,-100,4,2,0,40,0,0
14301,-200,4,2,0,40,0,0
25190,-200,4,2,0,20,0,0
25635,-333.333333333333,4,2,0,20,0,0
26079,-1000,4,2,0,20,0,0
27412,-250,4,2,0,40,0,0
28746,-200,4,2,0,40,0,0
43412,-142.857142857143,4,2,0,40,0,0
45190,-200,4,2,0,40,0,0
61635,-142.857142857143,4,2,0,40,0,1
62301,-200,4,2,0,40,0,1
64746,-125,4,2,0,40,0,1
65857,-100,4,2,0,40,0,1
68746,-142.857142857143,4,2,0,40,0,1
69412,-200,4,2,0,40,0,1
70524,-142.857142857143,4,2,0,40,0,1
72968,-100,4,2,0,40,0,1
75857,-100,4,2,0,40,0,1
76524,-142.857142857143,4,2,0,40,0,0
77190,-200,4,2,0,40,0,0
77635,-142.857142857143,4,2,0,40,0,0
89412,-100,4,2,0,40,0,0

[Colours]
Combo1 : 44,252,221
Combo2 : 255,155,55
Combo3 : 253,244,81
Combo4 : 0,213,122

[HitObjects]
67,144,746,5,0,0:0:0:0:
69,150,857,1,0,0:0:0:0:
71,156,968,1,0,3:0:0:0:
73,162,1079,1,0,3:0:0:0:
52,210,1190,6,0,L|121:206,1,56.25,0|8,3:0|0:0,0:0:0:0:
108,206,1635,1,0,0:0:0:0:
256,221,1857,6,0,B|297:207|299:174|299:174|259:187|228:161|228:161|224:192|238:202,1,187.5,2|0,0:0|0:0,0:0:0:0:
238,202,2524,1,8,0:0:0:0:
165,331,2968,6,0,L|109:336,1,56.25,0|8,3:0|0:0,0:0:0:0:
257,357,3412,1,0,0:0:0:0:
405,340,3635,6,0,B|361:341|348:311|348:311|389:309|410:274|410:274|424:302|414:316,1,187.5,2|0,0:0|0:0,0:0:0:0:
414,316,4301,1,8,0:0:0:0:
429,64,4746,6,0,L|421:140,1,75,0|0,3:0|0:0,0:0:0:0:
219,115,5412,5,0,0:0:0:0:
229,113,5524,1,0,0:0:0:0:
239,111,5635,1,2,0:0:0:0:
249,109,5746,1,0,0:0:0:0:
259,107,5857,1,0,0:0:0:0:
269,105,5968,1,0,0:0:0:0:
359,208,6190,5,0,0:0:0:0:
349,206,6302,1,0,0:0:0:0:
339,204,6413,1,0,0:0:0:0:
329,202,6524,1,2,0:0:0:0:
319,200,6635,1,0,0:0:0:0:
309,198,6746,1,0,0:0:0:0:
185,268,6968,6,0,L|237:262,1,52.4999983978272,8|0,0:0|0:0,0:0:0:0:
101,176,7412,2,0,L|142:180,1,37.5,2|0,0:0|0:0,0:0:0:0:
139,180,7746,1,0,0:0:0:0:
417,36,8079,1,0,3:0:0:0:
415,42,8190,1,0,3:0:0:0:
403,77,8301,6,0,P|376:85|348:86,1,56.25,4|8,3:0|0:0,0:0:0:0:
348,86,8746,1,0,0:0:0:0:
383,205,8968,6,0,B|424:218|426:251|426:251|386:238|355:264|355:264|351:233|365:223,1,187.5,2|0,0:0|0:0,0:0:0:0:
403,329,9635,1,8,0:0:0:0:
216,274,10079,6,0,L|225:329,1,56.25,0|8,3:0|0:0,0:0:0:0:
140,218,10524,1,0,0:0:0:0:
242,153,10746,6,0,B|200:139|198:106|198:106|238:119|269:93|269:93|273:124|259:134,1,187.5,2|0,0:0|0:0,0:0:0:0:
222,29,11412,1,8,0:0:0:0:
84,227,11857,6,0,L|139:217,1,56.25,0|8,3:0|0:0,0:0:0:0:
139,217,12301,1,0,0:0:0:0:
35,344,12524,6,0,P|79:325|127:329,1,93.75,2|0,0:0|0:0,0:0:0:0:
123,327,13190,1,8,0:0:0:0:
318,342,13412,6,0,B|359:328|361:295|361:295|321:308|290:282|290:282|286:313|300:323,1,187.5,2|0,0:0|0:0,0:0:0:0:
300,323,14079,1,8,0:0:0:0:
340,134,14301,6,0,L|345:191,1,56.25,2|0,0:0|0:0,0:0:0:0:
437,223,14746,6,0,L|422:228,8,9.375
489,92,15412,5,2,0:0:0:0:
475,98,16079,1,2,0:0:0:0:
489,92,17412,5,2,0:0:0:0:
475,98,18079,2,0,L|428:108,1,37.5,2|0,0:0|0:0,0:0:0:0:
438,105,18412,1,0,0:0:0:0:
23,92,18968,5,2,0:0:0:0:
37,98,19635,1,2,0:0:0:0:
23,92,20968,5,2,0:0:0:0:
37,98,21635,2,0,L|84:108,1,37.5,2|0,0:0|0:0,0:0:0:0:
74,105,21968,1,0,0:0:0:0:
259,342,22524,5,2,0:0:0:0:
265,328,23191,1,2,0:0:0:0:
259,342,24524,5,2,0:0:0:0:
265,328,25191,6,0,L|268:309,3,18.75,2|0|0|0,0:0|0:0|0:0|0:0,0:0:0:0:
345,270,25635,6,0,L|343:258,3,11.2499996566773,2|0|0|0,0:0|0:0|0:0|0:0,0:0:0:0:
261,217,26079,6,0,L|261:211,4,3.75,2|0|0|0|2,0:0|0:0|0:0|0:0|0:0,0:0:0:0:
343,125,26746,1,0,0:0:0:0:
335,104,27412,6,0,L|334:83,2,20,0|0|0,3:0|0:0|0:0,0:0:0:0:
344,125,28079,1,2,0:0:0:0:
335,104,28746,6,0,L|333:66,1,37.5,2|0,0:0|0:0,0:0:0:0:
333,66,29079,1,0,0:0:0:0:
35,200,29635,5,2,0:0:0:0:
49,197,30301,1,2,0:0:0:0:
35,200,31635,5,2,0:0:0:0:
49,197,32301,2,0,P|68:196|85:190,1,37.5,2|0,0:0|0:0,0:0:0:0:
85,190,32635,1,0,0:0:0:0:
477,200,33190,5,2,0:0:0:0:
463,197,33856,1,2,0:0:0:0:
477,200,35190,5,2,0:0:0:0:
463,197,35857,2,0,P|444:196|426:190,1,37.5,2|0,0:0|0:0,0:0:0:0:
427,190,36190,1,0,0:0:0:0:
254,36,36746,5,2,0:0:0:0:
260,58,37412,1,2,0:0:0:0:
254,36,38746,5,2,0:0:0:0:
260,58,39412,2,0,L|256:96,1,37.5,2|0,0:0|0:0,0:0:0:0:
256,95,39746,1,0,0:0:0:0:
257,370,40301,6,0,L|253:332,1,37.5,2|0,0:0|0:0,0:0:0:0:
273,300,40968,6,0,L|279:235,1,56.25,2|0,0:0|0:0,0:0:0:0:
249,207,41857,6,0,L|242:161,1,37.5,2|0,0:0|0:0,0:0:0:0:
257,157,42301,2,0,L|264:111,1,37.5,2|0,0:0|0:0,0:0:0:0:
250,105,42746,2,0,L|243:59,1,37.5,2|0,0:0|0:0,0:0:0:0:
244,67,43190,1,0,0:0:0:0:
249,207,43412,6,0,L|250:220,4,13.1249995994568,2|0|0|0|0,0:0|0:0|0:0|0:0|0:0,0:0:0:0:
252,336,43857,5,2,0:0:0:0:
252,294,44079,1,0,0:0:0:0:
289,315,44301,1,0,0:0:0:0:
265,315,44524,1,0,0:0:0:0:
265,315,44968,1,0,0:0:0:0:
265,315,45190,2,0,L|263:277,1,37.5,2|0,0:0|0:0,0:0:0:0:
177,179,45635,6,0,L|182:220,2,37.5,2|0|0,0:0|0:0|0:0,0:0:0:0:
177,179,46301,2,0,P|212:191|249:192,1,75
341,133,46968,2,0,P|322:133|304:126,1,37.5,2|0,0:0|0:0,0:0:0:0:
210,69,47412,6,0,L|213:119,1,37.5,2|0,0:0|0:0,0:0:0:0:
212,106,47857,1,0,0:0:0:0:
249,191,48079,1,0,0:0:0:0:
249,191,48524,1,0,0:0:0:0:
249,191,48747,1,0,0:0:0:0:
219,333,48968,6,0,P|214:312|205:298,1,37.5,0|2,0:0|0:0,0:0:0:0:
249,191,49413,2,0,P|233:205|225:220,1,37.5
106,238,49857,1,0,0:0:0:0:
235,307,50079,5,0,0:0:0:0:
225,304,50190,1,0,0:0:0:0:
215,301,50301,1,0,0:0:0:0:
205,298,50412,1,0,0:0:0:0:
194,277,50524,5,2,0:0:0:0:
204,274,50635,1,0,0:0:0:0:
214,271,50746,1,0,0:0:0:0:
330,175,50968,5,2,0:0:0:0:
330,217,51190,1,0,0:0:0:0:
367,196,51412,1,0,0:0:0:0:
343,196,51635,1,0,0:0:0:0:
343,196,52079,1,0,0:0:0:0:
343,196,52301,2,0,L|305:198,1,37.5,2|0,0:0|0:0,0:0:0:0:
220,109,52746,6,0,P|216:90|209:70,2,37.5,2|0|0,0:0|0:0|0:0,0:0:0:0:
220,109,53412,1,0,0:0:0:0:
117,188,53635,5,0,0:0:0:0:
172,197,53857,5,0,0:0:0:0:
190,216,54079,5,2,0:0:0:0:
197,227,54301,5,0,0:0:0:0:
228,306,54524,6,0,P|229:324|224:343,2,37.5,2|0|0,0:0|0:0|0:0,0:0:0:0:
228,306,55190,1,0,0:0:0:0:
228,306,55635,1,0,0:0:0:0:
228,306,55857,2,0,L|265:300,1,37.5,2|0,0:0|0:0,0:0:0:0:
363,200,56301,5,2,0:0:0:0:
363,200,56523,2,0,L|325:205,1,37.5
227,139,56968,2,0,P|233:155|232:176,1,37.5
269,81,57412,2,0,P|263:97|263:118,1,37.5
230,49,57857,1,0,0:0:0:0:
232,175,58079,6,0,P|267:181|306:171,1,75,2|0,0:0|0:0,0:0:0:0:
380,150,58746,1,0,0:0:0:0:
77,171,58968,2,0,P|94:176|110:188,1,37.5
135,219,59412,2,0,P|139:237|137:257,1,37.5,2|0,0:0|0:0,0:0:0:0:
257,18,59857,5,0,2:0:0:0:
234,54,60079,1,0,2:0:0:0:
259,89,60301,1,2,2:0:0:0:
281,52,60523,1,0,2:0:0:0:
148,238,61635,6,0,P|111:251|72:246,1,78.7499975967408,4|8,3:0|0:0,0:0:0:0:
220,194,62079,1,0,0:0:0:0:
381,234,62301,2,0,L|303:241,1,75,2|0,0:0|0:0,0:0:0:0:
247,323,62968,2,0,L|294:318,1,37.5,8|0,0:0|0:0,0:0:0:0:
374,178,63412,6,0,L|380:233,1,56.25,0|8,3:0|0:0,0:0:0:0:
439,107,63857,1,0,0:0:0:0:
355,45,64079,1,2,0:0:0:0:
408,338,64301,1,0,3:0:0:0:
380,233,64524,1,0,0:0:0:0:
407,338,64746,2,0,P|378:347|348:346,1,60,8|0,0:0|0:0,0:0:0:0:
468,229,65190,6,0,P|423:223|379:232,1,90,0|8,3:0|0:0,0:0:0:0:
512,153,65635,1,0,0:0:0:0:
297,173,65857,6,0,B|256:159|254:126|254:126|294:139|325:113|325:113|329:144|315:154,1,187.5,2|0,0:0|0:0,0:0:0:0:
315,153,66524,1,8,0:0:0:0:
181,241,66746,6,0,B|222:255|224:288|224:288|184:275|153:301|153:301|149:270|163:260,1,187.5,2|0,0:0|0:0,0:0:0:0:
162,260,67413,1,8,0:0:0:0:
40,147,67635,6,0,B|-1:133|-3:100|-3:100|37:113|68:87|68:87|72:118|58:128,1,187.5,2|0,0:0|0:0,0:0:0:0:
58,127,68302,1,8,0:0:0:0:
148,57,68524,1,0,0:0:0:0:
161,260,68746,6,0,P|166:221|155:183,1,78.7499975967408,4|8,3:0|0:0,0:0:0:0:
87,311,69190,1,0,0:0:0:0:
267,349,69412,2,0,P|246:313|242:272,1,75,2|0,0:0|0:0,0:0:0:0:
323,223,70079,2,0,P|333:242|336:265,1,37.5,8|0,0:0|0:0,0:0:0:0:
178,137,70524,6,8,L|256:141,1,78.7499975967408,0|8,3:0|0:0,0:0:0:0:
99,107,70968,1,0,0:0:0:0:
32,159,71190,1,2,0:0:0:0:
256,141,71412,1,0,3:0:0:0:
242,37,71635,1,0,0:0:0:0:
256,141,71857,2,0,L|320:133,1,52.4999983978272,2|0,0:0|0:0,0:0:0:0:
154,227,72301,6,0,L|231:238,1,78.7499975967408,0|8,3:0|0:0,0:0:0:0:
79,267,72746,1,0,0:0:0:0:
373,342,72968,6,0,B|332:328|330:295|330:295|370:308|401:282|401:282|405:313|391:323,1,187.5,2|0,0:0|0:0,0:0:0:0:
391,322,73635,1,8,0:0:0:0:
456,194,73857,6,0,B|497:180|499:147|499:147|459:160|428:134|428:134|424:165|438:175,1,187.5,2|0,0:0|0:0,0:0:0:0:
438,174,74524,1,8,0:0:0:0:
298,102,74746,6,0,B|253:101|243:68|243:68|268:76|289:69,1,112.5,2|0,0:0|0:0,0:0:0:0:
298,102,75190,2,0,B|335:77|326:44|326:44|309:64|290:68,1,112.5,2|0,0:0|0:0,0:0:0:0:
298,102,75635,1,0,0:0:0:0:
255,257,75857,5,4,3:0:0:0:
255,257,76190,1,8,0:0:0:0:
255,257,76301,1,0,0:0:0:0:
170,164,76524,2,0,L|164:242,1,78.7499975967408,2|0,0:0|0:0,0:0:0:0:
173,85,76968,1,0,0:0:0:0:
98,35,77190,2,0,L|94:91,1,56.25,8|0,0:0|0:0,0:0:0:0:
321,115,77635,6,0,P|283:127|244:128,1,78.7499975967408,0|8,3:0|0:0,0:0:0:0:
365,41,78079,1,0,0:0:0:0:
361,201,78301,5,0,0:0:0:0:
363,219,78412,1,0,0:0:0:0:
365,237,78524,1,2,0:0:0:0:
431,152,78746,5,0,0:0:0:0:
487,242,78968,5,8,0:0:0:0:
486,233,79080,1,0,0:0:0:0:
485,225,79191,1,0,0:0:0:0:
347,347,79412,6,0,P|385:336|425:337,1,78.7499975967408,0|8,3:0|0:0,0:0:0:0:
282,286,79857,1,0,0:0:0:0:
192,362,80079,2,0,P|176:338|169:311,2,52.4999983978272,0|2|0,0:0|0:0|0:0,0:0:0:0:
192,362,80746,1,8,0:0:0:0:
211,130,80968,6,0,P|216:180|204:232,1,104.999996795654,2|0,0:0|0:0,0:0:0:0:
275,277,81524,1,0,0:0:0:0:
282,286,81635,1,8,0:0:0:0:
294,46,81857,2,0,P|292:85|302:123,1,78.7499975967408,0|0,3:0|0:0,0:0:0:0:
333,152,82301,1,0,0:0:0:0:
345,147,82412,1,0,0:0:0:0:
358,144,82523,1,2,0:0:0:0:
371,144,82634,1,0,0:0:0:0:
384,146,82745,1,0,0:0:0:0:
204,233,82968,5,0,3:0:0:0:
204,233,83301,1,8,0:0:0:0:
204,233,83413,1,0,0:0:0:0:
82,166,83635,2,0,L|147:159,2,52.4999983978272,0|2|0,0:0|0:0|0:0,0:0:0:0:
82,166,84301,1,8,0:0:0:0:
21,228,84524,1,0,0:0:0:0:
248,79,84746,6,0,P|206:81|169:72,1,78.7499975967408,2|8,0:0|0:0,0:0:0:0:
312,145,85190,1,0,0:0:0:0:
353,19,85412,5,0,0:0:0:0:
335,21,85523,1,0,0:0:0:0:
317,23,85635,1,2,0:0:0:0:
402,89,85857,5,0,0:0:0:0:
312,145,86079,5,8,0:0:0:0:
321,144,86191,1,0,0:0:0:0:
329,143,86302,1,0,0:0:0:0:
225,239,86524,6,0,L|303:232,1,78.7499975967408,0|8,3:0|0:0,0:0:0:0:
161,165,86968,1,0,0:0:0:0:
40,230,87190,2,0,P|64:231|92:222,2,52.4999983978272,0|2|0,0:0|0:0|0:0,0:0:0:0:
40,230,87857,1,8,0:0:0:0:
212,361,88079,6,0,P|181:320|170:260,1,104.999996795654,2|0,0:0|0:0,0:0:0:0:
261,206,88635,1,0,0:0:0:0:
268,197,88746,1,2,0:0:0:0:
408,144,88968,6,0,P|382:178|373:227,1,91.8749971961976,0|0,3:0|0:0,0:0:0:0:
357,273,89412,6,0,L|338:276,8,18.75,0|0|0|0|2|0|0|0|0,0:0|0:0|0:0|0:0|0:0|0:0|0:0|0:0|0:0,0:0:0:0:
473,264,90079,5,0,0:0:0:0:
