osu file format v14

[General]
AudioFilename: audio.mp3
AudioLeadIn: 0
PreviewTime: 77143
Countdown: 0
SampleSet: Soft
StackLeniency: 0.7
Mode: 0
LetterboxInBreaks: 0
WidescreenStoryboard: 1

[Editor]
Bookmarks: 357,132500
DistanceSpacing: 0.9
BeatDivisor: 2
GridSize: 16
TimelineZoom: 1.5

[Metadata]
Title:Sora to Heikou ni Sou Kyokusen
TitleUnicode:空と平行に沿う曲線
Artist:Chata
ArtistUnicode:茶太
Creator:chaser01
Version:Wanpachi's Normal
Source:東方妖々夢 ~ Perfect Cherry Blossom.
Tags:pumice florescence wanpachi gorou cycopton japanese rock video game 東方project touhou project th7 アリス・マーガトロイド Alice Margatroid zun team shanghai alice 人形裁判 ~ 人の形弄びし少女 Doll Judgement ~ The Girl Who Played With People's Shapes comiket c83 ピグマリオン pygmalion サリー sally NSY shuriken
BeatmapID:3903578
BeatmapSetID:1890591

[Difficulty]
HPDrainRate:3
CircleSize:3
OverallDifficulty:4
ApproachRate:5
SliderMultiplier:1.1
SliderTickRate:1

[Events]
//Background and Video events
0,0,"bgbg.jpg",0,0
//Break Periods
2,30378,40407
2,123235,131300
//Storyboard Layer 0 (Background)
//Storyboard Layer 1 (Fail)
//Storyboard Layer 2 (Pass)
//Storyboard Layer 3 (Foreground)
//Storyboard Layer 4 (Overlay)
//Storyboard Sound Samples

[TimingPoints]
357,357.142857142857,4,2,1,65,1,0
1786,357.142857142857,4,1,1,65,1,0
15893,-100,4,1,1,65,0,0
16250,-111.111111111111,4,1,1,55,0,0
27321,-111.111111111111,4,1,1,60,0,0
29643,-100,4,1,1,65,0,0
41607,-111.111111111111,4,1,1,65,0,0
41964,-111.111111111111,4,1,1,55,0,0
53035,-111.111111111111,4,1,1,60,0,0
74464,-111.111111111111,4,1,1,75,0,0
75535,-111.111111111111,4,1,1,65,0,0
77500,-100,4,1,1,75,0,0
111607,-100,4,1,1,65,0,0
112143,-100,4,1,1,65,0,0
117321,-100,4,1,1,55,0,0
119821,-100,4,1,1,65,0,0
120178,-100,4,1,1,45,0,0
121607,-100,4,1,1,55,0,0
122321,-100,4,1,1,65,0,0
122857,-111.111111111111,4,1,1,75,0,0
123214,-111.111111111111,4,1,1,45,0,0
132500,-111.111111111111,4,1,1,70,0,0
133035,-111.111111111111,4,1,1,65,0,0
134464,-111.111111111111,4,1,1,65,0,0
146071,-111.111111111111,4,1,1,55,0,0
154643,-111.111111111111,4,1,1,65,0,0
155893,-111.111111111111,4,1,1,75,0,0
156785,-111.111111111111,4,1,1,75,0,0
156964,-111.111111111111,4,1,1,65,0,0
158928,-100,4,1,1,75,0,0
181607,-100,4,1,1,65,0,0
181964,-100,4,1,1,65,0,0
198750,-100,4,1,1,55,0,0
201250,-100,4,1,1,75,0,0
201607,-100,4,1,1,55,0,0
203928,-100,4,1,1,75,0,0
205178,-100,4,1,1,75,0,0

[Colours]
Combo1 : 255,255,176
Combo2 : 255,155,155

[HitObjects]
63,74,1071,5,2,3:2:0:0:
63,74,1249,1,10,2:2:0:0:
156,107,1606,2,0,B|250:74|218:119|324:99,1,165,6|8,3:1|1:1,0:0:0:0:
411,64,2500,2,0,P|443:117|450:183,1,110,2|8,1:2|1:1,0:0:0:0:
426,206,3035,1,2,3:2:0:0:
487,283,3393,2,0,P|492:320|499:344,1,55,2|8,3:1|1:1,0:0:0:0:
459,370,3750,2,0,L|340:357,1,110,2|2,3:2|3:2,0:0:0:0:
272,295,4464,6,0,P|201:319|132:349,1,110,6|2,3:1|3:2,0:0:0:0:
125,356,5000,1,8,1:1:0:0:
66,276,5357,1,0,3:3:0:0:
66,276,5535,2,0,L|-3:255,2,55,2|10|2,3:1|1:1|3:2,0:0:0:0:
98,238,6071,2,0,B|115:189|116:190|116:190|87:117,1,110,2|8,1:1|1:0,0:0:0:0:
73,90,6607,1,2,3:2:0:0:
150,27,6964,2,0,P|190:41|234:52,1,55,2|8,3:2|1:1,0:0:0:0:
243,71,7321,6,0,P|285:21|385:32,1,165,6|8,1:1|1:1,0:0:0:0:
406,67,8035,2,0,P|385:137|372:205,1,110,2|2,3:1|3:2,0:0:0:0:
359,221,8571,1,8,1:1:0:0:
359,221,8750,1,2,3:2:0:0:
270,265,9107,2,0,L|281:339,1,55,2|8,3:1|1:0,0:0:0:0:
309,358,9464,2,0,B|375:345|358:368|443:376,1,110,2|2,3:1|3:1,0:0:0:0:
489,306,10178,6,0,P|462:204|458:166,1,110,2|0,3:1|3:3,0:0:0:0:
488,158,10714,1,8,1:0:0:0:
435,74,11071,1,2,1:2:0:0:
435,74,11250,2,0,L|442:9,2,55,2|8|2,3:1|1:0|3:1,0:0:0:0:
396,104,11785,2,0,B|345:116|345:116|275:71,1,110,2|10,1:2|1:1,0:0:0:0:
210,35,12500,1,2,3:2:0:0:
210,35,12678,2,0,P|188:39|141:65,1,55,0|8,3:3|1:1,0:0:0:0:
109,41,13035,6,0,B|89:127|131:123|106:233,1,165,6|8,3:1|1:1,0:0:0:0:
52,284,13928,2,0,P|92:315|155:333,1,110,0|8,0:0|1:1,0:0:0:0:
180,369,14464,2,0,L|303:346,1,110,2|0,1:1|3:3,0:0:0:0:
322,312,15000,1,10,3:1:0:0:
410,356,15357,1,4,1:3:0:0:
410,356,15535,1,8,1:1:0:0:
486,292,15893,6,0,P|484:234|469:169,1,110,6|0,3:2|3:3,0:0:0:0:
494,96,16607,1,2,1:1:0:0:
494,96,16785,2,0,L|375:83,1,98.9999969787599,8|8,1:3|1:1,0:0:0:0:
373,46,17321,2,0,P|326:44|264:16,1,98.9999969787599,2|0,1:1|3:3,0:0:0:0:
220,93,18035,1,2,1:1:0:0:
276,162,18393,1,0,3:3:0:0:
250,247,18750,6,0,B|197:237|206:256|147:259,1,98.9999969787599,6|2,3:2|3:2,0:0:0:0:
74,296,19464,1,2,1:1:0:0:
74,296,19643,2,0,P|58:227|52:167,1,98.9999969787599,8|8,1:3|1:1,0:0:0:0:
77,161,20178,1,2,1:1:0:0:
38,80,20535,1,0,3:3:0:0:
100,15,20893,2,0,P|155:21|190:80,1,98.9999969787599,2|0,1:1|0:0,0:0:0:0:
235,123,21607,6,0,L|348:146,2,98.9999969787599,6|0|2,3:2|3:3|1:1,0:0:0:0:
195,144,22500,1,2,3:2:0:0:
229,226,22857,1,8,1:1:0:0:
229,226,23035,2,0,P|208:288|203:360,1,98.9999969787599,0|2,3:3|3:2,0:0:0:0:
283,361,23750,2,0,L|395:345,1,98.9999969787599,2|2,1:1|3:2,0:0:0:0:
428,362,24285,1,8,1:1:0:0:
428,362,24464,6,0,B|441:291|460:320|474:240,1,98.9999969787599,6|2,3:2|3:2,0:0:0:0:
494,190,25178,1,2,1:1:0:0:
494,190,25357,2,0,P|471:140|435:83,1,98.9999969787599,8|8,1:3|1:1,0:0:0:0:
430,61,25893,1,2,3:2:0:0:
354,108,26250,1,2,3:2:0:0:
283,53,26607,1,2,3:2:0:0:
196,30,26964,1,0,0:0:0:0:
118,73,27321,6,0,P|97:124|77:195,1,98.9999969787599,6|0,3:2|3:3,0:0:0:0:
53,198,27857,1,8,1:1:0:0:
71,285,28214,2,0,L|9:303,2,49.4999984893799,0|2|10,0:0|3:2|1:1,0:0:0:0:
113,300,28750,2,0,B|171:291|160:310|218:328,1,98.9999969787599,2|0,3:2|3:3,0:0:0:0:
241,351,29285,1,4,3:3:0:0:
321,292,29643,1,8,1:1:0:0:
321,292,29821,1,2,3:2:0:0:
412,329,30178,5,6,3:1:0:0:
233,130,41607,6,0,P|223:63|209:20,2,98.9999969787599,6|0|2,3:1|3:3|1:1,0:0:0:0:
257,167,42500,2,0,L|239:289,1,98.9999969787599,8|8,1:3|1:1,0:0:0:0:
234,308,43035,1,6,1:1:0:0:
300,367,43393,2,0,P|356:349|385:344,1,49.4999984893799,0|8,3:3|1:1,0:0:0:0:
383,325,43750,2,0,P|443:336|494:334,1,98.9999969787599,2|0,1:1|3:3,0:0:0:0:
505,298,44285,1,8,1:1:0:0:
505,298,44464,5,6,3:2:0:0:
476,213,44821,2,0,B|471:167|501:175|489:107,1,98.9999969787599,2|2,3:2|1:1,0:0:0:0:
468,77,45357,2,0,P|477:54|485:30,2,49.4999984893799,8|0|8,1:3|3:3|1:1,0:0:0:0:
423,83,45893,1,2,1:1:0:0:
339,51,46250,2,0,P|324:89|302:118,1,49.4999984893799,0|8,3:3|1:1,0:0:0:0:
277,112,46607,2,0,P|225:90|165:57,1,98.9999969787599,2|0,1:1|0:0,0:0:0:0:
124,132,47321,6,0,P|83:172|85:244,1,98.9999969787599,6|0,3:2|3:3,0:0:0:0:
19,280,48035,1,2,1:1:0:0:
19,280,48214,2,0,L|47:412,1,98.9999969787599,2|8,3:2|1:1,0:0:0:0:
83,369,48750,1,0,3:3:0:0:
171,378,49107,2,0,P|181:367|201:315,1,49.4999984893799,2|8,3:2|1:1,0:0:0:0:
234,311,49464,2,0,P|224:253|226:185,1,98.9999969787599,2|2,1:1|3:2,0:0:0:0:
230,172,50000,1,8,1:1:0:0:
230,172,50178,6,0,L|107:191,2,98.9999969787599,6|2|2,3:2|3:2|1:1,0:0:0:0:
263,142,51071,1,8,1:3:0:0:
319,74,51428,1,8,1:1:0:0:
319,74,51607,2,0,P|383:96|438:101,1,98.9999969787599,2|2,3:2|3:2,0:0:0:0:
493,140,52321,1,2,1:1:0:0:
446,215,52678,1,2,1:1:0:0:
472,300,53035,6,0,B|424:285|427:307|362:294,1,98.9999969787599,6|2,3:1|3:2,0:0:0:0:
331,282,53571,2,0,P|306:291|271:308,1,49.4999984893799,8|2,1:1|0:0,0:0:0:0:
241,291,53928,1,2,3:2:0:0:
277,209,54285,2,0,P|278:153|234:53,1,148.49999546814,8|2,1:1|1:1,0:0:0:0:
212,36,55000,1,8,1:1:0:0:
137,85,55357,1,0,3:3:0:0:
82,14,55714,1,8,1:1:0:0:
42,93,56071,6,0,L|22:153,1,49.4999984893799,2|0,3:2|0:0,0:0:0:0:
44,180,56428,2,0,P|44:251|69:291,1,98.9999969787599,8|2,1:1|3:2,0:0:0:0:
69,322,56964,1,0,3:3:0:0:
69,322,57143,2,0,P|122:306|202:298,1,98.9999969787599,8|0,1:1|3:3,0:0:0:0:
221,368,57857,1,8,1:1:0:0:
296,320,58214,2,0,B|282:267|308:273|307:208,1,98.9999969787599,2|10,3:2|1:1,0:0:0:0:
260,147,58928,6,0,P|218:177|168:178,2,98.9999969787599,6|8|2,3:2|1:1|3:2,0:0:0:0:
236,60,60000,1,8,1:1:0:0:
319,28,60357,2,0,P|381:37|457:58,1,98.9999969787599,2|8,3:2|1:1,0:0:0:0:
457,63,60893,2,0,P|436:113|439:177,1,98.9999969787599,2|0,1:1|3:3,0:0:0:0:
461,192,61428,1,10,1:1:0:0:
417,269,61785,6,0,B|368:264|371:288|314:298,1,98.9999969787599,2|8,3:2|1:1,0:0:0:0:
271,368,62500,1,2,3:2:0:0:
190,329,62857,2,0,P|118:344|90:241,1,197.99999395752,10|8,1:1|1:1,0:0:0:0:
34,172,63928,2,0,P|25:113|8:59,1,98.9999969787599,0|8,3:3|1:1,0:0:0:0:
43,41,64464,1,8,1:3:0:0:
43,41,64643,5,6,3:2:0:0:
119,86,65000,1,8,1:1:0:0:
192,35,65357,1,0,3:3:0:0:
260,91,65714,2,0,P|253:168|216:293,1,197.99999395752,8|8,1:1|1:1,0:0:0:0:
292,336,66785,2,0,L|301:390,2,49.4999984893799,2|0|8,3:2|3:3|1:1,0:0:0:0:
373,300,67500,6,0,B|430:293|421:316|480:324,1,98.9999969787599,2|8,3:2|1:1,0:0:0:0:
510,243,68214,1,0,3:3:0:0:
449,177,68571,2,0,P|459:119|387:-7,1,197.99999395752,8|8,1:1|1:1,0:0:0:0:
327,55,69643,1,2,3:2:0:0:
247,14,70000,2,0,P|224:25|166:32,1,49.4999984893799,8|8,1:1|1:3,0:0:0:0:
167,61,70357,6,0,L|46:39,2,98.9999969787599,6|8|0,3:1|1:1|3:3,0:0:0:0:
234,119,71428,1,10,1:1:0:0:
168,179,71785,2,0,P|144:222|130:269,1,98.9999969787599,2|8,3:2|1:1,0:0:0:0:
169,350,72500,2,0,P|228:368|290:390,1,98.9999969787599,2|8,3:2|1:0,0:0:0:0:
309,369,73035,1,2,1:1:0:0:
309,369,73214,6,0,P|356:365|398:344,2,74.2499977340699,0|0|2,3:3|0:0|3:2,0:0:0:0:
309,324,73928,2,0,P|296:289|295:252,1,74.2499977340699,8|8,1:1|1:3,0:0:0:0:
247,205,74464,2,0,B|259:114|290:165|303:52,1,148.49999546814,6|0,3:1|0:0,0:0:0:0:
381,31,75357,1,8,1:1:0:0:
381,31,75535,1,8,3:3:0:0:
457,76,75893,6,0,P|461:145|476:197,1,98.9999969787599,4|2,3:3|3:2,0:0:0:0:
493,210,76428,1,8,1:1:0:0:
451,288,76785,2,0,L|381:302,1,49.4999984893799,8|4,1:3|1:3,0:0:0:0:
363,319,77143,2,0,L|293:333,1,49.4999984893799,10|10,1:1|1:1,0:0:0:0:
272,301,77500,6,0,B|206:289|217:315|132:317,2,110,6|8|0,3:1|1:1|2:2,0:0:0:0:
292,255,78393,2,0,P|290:231|280:190,1,55,2|8,3:2|1:1,0:0:0:0:
254,160,78750,1,2,3:2:0:0:
254,160,78928,2,0,L|276:34,1,110,2|8,1:1|1:1,0:0:0:0:
178,19,79643,2,0,P|123:56|46:62,1,110,2|8,1:1|1:1,0:0:0:0:
36,58,80178,1,2,1:2:0:0:
36,58,80357,6,0,L|54:166,1,110,2|8,3:1|1:1,0:0:0:0:
102,253,81071,1,2,3:2:0:0:
102,253,81250,2,0,P|91:270|83:310,1,55,2|8,1:2|1:1,0:0:0:0:
107,346,81607,2,0,B|168:360|164:340|239:348,1,110,2|0,3:2|3:3,0:0:0:0:
313,316,82321,1,0,3:3:0:0:
313,316,82500,1,2,1:1:0:0:
398,366,82857,1,10,1:1:0:0:
483,315,83214,6,0,P|477:258|448:188,1,110,6|8,3:1|1:1,0:0:0:0:
500,120,83928,1,0,3:0:0:0:
500,120,84107,2,0,P|438:99|411:37,1,110,2|2,1:1|3:2,0:0:0:0:
375,33,84643,2,0,B|314:17|320:51|250:45,1,110,2|8,1:1|1:1,0:0:0:0:
243,88,85178,2,0,P|181:73|108:66,1,110,2|2,1:1|3:2,0:0:0:0:
101,32,85714,5,10,1:1:0:0:
40,109,86071,2,0,P|52:169|58:231,1,110,6|8,3:1|1:1,0:0:0:0:
89,255,86607,2,0,P|87:323|133:366,1,110,2|0,1:1|3:3,0:0:0:0:
157,370,87143,1,10,1:1:0:0:
244,321,87500,1,6,3:1:0:0:
244,321,87678,2,0,P|229:256|220:177,1,110,8|0,1:1|0:0,0:0:0:0:
204,166,88214,2,0,P|164:174|119:199,2,82.5,2|0|8,3:1|2:2|1:1,0:0:0:0:
226,121,88928,6,0,B|286:107|271:78|345:73,1,110,6|8,3:1|1:1,0:0:0:0:
405,16,89643,1,0,3:0:0:0:
405,16,89821,2,0,P|463:52|512:71,1,110,2|2,3:1|3:2,0:0:0:0:
511,116,90357,2,0,P|468:156|469:233,1,110,2|8,1:1|1:1,0:0:0:0:
382,266,91071,2,0,P|425:306|424:383,1,110,2|8,1:1|1:1,0:0:0:0:
388,376,91607,1,0,2:2:0:0:
388,376,91785,6,0,P|320:347|266:330,1,110,2|8,3:1|1:1,0:0:0:0:
197,290,92500,1,2,3:1:0:0:
197,290,92678,2,0,L|134:308,1,55,2|8,3:2|1:1,0:0:0:0:
94,302,93035,2,0,P|46:271|60:212,1,110,4|2,3:1|3:1,0:0:0:0:
82,186,93571,1,10,1:1:0:0:
107,90,93928,2,0,L|81:5,2,82.5,2|2|2,1:1|1:1|3:1,0:0:0:0:
150,114,94643,6,0,P|206:90|278:76,1,110,4|8,3:1|1:1,0:0:0:0:
291,46,95178,2,0,P|347:70|419:84,1,110,2|0,1:1|3:3,0:0:0:0:
442,67,95714,2,0,P|459:99|471:139,1,55,10|6,1:1|3:1,0:0:0:0:
457,165,96071,1,0,0:0:0:0:
497,255,96428,1,8,1:1:0:0:
497,255,96607,2,0,B|431:249|453:279|397:293,1,110,6|0,3:1|3:3,0:0:0:0:
366,331,97143,2,0,P|348:322|295:310,1,55,8|4,1:1|1:3,0:0:0:0:
272,285,97500,5,4,3:1:0:0:
256,192,97857,1,8,1:1:0:0:
256,192,98035,1,0,0:0:0:0:
256,192,98214,12,10,99643,3:1:0:0:
219,91,100178,6,0,B|157:78|168:103|96:108,1,110,6|2,3:1|3:2,0:0:0:0:
69,80,100714,1,10,1:1:0:0:
22,167,101071,1,2,3:2:0:0:
22,167,101250,2,0,P|28:182|45:233,1,55,2|8,3:1|1:1,0:0:0:0:
23,267,101607,1,2,3:1:0:0:
23,267,101785,2,0,P|40:332|115:358,1,110,2|10,1:2|1:1,0:0:0:0:
115,380,102321,2,0,P|180:363|206:288,1,110,2|0,3:2|3:3,0:0:0:0:
214,281,102857,1,8,1:1:0:0:
306,315,103214,6,0,L|381:307,1,55,0|2,0:0|3:2,0:0:0:0:
406,329,103571,2,0,L|481:321,1,55,10|0,1:1|0:0,0:0:0:0:
497,290,103928,2,0,B|507:237|507:237|470:176,1,110,2|8,1:1|1:1,0:0:0:0:
447,149,104464,1,2,3:1:0:0:
467,52,104821,2,0,P|442:46|399:26,1,55,0|10,3:3|1:1,0:0:0:0:
372,9,105178,1,2,1:2:0:0:
313,88,105535,1,2,3:1:0:0:
214,73,105893,6,0,P|243:144|238:196,1,110,6|2,3:1|3:2,0:0:0:0:
274,213,106428,1,10,1:1:0:0:
219,295,106785,1,2,3:1:0:0:
219,295,106964,2,0,P|187:306|140:334,1,55,2|8,3:2|1:1,0:0:0:0:
133,350,107321,2,0,B|77:329|82:352|9:343,1,110,2|2,3:1|3:2,0:0:0:0:
49,248,108035,2,0,P|29:186|21:129,1,110,2|2,3:1|3:1,0:0:0:0:
31,93,108571,1,8,1:1:0:0:
31,93,108750,6,0,L|153:61,1,110,2|2,3:1|3:2,0:0:0:0:
174,32,109285,1,10,1:1:0:0:
254,89,109643,1,0,3:3:0:0:
254,89,109821,2,0,P|268:110|284:166,1,55,2|8,3:2|1:1,0:0:0:0:
247,175,110178,2,0,B|238:242|220:216|213:299,1,110,2|2,3:1|3:1,0:0:0:0:
243,326,110714,1,8,1:1:0:0:
243,326,110893,1,2,3:1:0:0:
334,363,111250,2,0,L|401:352,1,55,8|8,1:1|1:1,0:0:0:0:
436,365,111607,6,0,P|446:301|466:244,1,110,6|0,3:1|3:3,0:0:0:0:
496,224,112143,1,10,1:1:0:0:
431,148,112500,1,2,1:2:0:0:
431,148,112678,2,0,L|417:83,1,55,0|8,3:3|1:1,0:0:0:0:
389,54,113035,2,0,B|330:34|331:57|266:53,1,110,2|0,1:1|0:0,0:0:0:0:
239,81,113571,1,10,1:1:0:0:
293,163,113928,1,10,3:2:0:0:
293,163,114107,1,2,3:2:0:0:
225,235,114464,6,0,P|212:252|188:349,1,110,6|0,3:1|3:3,0:0:0:0:
149,368,115000,1,10,1:1:0:0:
69,309,115357,1,2,1:1:0:0:
69,309,115535,2,0,P|61:284|47:247,1,55,0|8,3:3|1:1,0:0:0:0:
19,218,115893,2,0,L|55:86,1,110,2|2,1:1|3:2,0:0:0:0:
31,65,116428,1,8,1:1:0:0:
121,25,116785,1,10,3:2:0:0:
121,25,116964,1,2,3:2:0:0:
205,76,117321,6,0,B|277:65|261:98|334:109,1,110,6|0,3:1|3:3,0:0:0:0:
353,82,117857,1,10,1:1:0:0:
445,47,118214,1,2,1:1:0:0:
445,47,118393,2,0,P|472:62|515:78,1,55,2|8,3:2|1:1,0:0:0:0:
485,120,118750,2,0,P|501:177|491:251,1,110,2|0,1:1|3:0,0:0:0:0:
480,273,119285,1,8,1:1:0:0:
400,332,119643,1,10,3:2:0:0:
400,332,119821,1,2,3:2:0:0:
311,286,120178,6,0,L|190:304,1,110,6|0,3:1|3:3,0:0:0:0:
159,327,120714,1,10,1:1:0:0:
87,267,121071,1,2,1:1:0:0:
87,267,121250,2,0,P|96:243|107:199,1,55,2|8,3:2|1:1,0:0:0:0:
132,173,121607,2,0,B|124:103|108:120|94:55,1,110,2|2,1:1|3:2,0:0:0:0:
123,27,122143,1,8,1:0:0:0:
219,7,122500,1,2,3:1:0:0:
219,7,122678,1,2,3:2:0:0:
242,92,123035,5,6,3:2:0:0:
242,92,132500,6,0,L|255:26,2,49.4999984893799,2|8|8,3:1|1:1|1:1,0:0:0:0:
227,134,133035,2,0,P|240:211|255:276,1,98.9999969787599,6|8,3:1|1:1,0:0:0:0:
228,273,133571,1,8,1:1:0:0:
228,273,133750,2,0,P|291:288|326:335,1,98.9999969787599,6|8,3:1|1:1,0:0:0:0:
394,348,134464,6,0,B|407:296|417:315|442:228,1,98.9999969787599,6|2,3:1|3:2,0:0:0:0:
465,226,135000,2,0,P|463:189|456:151,1,49.4999984893799,8|0,1:1|0:0,0:0:0:0:
476,134,135357,1,2,3:2:0:0:
442,51,135714,2,0,P|378:75|256:77,1,148.49999546814,8|2,1:1|1:1,0:0:0:0:
261,57,136428,1,8,1:1:0:0:
175,83,136785,1,0,3:3:0:0:
103,30,137143,1,8,1:1:0:0:
33,85,137500,6,0,P|41:117|49:150,1,49.4999984893799,2|0,3:2|3:3,0:0:0:0:
69,170,137857,2,0,P|63:235|29:300,1,98.9999969787599,8|2,1:1|3:2,0:0:0:0:
35,307,138393,1,0,3:3:0:0:
35,307,138571,2,0,L|158:330,1,98.9999969787599,8|0,1:1|3:3,0:0:0:0:
209,370,139285,1,8,1:1:0:0:
282,319,139643,2,0,P|286:270|267:202,1,98.9999969787599,2|10,3:2|1:1,0:0:0:0:
228,145,140357,6,0,P|164:128|104:112,2,98.9999969787599,6|8|2,3:2|1:1|3:2,0:0:0:0:
284,75,141428,1,8,1:1:0:0:
363,113,141785,2,0,B|419:109|404:128|455:141,1,98.9999969787599,2|8,3:2|1:1,0:0:0:0:
487,173,142321,2,0,P|450:199|450:269,1,98.9999969787599,2|0,1:1|3:0,0:0:0:0:
466,286,142857,1,10,1:1:0:0:
412,357,143214,6,0,P|352:340|280:330,1,98.9999969787599,2|8,3:2|1:1,0:0:0:0:
247,276,143928,1,2,3:2:0:0:
296,202,144285,2,0,P|284:113|252:-8,1,197.99999395752,10|2,1:1|3:2,0:0:0:0:
182,53,145357,1,2,3:2:0:0:
182,53,145535,2,0,P|136:23|88:18,1,98.9999969787599,2|8,3:2|1:3,0:0:0:0:
64,51,146071,6,0,P|68:102|86:173,1,98.9999969787599,6|2,3:2|3:2,0:0:0:0:
22,218,146785,1,10,1:1:0:0:
88,278,147143,2,0,P|120:250|193:250,1,98.9999969787599,2|0,1:1|0:0,0:0:0:0:
207,273,147678,2,0,L|328:306,1,98.9999969787599,8|0,1:1|0:0,0:0:0:0:
343,315,148214,2,0,P|359:337|379:382,2,49.4999984893799,0|8|0,3:3|1:1|0:0,0:0:0:0:
426,284,148928,6,0,L|442:220,1,49.4999984893799,6|0,3:2|0:0,0:0:0:0:
430,191,149285,1,0,3:3:0:0:
485,120,149643,2,0,P|480:103|453:66,1,49.4999984893799,8|0,1:1|0:0,0:0:0:0:
427,49,150000,2,0,B|367:32|378:58|330:58,1,98.9999969787599,2|0,1:1|0:0,0:0:0:0:
289,43,150535,1,0,3:3:0:0:
169,102,151071,2,0,P|140:92|98:59,1,49.4999984893799,8|8,1:1|1:3,0:0:0:0:
81,96,151428,2,0,L|67:169,1,49.4999984893799,4|4,3:3|3:3,0:0:0:0:
89,185,151785,6,0,P|32:202|-43:218,2,98.9999969787599,6|0|8,3:2|0:0|1:1,0:0:0:0:
166,229,152857,1,2,3:1:0:0:
129,310,153214,1,2,1:1:0:0:
129,310,153393,2,0,P|171:348|246:356,1,98.9999969787599,0|8,3:3|1:1,0:0:0:0:
253,347,153928,2,0,L|344:369,2,74.2499977340699,8|2|2,1:1|1:2|0:0,0:0:0:0:
260,302,154643,6,0,P|253:266|230:212,1,74.2499977340699,6|2,3:1|3:2,0:0:0:0:
288,184,155178,1,2,3:2:0:0:
288,184,155357,2,0,P|295:148|318:94,1,74.2499977340699,8|8,1:1|1:3,0:0:0:0:
360,70,155893,2,0,P|438:69|477:219,1,247.4999924469,6|8,3:1|1:1,0:0:0:0:
451,240,156964,1,0,3:3:0:0:
487,321,157321,6,0,P|438:332|373:350,1,98.9999969787599,4|2,1:3|3:2,0:0:0:0:
351,366,157857,1,8,1:1:0:0:
270,327,158214,2,0,P|264:310|261:257,1,49.4999984893799,8|0,1:3|0:0,0:0:0:0:
283,241,158571,2,0,P|289:224|292:171,1,49.4999984893799,10|10,1:1|1:1,0:0:0:0:
310,146,158928,6,0,P|278:91|261:24,1,110,6|8,3:1|1:1,0:0:0:0:
167,68,159643,1,0,3:2:0:0:
167,68,159821,2,0,P|144:53|101:47,1,55,2|8,3:2|1:1,0:0:0:0:
68,53,160178,1,2,3:2:0:0:
68,53,160357,2,0,P|46:125|49:210,1,110,2|8,1:1|1:1,0:0:0:0:
123,218,161071,2,0,P|129:272|147:324,1,110,2|8,1:1|1:1,0:0:0:0:
189,350,161607,1,2,1:2:0:0:
189,350,161785,6,0,B|253:340|240:354|304:375,1,110,2|8,3:1|1:1,0:0:0:0:
378,320,162500,1,2,3:2:0:0:
378,320,162678,2,0,P|406:325|444:336,1,55,2|8,1:2|1:1,0:0:0:0:
476,311,163035,2,0,P|501:252|477:185,1,110,2|0,3:2|3:3,0:0:0:0:
425,144,163750,1,0,3:3:0:0:
425,144,163928,1,2,2:1:0:0:
468,55,164285,1,10,1:1:0:0:
378,11,164643,6,0,L|253:31,1,110,6|8,3:1|1:1,0:0:0:0:
193,92,165357,1,0,3:0:0:0:
193,92,165535,2,0,P|140:61|76:42,1,110,2|2,1:1|3:2,0:0:0:0:
52,72,166071,2,0,P|28:117|49:201,1,110,2|8,1:1|1:1,0:0:0:0:
69,208,166607,2,0,L|50:347,1,110,2|2,1:1|3:2,0:0:0:0:
88,352,167143,1,10,1:1:0:0:
180,316,167500,6,0,B|243:303|224:320|310:316,1,110,2|8,3:1|1:1,0:0:0:0:
334,336,168035,2,0,P|402:339|453:358,1,110,2|0,1:1|3:3,0:0:0:0:
485,329,168571,1,10,1:1:0:0:
432,251,168928,1,6,3:1:0:0:
432,251,169107,2,0,L|454:116,1,110,8|0,1:1|0:0,0:0:0:0:
427,98,169643,2,0,P|445:61|453:21,2,82.5,2|0|8,3:1|3:2|1:1,0:0:0:0:
379,83,170357,6,0,P|310:97|238:94,1,110,6|8,3:1|1:1,0:0:0:0:
221,183,171071,1,0,3:0:0:0:
221,183,171250,2,0,B|229:239|242:220|263:295,1,110,2|2,3:1|3:2,0:0:0:0:
287,326,171785,2,0,P|211:338|159:351,1,110,2|8,1:1|1:1,0:0:0:0:
92,297,172500,2,0,P|78:239|19:205,1,110,2|8,1:1|1:1,0:0:0:0:
67,168,173035,1,0,0:0:0:0:
67,168,173214,6,0,P|81:109|111:36,1,110,2|8,3:1|1:1,0:0:0:0:
192,94,173928,1,2,3:1:0:0:
192,94,174107,2,0,L|278:78,1,55,2|8,3:2|1:1,0:0:0:0:
280,48,174464,2,0,P|342:66|423:99,1,110,4|2,3:1|3:1,0:0:0:0:
434,84,175000,1,10,1:1:0:0:
408,179,175357,2,0,L|323:205,2,82.5,2|2|2,1:1|1:1|3:1,0:0:0:0:
453,198,176071,6,0,P|467:260|505:282,1,110,4|8,3:1|1:1,0:0:0:0:
482,326,176607,2,0,P|421:344|355:368,1,110,2|0,1:1|3:3,0:0:0:0:
334,334,177143,2,0,P|310:326|256:297,1,55,10|6,1:1|3:1,0:0:0:0:
259,270,177500,1,0,0:0:0:0:
307,183,177857,1,8,1:1:0:0:
307,183,178035,2,0,P|283:120|281:52,1,110,6|0,3:1|3:3,0:0:0:0:
243,42,178571,2,0,L|162:50,1,55,8|4,1:1|1:3,0:0:0:0:
140,33,178928,5,6,3:1:0:0:
59,88,179285,1,8,1:1:0:0:
59,88,179464,1,0,0:0:0:0:
256,192,179643,12,2,181071,3:2:0:0:
430,101,181607,6,0,P|344:77|253:46,1,165,6|8,3:1|1:1,0:0:0:0:
166,8,182500,2,0,P|113:41|50:56,1,110,2|8,1:2|1:1,0:0:0:0:
32,88,183035,1,2,3:2:0:0:
84,172,183393,2,0,L|63:245,1,55,2|8,3:1|1:0,0:0:0:0:
41,266,183750,2,0,P|77:324|149:304,1,110,2|2,3:2|3:2,0:0:0:0:
206,362,184464,6,0,P|267:350|344:343,1,110,6|2,3:1|1:2,0:0:0:0:
360,363,185000,1,8,1:1:0:0:
437,300,185357,1,0,3:3:0:0:
437,300,185535,2,0,L|469:360,2,55,2|10|2,3:1|1:0|3:2,0:0:0:0:
419,253,186071,2,0,B|442:203|442:203|424:134,1,110,2|8,1:1|1:0,0:0:0:0:
414,102,186607,1,2,1:1:0:0:
329,50,186964,2,0,P|304:63|259:83,1,55,2|8,3:2|1:1,0:0:0:0:
230,77,187321,6,0,B|209:162|254:131|229:245,1,165,6|8,1:1|1:1,0:0:0:0:
256,281,188035,2,0,P|182:299|126:326,1,110,2|2,3:1|3:2,0:0:0:0:
111,340,188571,1,8,1:1:0:0:
111,340,188750,1,2,3:2:0:0:
48,263,189107,2,0,L|36:187,1,55,2|8,3:1|1:0,0:0:0:0:
70,169,189464,2,0,P|77:107|104:44,1,110,2|2,3:1|3:1,0:0:0:0:
190,83,190178,6,0,B|255:67|245:88|303:97,1,110,2|0,3:1|3:3,0:0:0:0:
340,73,190714,1,8,1:1:0:0:
432,107,191071,1,2,1:2:0:0:
432,107,191250,2,0,P|441:88|470:52,2,55,2|8|2,3:1|1:1|3:1,0:0:0:0:
415,153,191785,2,0,B|446:201|446:201|434:252,1,110,2|10,1:2|1:1,0:0:0:0:
486,343,192500,1,2,1:2:0:0:
486,343,192678,2,0,L|417:373,1,55,8|8,1:3|1:1,0:0:0:0:
392,340,193035,6,0,P|322:333|260:295,1,110,6|0,3:1|3:3,0:0:0:0:
263,272,193571,1,10,1:1:0:0:
247,174,193928,1,2,1:2:0:0:
247,174,194107,2,0,P|259:147|260:114,1,55,0|8,3:3|1:1,0:0:0:0:
239,76,194464,2,0,B|169:62|198:85|117:78,1,110,2|0,1:1|0:0,0:0:0:0:
84,60,195000,1,10,1:1:0:0:
28,141,195357,1,10,3:2:0:0:
28,141,195535,1,2,3:2:0:0:
73,229,195893,6,0,P|52:302|39:365,1,110,6|0,3:1|3:3,0:0:0:0:
83,366,196428,1,10,1:1:0:0:
175,330,196785,1,2,1:1:0:0:
175,330,196964,2,0,P|208:332|249:348,1,55,0|8,3:3|1:1,0:0:0:0:
276,353,197321,2,0,B|341:339|321:314|391:316,1,110,2|2,1:1|3:2,0:0:0:0:
423,334,197857,2,0,P|433:321|459:260,1,55,8|0,1:1|0:0,0:0:0:0:
442,238,198214,1,10,3:2:0:0:
442,238,198393,1,2,3:2:0:0:
488,150,198750,6,0,P|464:83|447:32,1,110,6|0,3:1|0:0,0:0:0:0:
407,24,199285,1,10,1:1:0:0:
339,96,199643,1,0,0:0:0:0:
339,96,199821,2,0,P|321:102|267:124,1,55,2|8,3:2|1:1,0:0:0:0:
242,136,200178,2,0,B|185:125|206:109|134:94,1,110,2|0,1:1|3:0,0:0:0:0:
97,71,200714,1,8,1:1:0:0:
28,142,201071,1,10,3:2:0:0:
28,142,201250,1,2,3:2:0:0:
88,220,201607,6,0,P|96:281|91:350,1,110,6|0,3:1|3:3,0:0:0:0:
131,361,202143,1,10,1:1:0:0:
218,314,202500,1,2,1:1:0:0:
218,314,202678,2,0,L|285:319,1,55,2|8,3:2|1:1,0:0:0:0:
310,285,203035,2,0,P|316:222|280:176,1,110,2|0,3:2|0:0,0:0:0:0:
242,179,203571,1,8,1:1:0:0:
192,93,203928,1,8,1:1:0:0:
192,93,204107,1,8,1:1:0:0:
270,32,204464,5,6,3:1:0:0:
