osu file format v14

[General]
AudioFilename: audio.mp3
AudioLeadIn: 0
PreviewTime: 77143
Countdown: 0
SampleSet: Normal
StackLeniency: 0.7
Mode: 0
LetterboxInBreaks: 0
WidescreenStoryboard: 1

[Editor]
Bookmarks: 357,15893,41607,77500,100357,123035,158928,181607,201607
DistanceSpacing: 0.9
BeatDivisor: 4
GridSize: 16
TimelineZoom: 2.899999

[Metadata]
Title:Sora to Heikou ni Sou Kyokusen
TitleUnicode:空と平行に沿う曲線
Artist:Chata
ArtistUnicode:茶太
Creator:chaser01
Version:Hard
Source:東方妖々夢 ~ Perfect Cherry Blossom.
Tags:pumice florescence wanpachi gorou cycopton japanese rock video game 東方project touhou project th7 アリス・マーガトロイド Alice Margatroid zun team shanghai alice 人形裁判 ~ 人の形弄びし少女 Doll Judgement ~ The Girl Who Played With People's Shapes comiket c83 ピグマリオン pygmalion サリー sally NSY shuriken
BeatmapID:3896462
BeatmapSetID:1890591

[Difficulty]
HPDrainRate:4
CircleSize:3.6
OverallDifficulty:7
ApproachRate:7.4
SliderMultiplier:1.45
SliderTickRate:1

[Events]
//Background and Video events
0,0,"bgbg.jpg",0,0
//Break Periods
2,74664,75589
2,123235,132196
2,156093,157018
//Storyboard Layer 0 (Background)
//Storyboard Layer 1 (Fail)
//Storyboard Layer 2 (Pass)
//Storyboard Layer 3 (Foreground)
//Storyboard Layer 4 (Overlay)
//Storyboard Sound Samples

[TimingPoints]
357,357.142857142857,4,2,1,65,1,0
1786,357.142857142857,4,1,1,65,1,0
15893,-117.647058823529,4,1,1,65,0,0
16250,-117.647058823529,4,1,1,55,0,0
27321,-100,4,1,1,60,0,0
29643,-100,4,1,1,65,0,0
41607,-117.647058823529,4,1,1,65,0,0
41964,-117.647058823529,4,1,1,55,0,0
53035,-100,4,1,1,60,0,0
74464,-100,4,1,1,75,0,0
75535,-133.333333333333,4,1,1,65,0,0
77500,-90.9090909090909,4,1,1,75,0,0
111607,-90.9090909090909,4,1,1,65,0,0
112143,-100,4,1,1,65,0,0
117321,-111.111111111111,4,1,1,55,0,0
119821,-111.111111111111,4,1,1,65,0,0
120178,-111.111111111111,4,1,1,45,0,0
121607,-111.111111111111,4,1,1,55,0,0
122321,-111.111111111111,4,1,1,65,0,0
122857,-111.111111111111,4,1,1,75,0,0
132500,-111.111111111111,4,1,1,70,0,0
133035,-90.9090909090909,4,1,1,65,0,0
134464,-100,4,1,1,65,0,0
146071,-111.111111111111,4,1,1,55,0,0
154643,-111.111111111111,4,1,1,65,0,0
155893,-111.111111111111,4,1,1,75,0,0
156785,-133.333333333333,4,1,1,75,0,0
156964,-133.333333333333,4,1,1,65,0,0
158928,-90.9090909090909,4,1,1,75,0,0
181607,-90.9090909090909,4,1,1,65,0,0
181964,-100,4,1,1,65,0,0
198750,-100,4,1,1,55,0,0
201250,-100,4,1,1,75,0,0
201607,-100,4,1,1,55,0,0
203928,-100,4,1,1,75,0,0
205178,-100,4,1,1,75,0,0

[Colours]
Combo1 : 255,255,176
Combo2 : 255,155,155

[HitObjects]
17,349,357,5,2,3:2:0:0:
95,372,535,2,0,L|132:381,4,36.25,8|8|8|8|8,2:3|2:3|2:2|2:2|2:2,0:0:0:0:
38,265,1071,2,0,L|55:180,1,72.5,2|10,3:2|2:2,0:0:0:0:
52,193,1606,6,0,B|134:187|99:217|211:201,1,145,6|0,3:1|3:3,0:0:0:0:
312,277,2143,2,0,B|230:271|265:301|153:285,1,145,8|2,1:1|1:2,0:0:0:0:
96,325,2678,2,0,P|135:361|180:366,1,72.5,0|8,3:3|1:1,0:0:0:0:
260,373,3035,2,0,P|309:368|398:366,1,108.75,2|0,3:2|0:0,0:0:0:0:
368,365,3393,2,0,P|359:321|359:290,1,72.5,2|8,3:1|1:1,0:0:0:0:
279,240,3750,2,0,P|292:189|298:152,1,72.5,2|0,3:2|0:0,0:0:0:0:
390,144,4107,1,2,3:2:0:0:
350,60,4285,1,8,1:1:0:0:
249,66,4464,6,0,P|187:25|100:24,1,145,6|2,3:1|3:2,0:0:0:0:
128,114,5000,2,0,P|190:155|277:156,1,145,8|0,1:1|3:3,0:0:0:0:
344,206,5535,2,0,P|350:246|360:279,2,72.5,2|10|2,3:1|1:1|3:2,0:0:0:0:
357,123,6071,1,2,1:1:0:0:
260,154,6250,2,0,P|221:163|186:164,1,72.5,2|8,3:2|1:0,0:0:0:0:
188,257,6607,2,0,P|118:275|46:275,1,145,2|2,3:2|3:2,0:0:0:0:
152,353,7143,1,8,1:1:0:0:
254,332,7321,6,0,P|323:313|486:317,1,217.5,6|8,1:1|1:1,0:0:0:0:
512,231,8035,2,0,P|463:226|422:214,1,72.5,2|0,3:1|0:0,0:0:0:0:
334,183,8393,1,2,3:2:0:0:
355,105,8571,1,8,1:1:0:0:
435,91,8750,2,0,P|484:96|525:108,1,72.5,2|0,3:2|0:0,0:0:0:0:
383,25,9107,6,0,P|314:24|220:60,2,145,2|2|2,3:1|3:1|3:1,0:0:0:0:
346,105,10000,1,8,1:1:0:0:
263,130,10178,2,0,P|212:130|106:103,1,145,2|0,3:1|3:3,0:0:0:0:
39,121,10714,2,0,P|33:161|40:208,1,72.5,8|0,1:0|0:0,0:0:0:0:
119,226,11071,2,0,P|125:186|118:139,1,72.5,2|2,1:2|3:1,0:0:0:0:
39,279,11428,2,0,P|87:300|115:302,1,72.5,8|2,1:0|3:1,0:0:0:0:
204,282,11785,5,2,1:2:0:0:
204,282,11964,1,0,3:3:0:0:
283,340,12143,1,10,1:1:0:0:
283,340,12321,1,0,3:3:0:0:
362,285,12500,1,2,3:2:0:0:
362,285,12678,2,0,P|418:298|444:305,1,72.5,0|8,3:3|1:1,0:0:0:0:
284,245,13035,6,0,P|274:209|280:28,1,217.5,6|8,3:1|1:1,0:0:0:0:
360,23,13750,2,0,P|370:78|363:180,1,145,2|0,1:1|3:3,0:0:0:0:
284,171,14285,1,8,1:1:0:0:
207,149,14464,2,0,P|185:113|180:36,1,108.75,2|8,1:1|1:1,0:0:0:0:
172,47,14821,2,0,P|109:54|67:59,1,72.5,0|10,3:3|3:1,0:0:0:0:
0,270,15357,5,4,1:3:0:0:
129,294,15535,1,8,1:1:0:0:
129,294,15893,2,0,P|213:303|277:320,2,123.250002350807,6|0|2,3:2|3:3|1:1,0:0:0:0:
75,236,16785,2,0,P|63:187|63:156,1,61.6250011754036,8|2,1:3|3:2,0:0:0:0:
142,151,17143,2,0,P|154:200|154:231,1,61.6250011754036,8|2,1:1|1:1,0:0:0:0:
445,67,18750,6,0,P|361:58|297:41,2,123.250002350807,6|2|2,3:2|3:2|1:1,0:0:0:0:
499,125,19642,2,0,P|511:174|511:205,1,61.6250011754036,8|0,1:3|3:3,0:0:0:0:
432,210,20000,2,0,P|420:161|420:130,1,61.6250011754036,8|2,1:1|1:1,0:0:0:0:
202,378,21607,6,0,P|189:328|192:253,2,123.250002350807,6|0|2,3:2|3:3|1:1,0:0:0:0:
268,325,22500,1,2,3:2:0:0:
268,325,22678,1,0,3:3:0:0:
341,350,22857,2,0,P|343:307|332:265,1,61.6250011754036,8|0,1:1|3:3,0:0:0:0:
411,124,24107,6,0,P|388:103|373:76,1,61.6250011754036,2|8,3:2|1:1,0:0:0:0:
278,16,24464,2,0,P|291:66|288:141,2,123.250002350807,6|2|2,3:2|3:2|1:1,0:0:0:0:
200,60,25357,1,8,1:3:0:0:
200,60,25535,2,0,P|198:103|209:145,1,61.6250011754036,0|8,3:3|1:1,0:0:0:0:
118,127,25893,2,0,P|129:178|179:249,1,123.250002350807,2|2,3:2|3:2,0:0:0:0:
106,289,26428,1,8,1:1:0:0:
203,305,26607,2,0,P|250:305|290:298,1,61.6250011754036,2|0,3:2|0:0,0:0:0:0:
272,314,26875,2,0,P|321:324|392:324,1,92.4375017631054,8|8,1:1|1:3,0:0:0:0:
448,267,27321,6,0,P|397:251|292:238,1,145,6|0,3:2|3:3,0:0:0:0:
270,159,27857,2,0,P|341:150|411:130,1,145,8|0,1:1|0:0,0:0:0:0:
469,66,28393,2,0,P|430:52|386:48,1,72.5,2|10,3:2|1:1,0:0:0:0:
327,15,28750,2,0,P|279:29|204:41,1,108.75,2|8,3:2|1:1,0:0:0:0:
221,39,29107,2,0,P|218:86|220:125,1,72.5,0|4,3:3|3:3,0:0:0:0:
398,266,29643,5,8,1:1:0:0:
471,332,29821,2,0,P|417:340|377:351,1,72.5,2|8,3:2|1:1,0:0:0:0:
317,381,30178,6,0,B|225:363|250:387|142:370,1,145,6|0,3:1|3:3,0:0:0:0:
58,326,30714,2,0,P|97:322|138:292,1,72.5,8|0,1:1|2:2,0:0:0:0:
80,237,31071,2,0,P|41:241|0:271,2,72.5,2|0|8,1:2|3:3|1:1,0:0:0:0:
161,172,31607,2,0,P|178:133|181:37,1,108.75,2|0,3:2|0:0,0:0:0:0:
185,67,31964,2,0,L|268:52,1,72.5,2|8,3:1|1:1,0:0:0:0:
291,125,32321,2,0,L|396:150,1,108.75,2|8,3:2|1:0,0:0:0:0:
396,150,32678,1,0,0:0:0:0:
361,235,32857,1,8,1:1:0:0:
456,231,33035,6,0,P|476:269|478:376,1,145,6|2,3:1|3:2,0:0:0:0:
398,384,33571,1,8,1:1:0:0:
316,374,33750,2,0,P|331:332|380:279,1,108.75,0|8,0:0|1:0,0:0:0:0:
372,284,34107,2,0,L|283:294,1,72.5,0|10,0:0|1:1,0:0:0:0:
213,243,34464,1,2,3:2:0:0:
276,173,34643,1,2,1:1:0:0:
365,189,34821,2,0,L|467:205,1,72.5,0|8,3:3|1:1,0:0:0:0:
512,128,35178,2,0,L|436:112,1,72.5,2|0,1:1|0:0,0:0:0:0:
387,43,35535,2,0,L|275:61,1,108.75,2|0,3:2|0:0,0:0:0:0:
279,60,35893,6,0,P|264:144|268:219,1,145,6|0,1:1|3:3,0:0:0:0:
264,285,36428,1,8,1:1:0:0:
151,310,36607,2,0,P|166:226|162:151,1,145,2|2,2:1|3:2,0:0:0:0:
109,99,37143,2,0,L|34:81,2,72.5,8|2|0,1:1|3:2|2:2,0:0:0:0:
198,53,37678,1,2,3:1:0:0:
198,53,37857,1,8,1:0:0:0:
287,88,38035,1,2,3:1:0:0:
287,88,38214,1,0,0:0:0:0:
362,34,38393,2,0,P|413:28|446:18,1,72.5,2|8,3:1|1:1,0:0:0:0:
361,117,38750,6,0,P|353:170|377:352,1,217.5,2|8,3:1|1:1,0:0:0:0:
454,367,39464,2,0,P|458:315|437:241,1,108.75
441,256,39821,2,0,L|522:242,1,72.5,2|8,3:1|1:1,0:0:0:0:
367,218,40178,1,2,3:1:0:0:
309,284,40357,1,2,0:0:0:0:
309,284,40535,1,0,0:0:0:0:
220,262,40714,1,10,1:1:0:0:
220,262,40893,1,0,3:3:0:0:
154,323,41071,2,0,L|60:331,1,72.5,2|0,3:2|3:3,0:0:0:0:
73,243,41428,1,8,1:1:0:0:
193,219,41607,6,0,P|239:214|339:184,2,123.250002350807,6|0|2,3:1|3:3|1:1,0:0:0:0:
138,165,42500,2,0,L|144:123,2,30.8125005877018,8|0|2,1:3|3:0|3:2,0:0:0:0:
58,170,42857,1,8,1:1:0:0:
12,110,43035,2,0,P|16:60|31:15,1,92.4375017631054,6|0,1:1|0:0,0:0:0:0:
28,19,43393,2,0,L|91:32,1,61.6250011754036,0|8,3:3|1:1,0:0:0:0:
180,60,43750,2,0,L|270:38,1,92.4375017631054,2|0,1:1|0:0,0:0:0:0:
269,38,44107,2,0,P|273:76|268:107,1,61.6250011754036,0|8,3:3|1:1,0:0:0:0:
335,181,44464,6,0,P|346:134|409:72,1,123.250002350807,6|2,3:2|3:2,0:0:0:0:
422,172,45000,1,8,1:1:0:0:
422,172,45178,2,0,L|430:235,1,61.6250011754036,2|8,1:1|1:3,0:0:0:0:
496,302,45535,2,0,L|501:271,2,30.8125005877018,0|0|8,3:3|0:0|1:1,0:0:0:0:
437,357,45893,2,0,P|378:369|333:370,1,92.4375017631054,2|8,1:1|1:3,0:0:0:0:
345,370,46250,2,0,P|340:331|341:299,1,61.6250011754036,0|8,3:3|1:1,0:0:0:0:
259,313,46607,2,0,P|200:325|155:326,1,92.4375017631054,2|8,1:1|1:1,0:0:0:0:
168,327,46964,2,0,P|162:287|163:255,1,61.6250011754036,0|8,0:0|1:3,0:0:0:0:
172,256,47232,1,4,1:3:0:0:
180,247,47321,6,0,P|187:195|179:121,2,123.250002350807,6|0|2,3:2|3:3|1:1,0:0:0:0:
264,234,48214,2,0,P|297:247|326:248,2,61.6250011754036,2|0|8,3:2|3:3|1:1,0:0:0:0:
271,152,48750,2,0,P|325:160|373:183,1,92.4375017631054,0|8,3:3|1:3,0:0:0:0:
359,174,49107,2,0,L|351:105,1,61.6250011754036,2|8,3:2|1:1,0:0:0:0:
275,61,49464,2,0,P|221:69|173:92,1,92.4375017631054,2|0,1:1|0:0,0:0:0:0:
186,83,49821,2,0,L|194:13,1,61.6250011754036,2|8,3:2|1:1,0:0:0:0:
100,109,50178,6,0,L|118:237,1,123.250002350807,6|2,3:2|3:2,0:0:0:0:
39,247,50714,1,8,1:1:0:0:
39,247,50893,2,0,L|54:311,1,61.6250011754036,2|8,1:1|1:3,0:0:0:0:
121,374,51250,2,0,L|134:301,1,61.6250011754036,0|8,3:3|1:1,0:0:0:0:
201,276,51607,2,0,P|234:264|320:270,1,123.250002350807,2|2,3:2|3:2,0:0:0:0:
302,345,52143,1,8,1:1:0:0:
381,337,52321,2,0,P|414:349|456:348,1,61.6250011754036,2|0,1:1|0:0,0:0:0:0:
446,343,52589,2,0,L|456:241,1,92.4375017631054,8|8,1:1|1:3,0:0:0:0:
466,246,52946,1,8,1:3:0:0:
474,240,53035,6,0,B|382:210|413:244|313:217,1,145,6|2,3:1|3:2,0:0:0:0:
275,167,53571,1,8,1:1:0:0:
192,203,53750,1,2,0:0:0:0:
205,114,53928,2,0,P|210:71|223:40,1,72.5,2|0,3:2|0:0,0:0:0:0:
321,24,54285,2,0,P|323:74|286:167,2,145,8|0|8,1:1|3:3|1:1,0:0:0:0:
109,46,55357,2,0,L|15:59,1,72.5,0|2,3:3|3:2,0:0:0:0:
0,127,55714,2,0,L|78:140,1,72.5,8|0,1:1|0:0,0:0:0:0:
154,205,56071,5,2,3:2:0:0:
154,205,56250,1,0,0:0:0:0:
93,283,56428,2,0,P|74:248|72:214,1,72.5,8|0,1:1|0:0,0:0:0:0:
188,316,56785,1,2,3:2:0:0:
188,316,56964,1,0,3:3:0:0:
243,378,57142,2,0,P|262:343|264:309,1,72.5,8|2,1:1|1:1,0:0:0:0:
351,310,57500,2,0,P|416:322|509:331,2,145,0|8|2,3:3|1:1|3:2,0:0:0:0:
308,242,58393,1,0,0:0:0:0:
358,185,58571,2,0,P|388:164|420:147,1,72.5,10|8,1:1|1:3,0:0:0:0:
238,202,58928,6,0,B|169:188|203:218|79:184,2,145,6|8|2,3:2|1:1|3:2,0:0:0:0:
284,138,59821,1,0,0:0:0:0:
199,112,60000,2,0,P|159:103|116:87,1,72.5,8|0,1:1|0:0,0:0:0:0:
266,33,60357,2,0,P|306:38|340:47,1,72.5,2|0,3:2|3:3,0:0:0:0:
425,66,60714,1,8,1:1:0:0:
425,66,60893,2,0,P|444:100|460:148,1,72.5,2|0,1:1|0:0,0:0:0:0:
510,212,61250,1,0,3:3:0:0:
510,212,61428,2,0,P|513:249|507:292,1,72.5,10|0,1:1|0:0,0:0:0:0:
433,384,61785,6,0,P|418:330|422:239,2,145,2|8|2,3:2|1:1|3:2,0:0:0:0:
341,339,62678,1,0,3:3:0:0:
261,378,62857,2,0,P|258:324|233:263,1,108.75,10|0,1:1|0:0,0:0:0:0:
239,273,63214,2,0,L|81:303,1,145,2|8,3:1|1:1,0:0:0:0:
29,194,63750,2,0,L|190:209,1,145,2|0,1:1|3:3,0:0:0:0:
256,164,64285,1,8,1:1:0:0:
256,154,64375,1,0,0:0:0:0:
255,144,64464,1,8,1:3:0:0:
339,70,64643,6,0,P|383:56|483:50,2,145,6|8|0,3:2|1:1|3:3,0:0:0:0:
263,95,65535,1,0,0:0:0:0:
263,95,65714,2,0,P|257:51|257:9,1,72.5,8|0,1:1|0:0,0:0:0:0:
171,79,66071,2,0,P|165:127|156:166,2,72.5,0|0|8,3:3|3:3|1:1,0:0:0:0:
78,117,66607,2,0,P|40:135|4:231,1,145,0|0,0:0|3:3,0:0:0:0:
106,281,67143,2,0,P|100:243|70:207,1,72.5,8|0,1:1|0:0,0:0:0:0:
28,304,67500,5,2,3:2:0:0:
74,369,67678,1,0,0:0:0:0:
156,347,67857,2,0,L|232:334,1,72.5,8|2,1:1|1:1,0:0:0:0:
288,249,68214,1,0,3:3:0:0:
349,205,68392,1,0,0:0:0:0:
424,241,68571,2,0,L|500:254,1,72.5,8|0,1:1|0:0,0:0:0:0:
402,338,68928,2,0,P|350:319|287:258,1,145,0|8,3:3|1:1,0:0:0:0:
209,244,69464,1,0,0:0:0:0:
281,178,69643,2,0,L|262:105,1,72.5,2|0,3:2|3:3,0:0:0:0:
173,81,70000,2,0,L|189:6,1,72.5,8|8,1:1|1:3,0:0:0:0:
201,14,70268,1,8,1:3:0:0:
213,16,70357,6,0,B|290:17|267:38|377:20,2,145,6|8|0,3:1|1:1|3:3,0:0:0:0:
174,95,71250,1,0,0:0:0:0:
266,107,71428,2,0,P|315:119|350:120,1,72.5,10|0,1:1|0:0,0:0:0:0:
385,183,71785,2,0,P|428:172|454:155,1,72.5,2|0,3:2|3:3,0:0:0:0:
512,231,72143,2,0,P|470:243|427:258,1,72.5,8|0,1:1|0:0,0:0:0:0:
365,277,72500,2,0,P|353:343|359:413,2,108.75,2|2|2,3:2|1:1|1:1,0:0:0:0:
282,253,73214,6,0,P|242:234|197:232,1,72.5,0|0,3:3|3:3,0:0:0:0:
201,237,73482,2,0,P|162:252|132:282,1,72.5
139,283,73750,1,2,3:2:0:0:
88,351,73928,5,8,1:1:0:0:
0,204,74196,1,8,1:3:0:0:
93,78,74464,1,6,3:1:0:0:
25,116,76428,5,8,1:1:0:0:
25,126,76518,1,8,1:1:0:0:
25,135,76607,1,2,3:2:0:0:
92,222,76785,2,0,L|101:183,3,27.1875010371209,8|8|4|4,1:3|1:3|1:3|1:3,0:0:0:0:
91,233,77143,5,10,1:1:0:0:
92,243,77232,1,8,1:1:0:0:
92,252,77321,1,10,1:1:0:0:
93,261,77410,1,8,1:1:0:0:
93,270,77500,2,0,B|182:277|155:304|284:301,1,159.500004867554,6|8,3:1|1:1,0:0:0:0:
340,307,78035,1,0,2:2:0:0:
391,238,78214,1,0,2:2:0:0:
281,221,78393,2,0,P|271:179|271:113,1,79.7500024337769,2|8,3:2|1:1,0:0:0:0:
272,56,78750,1,2,3:2:0:0:
182,116,78928,6,0,P|138:134|97:136,1,79.7500024337769,2|0,1:1|3:0,0:0:0:0:
123,227,79285,1,8,1:1:0:0:
123,227,79464,1,0,3:3:0:0:
230,207,79643,2,0,P|279:201|331:182,1,79.7500024337769,2|0,1:1|3:3,0:0:0:0:
398,195,80000,1,8,1:1:0:0:
398,195,80178,1,2,1:2:0:0:
352,301,80357,6,0,P|278:311|226:371,1,119.625003650665,2|0,3:1|2:2,0:0:0:0:
240,343,80714,2,0,L|143:360,1,79.7500024337769,8|0,1:1|0:0,0:0:0:0:
101,283,81071,2,0,L|22:296,1,79.7500024337769,2|2,3:2|1:2,0:0:0:0:
134,354,81428,1,8,1:1:0:0:
183,266,81607,2,0,P|184:206|156:105,1,159.500004867554,2|0,3:2|3:3,0:0:0:0:
70,84,82143,2,0,P|65:143|74:178,1,79.7500024337769,8|0,1:1|3:3,0:0:0:0:
189,41,82500,2,0,P|177:94|179:136,1,79.7500024337769,2|0,1:1|3:3,0:0:0:0:
290,87,82857,2,0,P|274:129|271:174,1,79.7500024337769,10|0,1:1|3:3,0:0:0:0:
279,168,83125,1,0,0:0:0:0:
287,173,83214,6,0,P|361:156|448:107,2,159.500004867554,6|8|0,3:1|1:1|3:0,0:0:0:0:
384,231,84107,2,0,P|446:246|476:252,1,79.7500024337769,2|8,1:1|1:1,0:0:0:0:
493,329,84464,1,2,3:2:0:0:
390,328,84643,2,0,P|310:343|239:390,1,159.500004867554,2|8,1:1|1:1,0:0:0:0:
241,285,85178,2,0,P|158:274|68:291,1,159.500004867554,2|2,1:1|3:2,0:0:0:0:
118,193,85714,2,0,P|68:168|41:165,1,79.7500024337769,10|0,1:1|0:0,0:0:0:0:
195,131,86071,5,6,3:1:0:0:
269,80,86250,1,0,0:0:0:0:
274,167,86428,1,8,1:1:0:0:
348,115,86607,2,0,P|413:81|482:61,1,119.625003650665,2|0,1:1|0:0,0:0:0:0:
461,75,86964,1,0,3:3:0:0:
503,177,87143,2,0,P|459:170|421:155,1,79.7500024337769,10|0,1:1|3:3,0:0:0:0:
339,225,87500,6,0,P|387:249|449:264,1,79.7500024337769,6|8,3:1|1:1,0:0:0:0:
406,268,87768,2,0,P|416:335|430:363,1,79.7500024337769,0|8,0:0|1:1,0:0:0:0:
411,350,88035,1,0,0:0:0:0:
301,380,88214,2,0,P|293:329|265:254,1,119.625003650665,2|0,3:1|2:2,0:0:0:0:
258,263,88571,1,4,3:3:0:0:
248,264,88660,1,8,1:3:0:0:
237,265,88750,1,8,1:1:0:0:
226,265,88839,1,8,1:1:0:0:
218,265,88928,6,0,B|223:194|242:218|244:72,2,159.500004867554,6|8|0,3:1|1:1|3:0,0:0:0:0:
180,336,89821,2,0,P|133:332|90:324,2,79.7500024337769,2|8|2,3:1|1:1|3:2,0:0:0:0:
303,339,90357,2,0,P|342:336|380:324,1,79.7500024337769,2|0,1:1|3:0,0:0:0:0:
463,356,90714,1,8,1:1:0:0:
463,356,90893,1,0,3:3:0:0:
441,238,91071,2,0,P|434:194|438:150,1,79.7500024337769,2|0,1:1|3:2,0:0:0:0:
452,79,91428,1,8,1:1:0:0:
452,79,91607,1,0,2:2:0:0:
332,121,91785,6,0,P|275:120|193:105,1,119.625003650665,2|0,3:1|0:0,0:0:0:0:
211,103,92143,2,0,P|203:53|201:21,1,79.7500024337769,8|0,1:1|0:0,0:0:0:0:
114,34,92500,2,0,P|122:84|124:116,1,79.7500024337769,2|2,3:1|3:2,0:0:0:0:
104,194,92857,1,8,1:1:0:0:
18,138,93035,2,0,P|20:204|41:301,1,159.500004867554,4|2,3:1|3:1,0:0:0:0:
127,298,93571,6,0,L|24:327,1,79.7500024337769,10|0,1:1|0:0,0:0:0:0:
176,368,93928,2,0,L|260:386,1,79.7500024337769,2|0,1:1|3:3,0:0:0:0:
261,381,94196,2,0,L|281:298,1,79.7500024337769,2|0,1:1|2:2,0:0:0:0:
280,295,94464,1,2,3:1:0:0:
381,330,94643,6,0,L|350:168,1,159.500004867554,4|8,3:1|1:1,0:0:0:0:
326,74,95178,1,2,1:1:0:0:
419,89,95357,2,0,P|476:95|510:106,1,79.7500024337769,0|0,3:0|3:3,0:0:0:0:
375,163,95714,2,0,P|318:157|284:146,2,79.7500024337769,10|6|0,1:1|3:1|0:0,0:0:0:0:
452,192,96250,1,2,3:2:0:0:
398,259,96428,1,8,1:1:0:0:
464,333,96607,2,0,P|393:372|299:371,1,159.500004867554,6|0,3:1|3:3,0:0:0:0:
256,313,97143,1,8,1:1:0:0:
256,303,97232,1,0,0:0:0:0:
256,294,97321,1,4,1:3:0:0:
173,225,97500,6,0,P|94:228|24:267,2,159.500004867554,4|8|8,3:1|1:1|1:1,0:0:0:0:
169,132,98393,2,0,P|205:149|242:163,1,79.7500024337769,0|2,3:3|1:2,0:0:0:0:
281,86,98750,2,0,P|244:69|207:55,1,79.7500024337769,8|0,1:1|3:0,0:0:0:0:
210,48,99018,2,0,P|278:33|302:25,1,79.7500024337769,8|0,1:0|0:0,0:0:0:0:
288,23,99285,2,0,P|226:14|189:4,1,79.7500024337769,8|0,1:1|3:3,0:0:0:0:
92,60,99643,5,10,3:1:0:0:
20,147,99821,1,10,3:1:0:0:
20,147,100178,6,0,B|86:157|86:157|104:174|104:174|174:182,1,159.500004867554,6|2,3:1|3:2,0:0:0:0:
254,254,100714,2,0,L|171:274,1,79.7500024337769,10|0,1:1|0:0,0:0:0:0:
259,335,101071,1,2,3:2:0:0:
373,356,101250,2,0,L|496:376,1,119.625003650665,2|0,3:1|0:0,0:0:0:0:
491,375,101607,6,0,L|477:269,1,79.7500024337769,2|2,3:1|1:2,0:0:0:0:
497,217,101964,1,2,3:2:0:0:
395,181,102143,2,0,L|405:98,1,79.7500024337769,10|2,1:1|3:2,0:0:0:0:
355,25,102500,1,2,1:1:0:0:
345,26,102589,1,0,0:0:0:0:
335,28,102678,2,0,L|290:33,3,39.8750012168885,0|0|8|0,3:3|0:0|1:1|0:0,0:0:0:0:
284,51,103035,5,2,3:1:0:0:
274,53,103125,1,0,0:0:0:0:
263,54,103214,1,0,0:0:0:0:
254,57,103303,1,0,0:0:0:0:
246,59,103393,1,0,3:0:0:0:
148,102,103571,2,0,L|99:110,3,39.8750012168885,10|0|0|0,1:1|0:0|0:0|0:0,0:0:0:0:
149,121,103928,5,2,1:1:0:0:
217,177,104107,1,2,3:2:0:0:
302,142,104285,1,8,1:1:0:0:
211,187,104464,2,0,B|191:257|191:257|197:349,1,159.500004867554,2|0,3:1|3:3,0:0:0:0:
301,384,105000,2,0,B|315:342|315:342|310:280,1,79.7500024337769,10|2,1:1|1:2,0:0:0:0:
285,236,105357,1,2,1:2:0:0:
355,161,105535,2,0,L|522:194,2,159.500004867554,2|6|2,3:1|3:1|3:2,0:0:0:0:
294,102,106428,6,0,L|291:22,1,79.7500024337769,10|2,1:1|1:2,0:0:0:0:
200,123,106785,2,0,L|171:34,2,79.7500024337769,2|2|8,3:1|3:2|1:1,0:0:0:0:
99,101,107321,2,0,B|44:127|44:127|12:187,1,119.625003650665,2|0,3:1|0:0,0:0:0:0:
16,178,107678,2,0,L|114:194,1,79.7500024337769,2|8,3:2|1:1,0:0:0:0:
186,236,108035,2,0,B|242:266|242:266|280:336,1,119.625003650665,2|0,3:1|2:2,0:0:0:0:
268,315,108392,2,0,L|169:331,1,79.7500024337769,2|8,3:1|1:1,0:0:0:0:
276,222,108750,6,0,L|443:198,1,159.500004867554,2|2,3:1|3:2,0:0:0:0:
511,133,109285,2,0,L|344:109,1,159.500004867554,10|0,1:1|3:3,0:0:0:0:
274,95,109821,2,0,L|264:15,1,79.7500024337769,2|8,3:2|1:1,0:0:0:0:
185,136,110178,1,2,3:1:0:0:
185,136,110357,1,0,0:0:0:0:
258,191,110535,1,2,3:1:0:0:
258,191,110714,1,8,1:1:0:0:
189,247,110893,2,0,L|184:327,1,79.7500024337769,2|0,3:1|0:0,0:0:0:0:
251,379,111250,1,8,1:1:0:0:
264,382,111339,1,8,1:1:0:0:
275,384,111428,1,8,1:1:0:0:
153,331,111607,6,0,P|97:320|52:214,1,159.500004867554,6|0,3:1|3:3,0:0:0:0:
3,158,112143,2,0,P|18:115|25:82,1,72.5,10|0,1:1|0:0,0:0:0:0:
121,83,112500,2,0,P|106:126|99:159,2,72.5,2|0|8,1:2|3:3|1:1,0:0:0:0:
196,37,113035,2,0,P|249:30|327:37,1,108.75,2|8,1:1|1:1,0:0:0:0:
304,32,113393,1,0,0:0:0:0:
291,124,113571,2,0,L|201:146,1,72.5,10|0,1:1|0:0,0:0:0:0:
378,164,113928,5,10,3:2:0:0:
481,187,114107,1,2,3:2:0:0:
481,187,114464,6,0,P|428:176|401:74,1,145,6|0,3:1|3:3,0:0:0:0:
296,100,115000,2,0,P|281:57|274:24,1,72.5,10|0,1:1|0:0,0:0:0:0:
178,25,115357,2,0,P|193:68|200:101,2,72.5,2|0|8,1:1|3:3|1:1,0:0:0:0:
114,96,115892,2,0,P|61:103|-17:96,1,108.75,2|8,1:1|1:0,0:0:0:0:
5,101,116250,1,2,3:2:0:0:
49,181,116428,2,0,L|139:203,1,72.5,8|0,1:1|0:0,0:0:0:0:
101,288,116785,5,10,3:2:0:0:
0,341,116964,1,2,3:2:0:0:
0,341,117321,6,0,B|79:353|54:372|145:373,1,130.499996017456,6|0,3:1|3:3,0:0:0:0:
174,314,117857,1,10,1:1:0:0:
337,367,118214,1,2,1:1:0:0:
337,367,118393,2,0,P|388:355|415:352,1,65.2499980087281,2|8,3:2|1:1,0:0:0:0:
457,282,118750,2,0,P|391:279|326:269,1,130.499996017456,2|0,1:1|3:0,0:0:0:0:
254,304,119285,2,0,P|203:292|176:289,1,65.2499980087281,8|0,1:1|0:0,0:0:0:0:
90,285,119643,5,10,3:2:0:0:
0,341,119821,1,2,3:2:0:0:
0,341,120178,6,0,B|79:353|54:372|145:373,1,130.499996017456,6|0,3:1|3:3,0:0:0:0:
174,314,120714,1,10,1:1:0:0:
337,367,121071,1,2,1:1:0:0:
337,367,121250,2,0,P|388:355|415:352,1,65.2499980087281,2|8,3:2|1:1,0:0:0:0:
457,282,121607,2,0,P|391:279|347:270,1,97.8749970130921,2|8,1:1|1:0,0:0:0:0:
351,276,121964,2,0,P|300:264|273:261,1,65.2499980087281,2|8,3:2|1:0,0:0:0:0:
278,267,122232,2,0,P|227:255|200:252,1,65.2499980087281,8|0,1:0|0:0,0:0:0:0:
204,259,122500,1,2,3:1:0:0:
182,166,122678,1,2,3:2:0:0:
252,80,122857,1,8,3:3:0:0:
253,66,122946,1,8,1:3:0:0:
253,49,123035,1,6,3:2:0:0:
0,53,133035,6,0,B|66:88|131:98,1,119.625003650665,6|0,3:1|0:0,0:0:0:0:
118,104,133393,2,0,L|114:156,3,39.8750012168885,8|8|8|8,1:1|1:1|1:1|1:1,0:0:0:0:
129,151,133750,2,0,B|195:186|260:196,1,119.625003650665,6|0,3:1|0:0,0:0:0:0:
247,202,134108,2,0,L|243:254,3,39.8750012168885,8|8|8|8,1:1|1:1|1:1|1:1,0:0:0:0:
255,250,134464,6,0,P|197:282|98:302,1,145,6|2,3:1|3:2,0:0:0:0:
33,358,135000,2,0,P|96:372|126:387,1,72.5,8|0,1:1|0:0,0:0:0:0:
174,317,135357,1,2,3:2:0:0:
250,363,135535,1,0,0:0:0:0:
322,309,135714,2,0,P|384:304|470:303,2,145,8|0|8,1:1|3:3|1:1,0:0:0:0:
512,182,136785,2,0,P|461:188|415:189,2,72.5,0|2|8,3:3|3:2|0:0,0:0:0:0:
230,166,137500,5,2,3:2:0:0:
267,86,137678,1,0,3:3:0:0:
184,37,137857,2,0,P|118:37|91:38,1,72.5,8|0,1:1|0:0,0:0:0:0:
49,104,138214,1,2,3:2:0:0:
48,192,138393,1,0,3:3:0:0:
138,232,138571,2,0,P|191:241|229:240,1,72.5,8|2,1:1|1:1,0:0:0:0:
287,240,138928,2,0,P|315:303|326:394,2,145,0|8|2,3:3|1:1|3:2,0:0:0:0:
318,161,139821,1,0,0:0:0:0:
318,161,140000,2,0,P|372:137|405:116,1,72.5,10|8,1:1|1:3,0:0:0:0:
228,152,140357,6,0,P|180:113|91:126,2,145,6|8|2,3:2|1:1|3:2,0:0:0:0:
264,221,141250,1,2,1:1:0:0:
313,137,141428,2,0,P|333:92|337:48,1,72.5,8|0,1:1|0:0,0:0:0:0:
411,15,141785,2,0,P|429:57|432:99,1,72.5,2|0,3:2|0:0,0:0:0:0:
494,162,142143,1,8,1:1:0:0:
494,162,142321,2,0,P|476:212|450:237,1,72.5,2|0,1:1|3:0,0:0:0:0:
451,316,142678,1,0,3:0:0:0:
451,316,142857,2,0,P|401:332|350:332,1,72.5,10|0,1:1|0:0,0:0:0:0:
287,283,143214,6,0,B|234:288|234:307|165:307,1,108.75,2|0,3:2|0:0,0:0:0:0:
181,306,143571,2,0,L|92:292,1,72.5,8|0,1:1|0:0,0:0:0:0:
34,189,143928,2,0,B|87:194|87:213|156:213,1,108.75,2|0,3:2|0:0,0:0:0:0:
139,212,144285,2,0,L|228:197,1,72.5,10|0,1:1|0:0,0:0:0:0:
249,108,144643,1,2,3:1:0:0:
171,124,144821,1,2,3:2:0:0:
116,65,145000,2,0,L|124:15,2,48.3333333333333,2|8|8,3:2|3:0|3:0,0:0:0:0:
76,97,145357,2,0,L|63:171,1,72.5,2|2,3:2|3:2,0:0:0:0:
0,260,145714,1,8,1:3:0:0:
9,262,145803,1,8,1:3:0:0:
19,263,145893,1,8,1:3:0:0:
27,265,145982,1,8,1:3:0:0:
36,266,146071,6,0,B|98:252|87:271|190:247,1,130.499996017456,6|2,3:2|3:2,0:0:0:0:
364,346,146785,2,0,B|302:332|313:351|210:327,1,130.499996017456,10|2,1:1|1:1,0:0:0:0:
170,282,147321,2,0,P|170:244|190:201,1,65.2499980087281,0|0,3:3|0:0,0:0:0:0:
246,173,147678,1,8,1:1:0:0:
246,173,147857,2,0,P|268:213|269:256,1,65.2499980087281,2|0,3:2|0:0,0:0:0:0:
347,267,148214,1,0,3:3:0:0:
347,267,148393,1,8,1:1:0:0:
512,103,148750,1,2,1:1:0:0:
512,103,148928,6,0,P|451:97|430:93,1,65.2499980087281,6|0,3:2|0:0,0:0:0:0:
350,42,149285,2,0,P|388:26|492:21,1,130.499996017456,0|8,3:3|1:1,0:0:0:0:
372,119,149821,1,0,0:0:0:0:
293,104,150000,2,0,P|260:93|220:72,2,65.2499980087281,2|0|0,1:1|3:3|0:0,0:0:0:0:
325,192,150535,2,0,P|337:239|346:333,1,130.499996017456,0|0,3:3|0:0,0:0:0:0:
266,378,151071,2,0,P|254:331|245:237,1,130.499996017456,8|4,1:1|3:3,0:0:0:0:
238,258,151518,1,4,3:3:0:0:
230,254,151607,1,4,3:3:0:0:
339,307,151785,6,0,P|418:299|470:128,1,260.999992034912,6|8,3:2|1:1,0:0:0:0:
297,47,152857,2,0,P|243:76|226:144,1,130.499996017456,2|2,3:1|1:1,0:0:0:0:
289,186,153393,1,0,3:3:0:0:
289,186,153571,2,0,P|250:212|224:215,1,65.2499980087281,8|8,1:1|1:1,0:0:0:0:
224,222,153839,1,8,1:1:0:0:
218,230,153928,2,0,P|159:224|117:226,2,97.8749970130921,8|2|2,1:1|1:2|0:0,0:0:0:0:
273,331,154643,6,0,P|328:336|358:343,1,65.2499980087281,6|0,3:1|0:0,0:0:0:0:
348,345,154910,2,0,P|403:353|431:360,1,65.2499980087281,2|0,3:2|0:0,0:0:0:0:
418,364,155178,1,2,3:2:0:0:
386,272,155357,5,8,1:1:0:0:
511,146,155625,1,8,1:3:0:0:
379,25,155893,1,6,3:1:0:0:
319,93,157857,6,0,L|269:102,2,27.1875010371209,8|8|2,1:1|1:1|3:2,0:0:0:0:
395,135,158214,2,0,P|406:183|406:224,1,81.5625031113626,8|4,1:3|1:3,0:0:0:0:
415,222,158571,1,10,1:1:0:0:
429,224,158660,1,8,1:1:0:0:
440,225,158750,1,10,1:1:0:0:
451,227,158839,1,8,1:1:0:0:
463,229,158928,6,0,B|374:232|406:259|294:255,1,159.500004867554,6|8,3:1|1:1,0:0:0:0:
224,227,159464,1,0,2:2:0:0:
148,277,159643,1,0,3:2:0:0:
210,361,159821,2,0,P|263:366|308:376,2,79.7500024337769,2|8|2,3:2|1:1|3:2,0:0:0:0:
114,373,160357,2,0,L|29:351,1,79.7500024337769,2|0,1:1|3:0,0:0:0:0:
31,269,160714,1,8,1:1:0:0:
105,217,160893,1,2,3:2:0:0:
202,261,161071,2,0,L|305:238,1,79.7500024337769,2|0,1:1|3:0,0:0:0:0:
280,151,161428,1,8,1:1:0:0:
207,96,161607,1,2,1:2:0:0:
91,118,161785,6,0,P|26:89|0:4,2,159.500004867554,2|8|2,3:1|1:1|3:2,0:0:0:0:
161,186,162678,2,0,P|171:224|174:264,1,79.7500024337769,2|8,1:2|1:1,0:0:0:0:
108,354,163035,2,0,P|88:303|78:194,1,159.500004867554,2|0,3:2|3:3,0:0:0:0:
160,267,163571,2,0,P|222:282|252:285,1,79.7500024337769,8|0,1:1|3:3,0:0:0:0:
309,237,163928,2,0,P|347:247|386:253,1,79.7500024337769,2|0,2:1|3:3,0:0:0:0:
432,182,164285,2,0,P|470:192|509:198,1,79.7500024337769,10|0,1:1|3:3,0:0:0:0:
512,188,164553,1,0,3:2:0:0:
509,178,164643,6,0,B|496:113|517:133|493:7,2,159.500004867554,6|8|0,3:1|1:1|3:0,0:0:0:0:
415,165,165535,2,0,P|420:113|430:66,1,79.7500024337769,2|8,1:1|1:0,0:0:0:0:
336,110,165893,1,2,3:2:0:0:
303,195,166071,2,0,P|236:228|172:292,1,159.500004867554,2|8,1:1|1:1,0:0:0:0:
285,292,166607,2,0,P|351:320|422:378,1,159.500004867554,2|2,1:1|3:2,0:0:0:0:
281,377,167143,2,0,P|236:370|196:355,1,79.7500024337769,10|0,1:1|0:0,0:0:0:0:
125,302,167500,5,2,3:1:0:0:
134,209,167678,1,0,0:0:0:0:
200,267,167857,1,8,1:1:0:0:
216,178,168035,2,0,P|227:133|222:34,1,119.625003650665,2|0,1:1|0:0,0:0:0:0:
227,60,168393,1,0,3:3:0:0:
339,85,168571,2,0,P|328:32|308:-7,1,79.7500024337769,10|0,1:1|3:3,0:0:0:0:
302,152,168928,6,0,P|352:172|400:178,1,79.7500024337769,6|8,3:1|1:1,0:0:0:0:
376,187,169196,2,0,P|417:192|465:189,1,79.7500024337769,0|8,0:0|1:1,0:0:0:0:
465,183,169464,2,0,P|487:229|492:268,1,79.7500024337769,0|2,0:0|3:1,0:0:0:0:
503,261,169732,2,0,P|498:312|484:339,1,79.7500024337769,0|0,0:0|3:2,0:0:0:0:
477,342,170000,1,4,3:3:0:0:
469,344,170089,1,8,1:3:0:0:
462,346,170178,1,8,1:1:0:0:
456,347,170268,1,8,1:1:0:0:
450,349,170357,6,0,B|369:361|395:367|291:374,2,159.500004867554,6|8|0,3:1|1:1|3:0,0:0:0:0:
498,270,171250,2,0,P|447:264|404:251,1,79.7500024337769,2|8,3:1|1:1,0:0:0:0:
338,251,171607,1,2,3:2:0:0:
403,171,171785,2,0,P|418:131|419:79,1,79.7500024337769,2|0,1:1|2:2,0:0:0:0:
359,38,172143,1,8,1:1:0:0:
270,27,172321,1,0,3:3:0:0:
172,42,172500,2,0,L|71:57,1,79.7500024337769,2|0,1:1|2:2,0:0:0:0:
143,137,172857,1,8,1:1:0:0:
234,171,173035,1,0,0:0:0:0:
347,174,173214,6,0,L|510:194,2,159.500004867554,2|8|2,3:1|1:1|3:1,0:0:0:0:
286,229,174107,2,0,P|304:290|315:303,1,79.7500024337769,2|8,3:2|1:1,0:0:0:0:
197,273,174464,2,0,P|210:333|245:381,1,119.625003650665,4|0,3:1|2:2,0:0:0:0:
243,379,174821,1,2,3:1:0:0:
158,349,175000,2,0,P|123:343|54:336,1,79.7500024337769,10|0,1:1|0:0,0:0:0:0:
0,247,175357,2,0,P|52:250|91:250,1,79.7500024337769,2|0,1:1|3:3,0:0:0:0:
84,244,175625,2,0,P|98:201|104:166,1,79.7500024337769,2|0,1:1|2:2,0:0:0:0:
112,159,175893,2,0,P|161:153|210:144,1,79.7500024337769,2|4,3:1|3:1,0:0:0:0:
393,19,176428,5,8,1:1:0:0:
458,57,176607,2,0,B|393:66|430:81|289:97,1,159.500004867554,2|0,1:1|3:3,0:0:0:0:
249,154,177143,2,0,P|307:174|348:176,1,79.7500024337769,10|6,1:1|3:1,0:0:0:0:
426,224,177500,2,0,P|465:280|458:385,1,159.500004867554,0|8,0:0|1:1,0:0:0:0:
354,364,178035,2,0,P|315:308|322:203,1,159.500004867554,6|0,3:1|3:3,0:0:0:0:
417,232,178571,1,8,1:1:0:0:
416,243,178660,1,0,0:0:0:0:
408,251,178749,1,4,1:3:0:0:
307,207,178928,6,0,P|287:160|304:29,2,159.500004867554,6|8|8,3:1|1:1|1:1,0:0:0:0:
223,217,179821,2,0,P|175:213|137:195,1,79.7500024337769,2|0,3:2|0:0,0:0:0:0:
99,125,180178,2,0,P|89:80|96:38,1,79.7500024337769,8|8,1:1|1:3,0:0:0:0:
89,40,180446,2,0,P|42:51|1:54,1,79.7500024337769,8|0,1:0|0:0,0:0:0:0:
2,60,180714,2,0,P|4:111|-1:144,1,79.7500024337769,8|0,1:1|3:3,0:0:0:0:
82,208,181071,5,2,3:2:0:0:
11,278,181250,1,2,3:1:0:0:
11,278,181607,6,0,B|145:296|79:342|257:348,1,239.250007301331,6|8,3:1|1:1,0:0:0:0:
321,280,182321,2,0,P|271:275|227:259,1,72.5,0|2,0:0|1:2,0:0:0:0:
332,360,182678,2,0,P|391:348|431:332,1,72.5,2|8,3:2|1:1,0:0:0:0:
480,281,183035,2,0,P|433:265|395:240,1,72.5,2|0,3:2|0:0,0:0:0:0:
349,172,183393,2,0,P|348:133|396:13,2,145,2|2|2,3:1|3:2|3:2,0:0:0:0:
426,141,184285,1,8,1:1:0:0:
335,80,184464,6,0,B|254:61|288:97|163:61,1,145,6|2,3:1|1:2,0:0:0:0:
100,147,185000,2,0,B|196:175|162:139|243:158,1,145,8|0,1:1|3:3,0:0:0:0:
301,213,185535,1,2,3:1:0:0:
249,293,185714,2,0,P|226:260|219:226,1,72.5,10|2,1:0|3:2,0:0:0:0:
313,220,186071,1,2,1:1:0:0:
368,305,186250,2,0,P|359:339|338:369,1,72.5,2|8,3:2|1:0,0:0:0:0:
258,380,186607,2,0,P|191:368|146:365,1,108.75,2|0,1:1|0:0,0:0:0:0:
150,365,186964,2,0,L|57:377,1,72.5,2|8,3:2|1:1,0:0:0:0:
186,283,187321,6,0,P|201:206|196:56,1,217.5,6|8,1:1|1:1,0:0:0:0:
107,26,188035,2,0,P|96:77|97:180,1,145,2|2,3:1|3:2,0:0:0:0:
27,221,188571,1,8,1:1:0:0:
111,245,188750,2,0,P|161:256|197:253,1,72.5,2|0,3:2|0:0,0:0:0:0:
213,183,189107,2,0,P|271:188|310:201,1,72.5,2|8,3:1|1:0,0:0:0:0:
365,281,189464,2,0,P|307:276|268:263,1,72.5,2|0,3:1|0:0,0:0:0:0:
363,372,189821,2,0,P|305:367|266:354,1,72.5,2|8,3:1|1:1,0:0:0:0:
192,376,190178,6,0,P|140:334|143:250,1,145,2|0,3:1|3:3,0:0:0:0:
72,217,190714,2,0,P|96:149|102:69,1,145,8|2,1:1|1:2,0:0:0:0:
175,15,191250,2,0,P|183:68|196:109,1,72.5,2|8,3:1|1:1,0:0:0:0:
266,53,191607,1,2,3:1:0:0:
239,146,191785,1,2,1:2:0:0:
239,146,191964,1,0,3:3:0:0:
303,219,192143,1,10,1:1:0:0:
303,219,192321,1,0,3:3:0:0:
217,259,192500,2,0,L|135:279,1,72.5,2|8,1:2|1:3,0:0:0:0:
146,286,192768,1,8,1:3:0:0:
155,291,192857,1,8,1:1:0:0:
258,328,193035,6,0,B|327:339|300:356|420:362,1,145,6|0,3:1|3:3,0:0:0:0:
488,299,193571,2,0,P|446:296|407:283,1,72.5,10|0,1:1|0:0,0:0:0:0:
372,205,193928,2,0,P|414:208|453:221,2,72.5,2|0|8,1:2|3:3|1:1,0:0:0:0:
297,157,194464,2,0,P|278:97|283:13,1,145,2|0,1:1|0:0,0:0:0:0:
358,64,195000,2,0,P|380:28|410:9,1,72.5,10|0,1:1|0:0,0:0:0:0:
403,148,195357,5,10,3:2:0:0:
512,201,195535,1,2,3:2:0:0:
512,201,195893,6,0,B|443:212|470:229|350:235,1,145,6|0,3:1|3:3,0:0:0:0:
303,164,196429,2,0,P|345:161|384:148,1,72.5,10|0,1:1|0:0,0:0:0:0:
214,98,196786,2,0,P|248:88|285:87,2,72.5,2|0|8,1:1|3:3|1:1,0:0:0:0:
179,174,197322,2,0,P|160:234|165:318,1,145,2|2,1:1|3:2,0:0:0:0:
234,362,197858,2,0,P|246:321|240:286,1,72.5,8|0,1:1|0:0,0:0:0:0:
107,289,198215,5,10,3:2:0:0:
10,352,198393,1,2,3:2:0:0:
10,352,198750,6,0,B|79:363|52:380|172:386,1,145,6|0,3:1|0:0,0:0:0:0:
209,316,199286,2,0,P|167:313|128:300,1,72.5,10|0,1:1|0:0,0:0:0:0:
134,295,199553,2,0,P|142:253|161:217,1,72.5
148,213,199821,2,0,P|106:210|62:195,1,72.5,2|8,3:2|1:1,0:0:0:0:
0,143,200179,2,0,P|58:119|142:118,1,145,2|0,1:1|3:0,0:0:0:0:
175,51,200715,2,0,P|212:71|232:100,1,72.5,8|0,1:1|0:0,0:0:0:0:
322,139,201072,5,10,3:2:0:0:
370,29,201250,1,2,3:2:0:0:
370,29,201607,6,0,B|301:40|328:57|208:63,1,145,6|0,3:1|3:3,0:0:0:0:
183,130,202143,2,0,P|148:139|112:141,1,72.5,10|0,1:1|0:0,0:0:0:0:
91,226,202500,2,0,P|127:224|161:214,2,72.5,2|2|8,1:1|3:2|1:1,0:0:0:0:
12,232,203036,2,0,P|6:303|26:373,1,145,2|0,3:2|0:0,0:0:0:0:
136,362,203572,2,0,P|114:326|84:307,1,72.5,8|0,1:1|3:0,0:0:0:0:
175,266,203928,1,8,1:1:0:0:
250,337,204107,1,8,1:1:0:0:
359,323,204285,1,4,1:3:0:0:
375,320,204375,1,4,1:3:0:0:
391,318,204464,1,6,3:1:0:0:
