osu file format v14

[General]
AudioFilename: audio.mp3
AudioLeadIn: 0
PreviewTime: 77143
Countdown: 0
SampleSet: Soft
StackLeniency: 0.7
Mode: 0
LetterboxInBreaks: 0
WidescreenStoryboard: 1

[Editor]
Bookmarks: 95893,137857
DistanceSpacing: 0.3
BeatDivisor: 4
GridSize: 16
TimelineZoom: 2.899999

[Metadata]
Title:Sora to Heikou ni Sou Kyokusen
TitleUnicode:空と平行に沿う曲線
Artist:Chata
ArtistUnicode:茶太
Creator:chaser01
Version:Florescence's Lunatic
Source:東方妖々夢 ~ Perfect Cherry Blossom.
Tags:pumice florescence wanpachi gorou cycopton japanese rock video game 東方project touhou project th7 アリス・マーガトロイド Alice Margatroid zun team shanghai alice 人形裁判 ~ 人の形弄びし少女 Doll Judgement ~ The Girl Who Played With People's Shapes comiket c83 ピグマリオン pygmalion サリー sally NSY shuriken
BeatmapID:3902727
BeatmapSetID:1890591

[Difficulty]
HPDrainRate:6
CircleSize:4
OverallDifficulty:8
ApproachRate:8
SliderMultiplier:1.4
SliderTickRate:1

[Events]
//Background and Video events
0,0,"bgbg.jpg",0,0
//Break Periods
//Storyboard Layer 0 (Background)
//Storyboard Layer 1 (Fail)
//Storyboard Layer 2 (Pass)
//Storyboard Layer 3 (Foreground)
//Storyboard Layer 4 (Overlay)
//Storyboard Sound Samples

[TimingPoints]
357,357.142857142857,4,2,1,65,1,0
357,-100,4,2,1,65,0,0
1606,-100,4,2,1,65,0,0
1786,357.142857142857,4,2,1,65,1,0
16250,-100,4,2,1,55,0,0
27321,-100,4,2,1,60,0,0
29643,-100,4,2,1,65,0,0
41964,-100,4,2,1,55,0,0
53035,-100,4,2,1,60,0,0
56070,-100,4,2,1,60,0,0
74464,-100,4,2,1,75,0,0
75535,-100,4,2,1,65,0,0
77500,-100,4,2,1,75,0,0
100178,-83.3333333333333,4,2,1,75,0,0
111607,-83.3333333333333,4,2,1,65,0,0
117321,-83.3333333333333,4,2,1,55,0,0
119821,-83.3333333333333,4,2,1,65,0,0
120178,-83.3333333333333,4,2,1,45,0,0
121607,-83.3333333333333,4,2,1,55,0,0
122321,-83.3333333333333,4,2,1,65,0,0
122857,-83.3333333333333,4,2,1,75,0,0
123035,-100,4,2,1,75,0,0
123214,-100,4,2,1,45,0,0
132500,-100,4,2,1,55,0,0
133035,-100,4,2,1,65,0,0
137498,-100,4,2,1,65,0,0
146071,-100,4,2,1,55,0,0
154643,-100,4,2,1,65,0,0
155893,-100,4,2,1,75,0,0
156964,-100,4,2,1,65,0,0
158928,-100,4,2,1,75,0,0
181605,-100,4,2,1,65,0,0
198750,-100,4,2,1,55,0,0
201250,-100,4,2,1,75,0,0
201607,-100,4,2,1,55,0,0
203928,-100,4,2,1,75,0,0
205089,-100,4,2,1,5,0,0

[Colours]
Combo1 : 227,219,147
Combo2 : 255,155,155
Combo3 : 255,255,176
Combo4 : 157,204,200

[HitObjects]
259,370,357,5,2,3:2:0:0:
290,278,535,5,8,2:3:0:0:
302,265,624,1,8,2:3:0:0:
326,261,714,2,0,P|370:269|385:273,1,35,8|8,2:2|2:2,0:0:0:0:
317,161,892,5,8,2:2:0:0:
317,161,1071,2,0,P|323:112|326:79,2,70,2|10|0,3:2|2:2|0:0,0:0:0:0:
242,378,1606,6,0,P|214:339|189:320,1,70,6|0,3:1|0:0,0:0:0:0:
332,347,1964,1,0,3:3:0:0:
427,361,2143,2,0,P|452:323|486:300,1,70,8|0,1:1|0:0,0:0:0:0:
496,225,2500,1,2,1:2:0:0:
419,178,2678,1,0,3:3:0:0:
454,92,2857,1,8,1:1:0:0:
396,24,3035,6,0,P|359:37|265:61,1,105,2|0,3:2|0:0,0:0:0:0:
282,63,3393,2,0,P|268:106|294:138,1,70,2|8,3:1|1:1,0:0:0:0:
409,239,3750,2,0,P|420:198|396:166,1,70,2|0,3:2|0:0,0:0:0:0:
319,315,4107,1,2,3:2:0:0:
319,315,4285,1,8,1:1:0:0:
319,315,4464,2,0,P|221:325|184:330,1,105,6|0,3:1|0:0,0:0:0:0:
201,334,4821,1,2,3:2:0:0:
105,316,5000,2,0,P|100:260|90:166,1,140,8|0,1:1|3:3,0:0:0:0:
40,366,5535,5,2,3:1:0:0:
118,310,5714,1,10,1:1:0:0:
205,255,5893,1,2,3:2:0:0:
298,198,6071,1,2,1:1:0:0:
397,148,6250,1,2,3:2:0:0:
397,148,6428,1,8,1:0:0:0:
493,88,6607,2,0,P|486:141|484:208,1,105,2|0,3:2|0:0,0:0:0:0:
474,201,6964,2,0,P|478:244|483:273,1,70,2|8,3:2|1:1,0:0:0:0:
367,305,7321,6,0,P|309:343|207:248,1,210,6|8,1:1|1:1,0:0:0:0:
240,166,8035,2,0,P|172:94|80:131,1,210,2|8,3:1|1:1,0:0:0:0:
31,222,8750,6,0,P|39:267|41:321,1,70,2|0,3:2|0:0,0:0:0:0:
79,141,9107,1,2,3:1:0:0:
19,79,9285,1,8,1:0:0:0:
78,13,9464,2,0,P|131:15|167:19,1,70,2|0,3:1|0:0,0:0:0:0:
246,115,9821,2,0,P|200:112|163:110,1,70,2|8,3:1|1:1,0:0:0:0:
237,216,10178,2,0,P|305:221|404:231,1,140,2|0,3:1|3:3,0:0:0:0:
223,227,10714,2,0,P|218:293|210:383,1,140,8|2,1:0|1:2,0:0:0:0:
158,173,11250,2,0,B|145:138|145:138|170:88,1,70,2|8,3:1|1:0,0:0:0:0:
237,216,11607,1,2,3:1:0:0:
271,87,11785,6,0,P|321:82|371:86,1,70,2|0,1:2|3:3,0:0:0:0:
363,201,12143,2,0,P|413:208|457:217,1,70,10|0,1:1|3:3,0:0:0:0:
381,306,12500,1,2,3:2:0:0:
304,371,12678,1,0,3:3:0:0:
281,300,12857,1,8,1:1:0:0:
467,376,13035,6,0,P|476:295|482:245,1,105,6|0,3:1|0:0,0:0:0:0:
490,263,13393,1,0,3:3:0:0:
467,140,13571,1,8,1:1:0:0:
397,208,13750,2,0,P|360:205|303:196,1,70,2|0,1:1|0:0,0:0:0:0:
480,133,14107,2,0,P|484:92|486:52,1,70,0|8,3:3|1:1,0:0:0:0:
333,11,14464,6,0,P|289:44|284:65,1,70,2|0,1:1|0:0,0:0:0:0:
290,64,14732,1,8,1:1:0:0:
296,71,14821,1,0,3:3:0:0:
387,124,15000,2,0,P|387:182|387:246,1,105,10|8,3:1|2:3,0:0:0:0:
382,240,15357,1,4,1:3:0:0:
282,316,15535,1,8,1:1:0:0:
142,230,15714,5,8,1:3:0:0:
136,224,15803,1,8,1:3:0:0:
130,217,15893,2,0,P|189:212|280:218,1,140,6|0,3:2|3:3,0:0:0:0:
234,186,16428,2,0,P|188:185|153:185,1,70,8|2,1:1|1:1,0:0:0:0:
206,93,16785,2,0,P|208:55|208:45,2,35,8|8|2,1:3|1:3|3:2,0:0:0:0:
306,113,17143,1,8,1:1:0:0:
101,28,17321,6,0,P|63:55|63:89,1,70,2|8,1:1|1:3,0:0:0:0:
64,85,17589,1,8,1:3:0:0:
69,94,17678,1,0,3:3:0:0:
156,183,17857,1,8,1:1:0:0:
236,78,18035,2,0,P|193:63|164:75,1,70,2|8,1:1|1:3,0:0:0:0:
160,186,18393,1,0,3:3:0:0:
160,186,18571,1,8,1:1:0:0:
41,274,18750,6,0,P|111:277|165:285,1,105,6|0,3:2|0:0,0:0:0:0:
155,288,19107,2,0,P|158:329|161:368,1,70,2|8,3:2|1:1,0:0:0:0:
292,296,19464,2,0,P|290:236|288:196,1,70,2|8,1:1|1:3,0:0:0:0:
286,216,19732,1,0,0:0:0:0:
292,206,19821,1,0,3:3:0:0:
365,351,20000,1,8,1:1:0:0:
437,226,20178,6,0,P|434:170|432:124,1,70,2|8,1:1|1:3,0:0:0:0:
431,146,20446,1,8,1:3:0:0:
434,133,20535,1,0,3:3:0:0:
491,64,20714,1,8,1:1:0:0:
400,16,20893,2,0,P|355:26|315:32,1,70,2|0,1:1|0:0,0:0:0:0:
328,37,21160,1,8,1:1:0:0:
322,45,21250,1,0,0:0:0:0:
287,126,21428,5,8,1:3:0:0:
283,132,21518,1,4,1:3:0:0:
278,137,21607,2,0,P|201:154|151:162,1,105,6|0,3:2|0:0,0:0:0:0:
161,162,21964,2,0,P|198:168|233:179,1,70,0|8,3:3|1:1,0:0:0:0:
168,241,22321,1,2,1:1:0:0:
202,86,22500,1,2,3:2:0:0:
176,246,22678,1,0,3:3:0:0:
83,167,22857,1,8,1:1:0:0:
302,197,23035,6,0,P|342:227|355:268,1,70,0|8,3:3|1:3,0:0:0:0:
348,252,23303,1,8,1:3:0:0:
344,260,23393,1,2,3:2:0:0:
251,383,23571,1,8,1:1:0:0:
251,383,23750,2,0,P|256:331|265:295,1,70,2|8,1:1|1:3,0:0:0:0:
131,337,24107,5,2,3:2:0:0:
109,256,24285,1,8,1:1:0:0:
222,224,24464,6,0,P|234:165|229:94,1,105,6|0,3:2|0:0,0:0:0:0:
226,112,24821,2,0,P|210:62|201:44,1,70,2|8,3:2|1:1,0:0:0:0:
297,27,25178,1,2,1:1:0:0:
114,92,25357,1,8,1:3:0:0:
110,102,25446,1,8,1:3:0:0:
107,109,25535,1,0,3:3:0:0:
16,50,25714,1,8,1:1:0:0:
233,120,25893,6,0,P|283:117|318:117,1,70,2|0,3:2|0:0,0:0:0:0:
315,115,26160,1,8,1:3:0:0:
325,118,26250,2,0,P|332:163|332:218,1,70,2|8,3:2|1:1,0:0:0:0:
512,151,26607,2,0,P|460:154|424:154,1,70,2|0,3:2|0:0,0:0:0:0:
412,9,26964,2,0,P|410:56|412:96,1,70,0|8,0:0|1:3,0:0:0:0:
420,83,27232,1,8,1:3:0:0:
430,85,27321,6,0,P|429:140|434:254,1,140,6|0,3:2|3:3,0:0:0:0:
256,192,27857,12,4,29286,3:3:0:0:
279,32,29553,5,4,3:3:0:0:
287,37,29643,2,0,P|303:104|293:203,1,140,10|8,1:1|1:1,0:1:0:0:
217,277,30178,6,0,P|214:322|220:382,1,105,6|0,3:1|0:0,0:0:0:0:
230,379,30535,5,0,3:3:0:0:
351,339,30714,2,0,P|356:289|350:253,1,70,8|0,1:1|2:2,0:0:0:0:
312,183,31071,1,2,1:2:0:0:
421,218,31250,1,0,3:3:0:0:
299,174,31428,1,8,1:1:0:0:
369,116,31607,6,0,P|366:51|370:4,1,105,2|0,3:2|0:0,0:0:0:0:
357,7,31964,2,0,P|312:16|261:22,1,70,2|8,3:1|1:1,0:0:0:0:
179,1,32321,1,2,3:2:0:0:
156,101,32500,2,0,P|139:100|121:99,2,35,0|8|0,0:0|1:0|0:0,0:0:0:0:
261,125,32857,1,8,1:1:0:0:
104,188,33035,6,0,P|127:245|139:315,1,105,6|0,3:1|0:0,0:0:0:0:
131,298,33393,2,0,P|95:309|60:318,2,70,2|8|0,3:2|1:1|0:0,0:0:0:0:
227,350,33928,1,0,3:3:0:0:
235,346,34018,1,8,1:0:0:0:
244,345,34107,1,0,0:0:0:0:
285,277,34285,1,10,1:1:0:0:
208,217,34464,1,2,3:2:0:0:
339,130,34643,5,2,1:1:0:0:
290,192,34821,1,0,3:3:0:0:
248,120,35000,1,8,1:1:0:0:
388,197,35178,6,0,B|402:232|402:232|378:278,1,70,2|0,1:1|0:0,0:0:0:0:
198,250,35535,2,0,B|181:219|181:219|203:172,1,70,2|8,3:2|1:1,0:0:0:0:
284,135,35893,6,0,P|293:215|292:298,1,140,6|0,1:1|3:3,0:0:0:0:
311,367,36428,1,8,1:1:0:0:
303,270,36607,6,0,P|305:230|311:187,1,70,2|0,2:1|0:0,0:0:0:0:
362,98,36964,1,2,3:2:0:0:
285,35,37143,1,8,1:1:0:0:
418,22,37321,6,0,P|465:32|476:107,1,105,2|0,3:2|0:0,0:0:0:0:
481,89,37678,1,2,3:1:0:0:
423,154,37857,1,8,1:0:0:0:
501,211,38035,2,0,P|504:270|505:331,1,105,2|0,3:1|0:0,0:0:0:0:
498,323,38393,2,0,P|458:323|423:331,1,70,2|8,3:1|1:1,0:0:0:0:
307,279,38750,6,0,P|274:324|306:391,1,105,2|0,3:1|0:0,0:0:0:0:
291,378,39107,2,0,P|331:381|369:384,1,70,0|8,3:3|1:1,0:0:0:0:
61,380,39643,1,2,1:2:0:0:
61,380,39821,2,0,P|67:332|35:294,1,70,2|8,3:1|1:1,0:0:0:0:
125,262,40178,5,2,3:1:0:0:
26,179,40357,1,2,0:0:0:0:
31,189,40446,1,8,1:1:0:0:
42,193,40535,1,0,0:0:0:0:
140,127,40714,2,0,P|192:124|235:123,1,70,10|0,1:1|3:3,0:0:0:0:
284,214,41071,2,0,P|215:217|190:217,1,70,2|0,3:2|3:3,0:0:0:0:
330,295,41428,5,8,1:1:0:0:
335,300,41518,1,8,3:0:0:0:
339,305,41607,2,0,P|383:306|485:310,1,140,6|0,3:1|3:3,0:0:0:0:
412,356,42143,1,8,1:1:0:0:
484,204,42321,1,0,1:1:0:0:
484,204,42500,2,0,B|500:175|500:175|483:142,1,70,8|2,1:3|3:2,0:0:0:0:
447,42,42857,1,8,1:1:0:0:
312,41,43035,6,0,P|280:38|183:47,1,105,6|0,1:1|0:0,0:0:0:0:
201,50,43393,2,0,B|184:83|184:83|208:123,1,70,0|8,3:3|1:1,0:0:0:0:
237,201,43750,2,0,P|280:202|316:198,1,70,2|8,1:1|3:0,0:0:0:0:
366,131,44107,1,0,3:3:0:0:
315,280,44285,1,8,1:1:0:0:
239,350,44464,5,6,3:2:0:0:
157,321,44643,1,0,0:0:0:0:
143,237,44821,1,2,3:2:0:0:
237,192,45000,2,0,P|231:237|230:276,1,70,8|2,1:1|1:1,0:0:0:0:
50,277,45357,2,0,P|53:321|53:354,1,70,8|0,1:3|3:3,0:0:0:0:
143,237,45714,1,8,1:1:0:0:
54,150,45893,6,0,P|103:146|150:150,1,70,2|0,1:1|0:0,0:0:0:0:
133,141,46160,1,8,1:3:0:0:
143,136,46250,1,0,3:3:0:0:
246,183,46428,1,8,1:1:0:0:
352,132,46607,2,0,P|370:88|323:34,1,105,2|8,1:1|1:1,0:0:0:0:
333,39,46964,1,0,0:0:0:0:
231,3,47143,5,8,1:3:0:0:
221,8,47232,1,4,1:3:0:0:
212,17,47321,2,0,P|147:20|80:18,1,105,6|0,3:2|0:0,0:0:0:0:
91,27,47678,2,0,P|87:80|87:114,1,70,0|8,3:3|1:1,0:0:0:0:
19,200,48035,1,2,1:1:0:0:
92,105,48214,1,2,3:2:0:0:
130,227,48393,1,0,3:3:0:0:
71,323,48571,1,8,1:1:0:0:
71,323,48750,6,0,P|118:323|166:329,1,70,0|8,3:3|1:3,0:0:0:0:
146,330,49018,1,8,1:3:0:0:
151,335,49107,1,2,3:2:0:0:
250,384,49285,1,8,1:1:0:0:
322,287,49464,1,2,1:1:0:0:
231,222,49643,1,0,3:0:0:0:
235,307,49821,1,2,3:2:0:0:
235,307,50000,1,8,1:1:0:0:
397,337,50178,6,0,P|441:299|432:247,1,105,6|8,3:2|1:0,0:0:0:0:
438,244,50535,2,0,P|400:221|372:224,1,70,2|8,3:2|1:1,0:0:0:0:
310,118,50893,2,0,P|382:123|475:126,1,140,2|0,1:1|3:3,0:0:0:0:
485,50,51428,1,8,1:1:0:0:
375,23,51607,6,0,P|321:26|276:30,1,70,2|0,3:2|0:0,0:0:0:0:
300,33,51875,1,8,1:3:0:0:
295,38,51964,2,0,P|250:44|216:45,1,70,2|8,3:2|1:1,0:0:0:0:
50,39,52321,2,0,P|93:44|135:46,1,70,2|0,1:1|0:0,0:0:0:0:
207,151,52678,2,0,P|151:153|112:153,1,70,2|8,1:1|1:3,0:0:0:0:
130,161,52946,1,8,1:3:0:0:
125,171,53035,6,0,P|115:211|133:261,1,70,6|0,3:1|0:0,0:0:0:0:
59,298,53393,1,2,3:2:0:0:
177,325,53571,1,8,1:1:0:0:
106,371,53750,1,2,0:0:0:0:
264,361,53928,2,0,P|277:311|249:217,1,140,2|8,3:2|1:1,0:0:0:0:
256,192,54464,12,0,55892,0:0:0:0:
238,22,56071,5,2,3:2:0:0:
198,96,56428,1,8,1:1:0:0:
154,169,56785,1,2,3:2:0:0:
109,240,57143,1,8,1:1:0:0:
66,159,57500,6,0,P|116:158|146:160,1,70,0|0,3:3|0:0,0:0:0:0:
14,89,57857,2,0,P|15:50|10:15,1,70,8|0,1:1|0:0,0:0:0:0:
125,44,58214,6,0,P|176:42|247:42,1,105,2|0,3:2|0:0,0:0:0:0:
238,48,58571,2,0,P|238:87|236:128,1,70,10|8,1:1|1:3,0:0:0:0:
280,193,58928,5,6,3:2:0:0:
366,207,59107,1,0,0:0:0:0:
447,164,59285,1,8,1:1:0:0:
464,82,59464,1,0,0:0:0:0:
411,16,59643,2,0,P|362:15|316:16,1,70,2|0,3:2|0:0,0:0:0:0:
356,92,60000,2,0,P|359:132|360:211,1,105,8|0,1:1|0:0,0:0:0:0:
366,207,60357,6,0,P|367:253|367:285,1,70,2|0,3:2|3:3,0:0:0:0:
337,361,60714,1,8,1:1:0:0:
231,258,60893,2,0,P|233:309|231:346,1,70,2|0,1:1|0:0,0:0:0:0:
130,300,61250,1,0,3:3:0:0:
36,345,61428,2,0,P|32:286|39:232,1,105,10|0,1:1|0:0,0:0:0:0:
47,236,61785,6,0,P|67:199|46:163,1,70,2|0,3:2|3:3,0:0:0:0:
192,92,62143,2,0,P|166:146|196:193,1,105,8|0,1:1|0:0,0:0:0:0:
194,190,62500,2,0,P|238:192|286:193,1,70,2|0,3:2|3:3,0:0:0:0:
335,264,62857,2,0,P|364:224|346:150,1,105,10|0,1:1|0:0,0:0:0:0:
353,162,63214,5,2,3:1:0:0:
440,128,63393,1,0,0:0:0:0:
405,40,63571,1,8,1:1:0:0:
313,72,63750,1,2,1:1:0:0:
229,24,63928,6,0,P|231:85|231:124,1,70,0|0,3:3|3:3,0:0:0:0:
254,187,64285,5,8,1:1:0:0:
229,276,64464,5,8,1:3:0:0:
233,282,64553,1,8,1:3:0:0:
237,289,64643,2,0,P|297:290|339:288,1,70,6|0,3:2|0:0,0:0:0:0:
435,354,65000,2,0,P|431:286|432:201,2,140,8|0|8,1:1|3:3|1:1,0:0:0:0:
210,342,66071,5,0,3:3:0:0:
124,343,66250,1,0,3:3:0:0:
39,347,66428,1,8,1:1:0:0:
269,112,66785,5,2,3:2:0:0:
354,111,66964,1,0,3:3:0:0:
442,109,67143,1,8,1:1:0:0:
66,19,67500,6,0,P|65:55|70:98,1,70,2|0,3:2|0:0,0:0:0:0:
133,152,67857,1,8,1:1:0:0:
85,222,68035,1,2,1:1:0:0:
166,311,68214,2,0,P|166:268|162:223,1,70,0|0,3:3|0:0,0:0:0:0:
275,362,68571,2,0,P|276:319|271:273,1,70,8|0,1:1|0:0,0:0:0:0:
268,206,68928,6,0,P|282:168|376:167,1,140,0|8,3:3|1:1,0:0:0:0:
512,218,69643,1,2,3:2:0:0:
425,246,70000,1,8,1:1:0:0:
490,372,70357,6,0,P|490:329|487:283,1,70,6|0,3:1|0:0,0:0:0:0:
438,156,70714,2,0,P|441:98|433:39,1,105,8|0,1:1|0:0,0:0:0:0:
431,43,71071,2,0,P|392:41|274:44,1,140,0|10,3:3|1:1,0:0:0:0:
52,166,71785,2,0,P|102:173|142:169,1,70,2|0,3:2|3:3,0:0:0:0:
129,84,72143,2,0,P|81:78|50:79,1,70,8|0,1:1|0:0,0:0:0:0:
206,136,72500,5,2,3:2:0:0:
262,199,72678,1,0,0:0:0:0:
332,147,72857,1,8,1:0:0:0:
262,211,73035,1,2,1:1:0:0:
375,239,73214,6,0,P|424:237|469:237,2,70,0|0|8,3:3|3:3|1:0,0:0:0:0:
512,282,73750,1,2,3:2:0:0:
443,323,73928,2,0,P|393:322|357:323,1,70,8|0,1:1|0:0,0:0:0:0:
367,328,74196,1,8,1:3:0:0:
361,335,74285,1,8,1:1:0:0:
256,359,74464,6,0,P|248:291|263:29,1,315,6|0,3:1|0:0,0:0:0:0:
254,39,75357,5,8,1:1:0:0:
274,189,75535,1,8,3:3:0:0:
274,189,75893,5,4,3:3:0:0:
221,300,76250,5,2,3:2:0:0:
291,375,76428,1,8,1:1:0:0:
296,367,76518,1,8,1:1:0:0:
302,359,76607,1,2,3:2:0:0:
359,248,76785,5,8,1:3:0:0:
366,240,76875,1,8,1:3:0:0:
373,232,76964,1,4,1:3:0:0:
380,225,77053,1,4,1:3:0:0:
384,218,77143,1,10,1:1:0:0:
388,211,77232,1,8,1:1:0:0:
393,205,77321,1,10,1:1:0:0:
397,198,77410,1,8,1:1:0:0:
403,191,77500,6,0,P|396:140|394:102,1,70,6|0,3:1|0:0,0:0:0:0:
491,223,77857,2,0,P|495:267|497:299,1,70,8|0,1:1|2:2,0:0:0:0:
422,344,78214,1,0,2:2:0:0:
333,291,78393,1,2,3:2:0:0:
242,378,78571,1,8,1:1:0:0:
172,333,78750,1,2,3:2:0:0:
73,374,78928,6,0,P|73:332|74:285,1,70,2|0,1:1|3:0,0:0:0:0:
8,231,79285,1,8,1:1:0:0:
82,291,79464,1,0,3:3:0:0:
122,212,79643,2,0,P|120:157|116:129,1,70,2|0,1:1|3:3,0:0:0:0:
211,245,80000,2,0,P|251:244|292:246,1,70,8|2,1:1|1:2,0:0:0:0:
365,180,80357,2,0,P|365:127|303:111,1,105,2|0,3:1|2:2,0:0:0:0:
314,102,80714,1,8,1:1:0:0:
0,58,81071,5,2,3:2:0:0:
70,25,81250,1,2,1:2:0:0:
154,53,81428,1,8,1:1:0:0:
235,13,81607,2,0,P|234:79|235:183,2,140,2|0|0,3:2|3:3|3:3,0:0:0:0:
342,92,82500,5,2,1:1:0:0:
371,16,82678,1,0,3:3:0:0:
456,47,82857,1,10,1:1:0:0:
426,127,83035,1,0,3:3:0:0:
498,213,83214,6,0,P|433:216|365:218,1,105,6|0,3:1|0:0,0:0:0:0:
385,225,83571,2,0,P|340:229|309:228,1,70,8|0,1:1|0:0,0:0:0:0:
210,193,83928,2,0,P|189:224|225:327,1,140,0|8,3:0|1:1,0:0:0:0:
293,380,84464,1,2,3:2:0:0:
381,331,84643,6,0,P|428:330|467:330,1,70,2|0,1:1|0:0,0:0:0:0:
501,257,85000,1,8,1:1:0:0:
305,272,85178,2,0,P|304:226|305:117,1,140,2|2,1:1|3:2,0:0:0:0:
231,22,85714,2,0,P|234:68|232:101,1,70,10|0,1:1|0:0,0:0:0:0:
403,161,86071,6,0,P|433:113|385:24,1,140,6|8,3:1|1:1,0:0:0:0:
313,9,86607,1,2,1:1:0:0:
312,115,86785,1,0,3:3:0:0:
313,215,86964,1,0,3:3:0:0:
232,159,87143,2,0,P|189:157|134:159,1,70,10|0,1:1|3:3,0:0:0:0:
51,19,87500,6,0,P|47:68|56:112,1,70,6|8,3:1|1:1,0:0:0:0:
245,24,87857,1,8,1:1:0:0:
237,28,87946,1,8,1:1:0:0:
229,32,88035,1,0,0:0:0:0:
132,60,88214,1,2,3:1:0:0:
163,151,88393,1,8,1:3:0:0:
156,155,88482,1,8,3:3:0:0:
149,159,88571,1,4,3:3:0:0:
143,162,88660,1,8,1:3:0:0:
137,165,88750,1,8,1:1:0:0:
131,168,88839,1,8,1:1:0:0:
125,171,88928,6,0,P|124:251|125:324,1,140,6|8,3:1|1:1,0:0:0:0:
401,256,89643,2,0,P|404:303|399:346,1,70,0|2,3:0|3:1,0:0:0:0:
306,292,90000,1,8,1:1:0:0:
229,350,90178,1,2,3:2:0:0:
313,277,90357,6,0,P|268:264|224:277,1,70,2|0,1:1|3:0,0:0:0:0:
201,183,90714,2,0,P|239:169|275:173,1,70,8|0,1:1|3:3,0:0:0:0:
125,237,91071,1,2,1:1:0:0:
61,171,91250,1,0,3:2:0:0:
138,114,91428,1,8,1:1:0:0:
201,183,91607,1,0,2:2:0:0:
127,104,91785,6,0,P|126:59|125:27,1,70,2|0,3:1|0:0,0:0:0:0:
238,67,92143,2,0,P|287:68|358:70,1,105,8|0,1:1|0:0,0:0:0:0:
352,64,92500,1,2,3:1:0:0:
426,111,92678,1,2,3:2:0:0:
351,173,92857,1,8,1:1:0:0:
431,249,93035,2,0,P|432:289|435:335,1,70,4|0,3:1|0:0,0:0:0:0:
508,185,93393,5,2,3:1:0:0:
508,185,93571,2,0,P|505:125|502:86,1,70,10|0,1:1|0:0,0:0:0:0:
346,174,93928,2,0,P|311:177|229:182,1,105,2|2,1:1|1:1,0:0:0:0:
230,179,94285,1,8,1:0:0:0:
292,259,94464,1,2,3:1:0:0:
280,101,94643,6,0,P|281:47|279:8,1,70,4|0,3:1|0:0,0:0:0:0:
230,179,95000,2,0,P|219:214|203:256,1,70,8|2,1:1|1:1,0:0:0:0:
361,182,95357,2,0,P|372:220|384:256,1,70,0|0,3:0|3:3,0:0:0:0:
289,347,95714,5,10,1:1:0:0:
289,347,95893,1,6,3:1:0:0:
188,328,96071,1,0,0:0:0:0:
114,369,96250,1,2,3:2:0:0:
40,321,96428,1,8,1:1:0:0:
70,159,96607,2,0,P|72:200|70:236,1,70,6|0,3:1|0:0,0:0:0:0:
162,229,96964,1,0,3:3:0:0:
172,231,97053,1,8,1:1:0:0:
182,233,97143,1,8,1:1:0:0:
192,235,97232,1,8,0:0:0:0:
202,237,97321,1,4,1:3:0:0:
295,305,97500,6,0,P|311:229|252:187,1,140,4|8,3:1|1:1,0:0:0:0:
256,192,98035,12,8,99285,1:1:0:0:
259,33,99643,6,0,P|259:72|256:105,1,70,10|10,3:1|3:1,0:0:0:0:
57,18,100178,6,0,P|20:44|47:139,1,125.999996154785,6|0,3:1|2:2,0:0:0:0:
36,122,100535,1,2,3:2:0:0:
27,236,100714,1,10,1:1:0:0:
27,339,100893,1,0,0:0:0:0:
134,208,101071,2,0,P|138:143|134:107,2,83.9999974365235,2|2|8,3:2|3:1|1:1,0:0:0:0:
41,326,101607,5,2,3:1:0:0:
171,310,101785,2,0,P|222:305|278:306,1,83.9999974365235,2|2,1:2|3:2,0:0:0:0:
337,359,102143,1,10,1:1:0:0:
307,236,102321,1,2,3:2:0:0:
380,206,102500,1,2,1:1:0:0:
415,329,102678,1,0,3:3:0:0:
426,324,102768,1,0,3:0:0:0:
437,318,102857,1,8,1:1:0:0:
448,313,102946,1,0,3:0:0:0:
460,309,103035,6,0,P|461:233|461:204,1,83.9999974365235,2|0,3:1|0:0,0:0:0:0:
397,118,103393,2,0,P|350:126|292:135,1,83.9999974365235,2|10,3:2|1:1,0:0:0:0:
407,123,103750,1,0,0:0:0:0:
330,36,103928,6,0,B|366:16|366:16|442:36,1,83.9999974365235,2|2,1:1|3:2,0:0:0:0:
237,37,104285,2,0,P|185:33|131:34,1,83.9999974365235,8|2,1:1|3:1,0:0:0:0:
321,49,104643,5,2,1:2:0:0:
230,120,104821,1,0,3:3:0:0:
317,199,105000,2,0,P|334:242|343:281,1,83.9999974365235,10|2,1:1|1:2,0:0:0:0:
339,292,105268,1,0,0:0:0:0:
339,302,105357,1,2,1:2:0:0:
250,269,105535,1,2,3:1:0:0:
418,247,105714,1,8,1:1:0:0:
242,277,105893,2,0,P|181:281|124:284,1,83.9999974365235,6|0,3:1|0:0,0:0:0:0:
33,190,106250,6,0,P|100:183|213:176,1,167.999994873047,2|2,3:2|1:2,0:0:0:0:
297,137,106785,1,2,3:1:0:0:
415,203,106964,1,2,3:2:0:0:
397,113,107143,5,8,1:1:0:0:
310,237,107321,2,0,P|314:300|314:369,1,125.999996154785,2|0,3:1|0:0,0:0:0:0:
308,371,107678,2,0,P|263:375|223:374,1,83.9999974365235,2|8,3:2|1:1,0:0:0:0:
143,242,108035,2,0,P|141:292|144:334,1,83.9999974365235,2|0,3:1|0:0,0:0:0:0:
85,177,108393,1,2,3:1:0:0:
142,125,108571,1,8,1:1:0:0:
83,48,108750,5,2,3:1:0:0:
83,48,109107,2,0,P|150:42|207:45,1,83.9999974365235,2|10,3:2|1:1,0:0:0:0:
464,129,109643,1,0,3:3:0:0:
353,35,109821,1,2,3:2:0:0:
497,0,110000,1,8,1:1:0:0:
427,64,110178,6,0,P|424:130|426:214,1,125.999996154785,2|0,3:1|0:0,0:0:0:0:
424,205,110535,1,2,3:1:0:0:
447,298,110714,1,8,1:1:0:0:
330,382,110893,2,0,P|329:305|326:230,1,125.999996154785,2|0,3:1|0:0,0:0:0:0:
324,248,111250,1,8,1:1:0:0:
320,240,111339,1,8,1:1:0:0:
316,232,111428,1,8,1:1:0:0:
251,138,111607,6,0,P|215:162|220:244,1,125.999996154785,6|0,3:1|0:0,0:0:0:0:
226,240,111964,1,0,3:3:0:0:
106,349,112143,2,0,P|128:303|73:228,1,125.999996154785,10|0,1:1|0:0,0:0:0:0:
88,241,112500,2,0,P|42:242|3:244,2,83.9999974365235,2|0|8,1:2|3:3|1:1,0:0:0:0:
175,169,113035,6,0,P|177:114|172:71,1,83.9999974365235,2|0,1:1|0:0,0:0:0:0:
170,76,113303,1,8,1:1:0:0:
163,67,113393,1,0,3:0:0:0:
82,129,113571,1,10,1:1:0:0:
0,96,113750,1,0,3:0:0:0:
0,96,113928,1,10,3:2:0:0:
180,178,114107,1,2,3:2:0:0:
371,86,114464,6,0,P|372:142|371:229,1,125.999996154785,6|0,3:1|0:0,0:0:0:0:
367,225,114821,1,0,3:3:0:0:
460,96,115000,2,0,B|474:55|474:55|444:16,1,83.9999974365235,10|0,1:1|0:0,0:0:0:0:
300,17,115357,1,2,1:1:0:0:
255,93,115535,1,0,3:3:0:0:
324,153,115714,1,8,1:1:0:0:
173,118,115893,6,0,P|174:176|178:238,1,83.9999974365235,2|0,1:1|0:0,0:0:0:0:
180,209,116160,1,8,1:0:0:0:
187,216,116250,1,2,3:2:0:0:
294,256,116428,2,0,P|294:310|292:352,1,83.9999974365235,8|0,1:1|0:0,0:0:0:0:
288,348,116696,1,0,3:0:0:0:
281,355,116785,1,10,3:2:0:0:
389,228,116964,1,2,3:2:0:0:
86,308,117321,6,0,B|49:228|49:228|95:144,1,167.999994873047,6|0,3:1|3:3,0:0:0:0:
201,195,117857,2,0,P|271:190|311:200,1,83.9999974365235,10|0,1:1|0:0,0:0:0:0:
328,270,118214,1,2,1:1:0:0:
260,339,118393,1,2,3:2:0:0:
178,288,118571,1,8,1:1:0:0:
266,349,118750,6,0,P|319:353|365:351,1,83.9999974365235,2|0,1:1|0:0,0:0:0:0:
359,347,119018,1,8,1:0:0:0:
368,341,119107,1,0,3:0:0:0:
434,281,119285,1,8,1:1:0:0:
420,177,119464,1,0,3:0:0:0:
413,185,119553,1,8,3:0:0:0:
406,193,119643,1,10,3:2:0:0:
512,332,119821,1,2,3:2:0:0:
512,332,120178,6,0,L|503:258,1,41.9999987182618,6|0,3:1|0:0,0:0:0:0:
494,100,120535,1,0,3:3:0:0:
494,100,120714,1,10,1:1:0:0:
494,100,120893,1,0,0:0:0:0:
494,100,121071,2,0,P|496:162|498:198,2,83.9999974365235,2|2|8,1:1|3:2|1:1,0:0:0:0:
434,29,121607,5,2,1:1:0:0:
348,71,121785,1,0,3:0:0:0:
344,80,121875,1,8,1:0:0:0:
346,90,121964,1,2,3:2:0:0:
396,184,122143,5,8,1:0:0:0:
404,179,122232,1,8,1:0:0:0:
407,171,122321,1,0,3:3:0:0:
329,257,122500,5,2,3:1:0:0:
218,217,122678,5,2,3:2:0:0:
151,300,122857,5,8,3:3:0:0:
139,303,122946,1,8,1:3:0:0:
129,306,123035,2,0,P|97:261|137:185,1,140,6|2,3:2|3:2,0:0:0:0:
128,189,123571,1,8,0:0:0:0:
26,172,123750,2,0,P|22:124|26:84,1,70,2|2,0:0|3:2,0:0:0:0:
23,102,124107,1,2,3:2:0:0:
23,102,124285,1,10,0:0:0:0:
272,57,125893,6,0,P|331:61|404:62,1,105,2|0,3:2|0:0,0:0:0:0:
388,58,126250,1,2,3:2:0:0:
512,226,126607,1,2,0:0:0:0:
425,240,126785,1,2,3:2:0:0:
412,154,126964,1,2,3:2:0:0:
498,141,127143,1,10,0:0:0:0:
323,359,128750,6,0,P|306:307|347:253,1,105,6|0,3:2|0:0,0:0:0:0:
341,257,129107,2,0,P|387:257|426:262,1,70,2|8,3:2|0:0,0:0:0:0:
512,311,129464,1,2,0:0:0:0:
433,369,129643,1,2,3:2:0:0:
427,358,129732,1,8,3:0:0:0:
423,348,129821,1,2,3:2:0:0:
494,204,130000,1,10,0:0:0:0:
256,192,131250,5,2,3:2:0:0:
256,192,131428,1,8,0:0:0:0:
256,192,131607,2,0,P|259:108|255:79,1,105,6|0,3:2|0:0,0:0:0:0:
245,78,131964,1,2,3:2:0:0:
303,6,132143,1,8,0:0:0:0:
357,82,132321,1,2,0:0:0:0:
157,147,132500,1,2,3:1:0:0:
256,192,132678,1,8,1:1:0:0:
258,202,132768,1,8,1:1:0:0:
260,212,132857,1,8,1:1:0:0:
262,222,132946,1,0,0:0:0:0:
262,232,133035,6,0,P|255:288|257:326,1,70,6|0,3:1|1:0,0:0:0:0:
109,363,133393,5,8,1:1:0:0:
107,351,133482,1,8,1:1:0:0:
106,340,133571,1,8,1:1:0:0:
105,329,133660,1,8,1:1:0:0:
116,307,133750,5,6,3:1:0:0:
16,237,133928,1,0,3:0:0:0:
21,228,134018,1,0,3:0:0:0:
27,225,134107,2,0,P|52:218|72:215,3,35,8|8|8|8,3:3|1:1|1:1|1:1,0:0:0:0:
79,203,134464,6,0,P|99:165|62:89,1,105,6|0,3:1|0:0,0:0:0:0:
68,101,134821,1,2,3:2:0:0:
175,131,135000,1,8,1:1:0:0:
267,79,135178,1,0,0:0:0:0:
371,83,135357,2,0,P|417:75|457:74,1,70,2|0,3:2|0:0,0:0:0:0:
317,147,135714,1,8,1:1:0:0:
256,192,135893,12,0,137321,0:0:0:0:
481,63,137500,5,2,3:2:0:0:
407,109,137678,1,0,3:3:0:0:
305,57,137857,2,0,P|305:91|305:126,1,70,8|0,1:1|0:0,0:0:0:0:
200,117,138214,1,2,3:2:0:0:
120,71,138393,1,0,3:3:0:0:
64,122,138571,1,8,1:1:0:0:
64,122,138750,2,0,P|63:208|59:356,1,210,2|8,1:1|1:1,0:0:0:0:
274,377,139643,6,0,P|277:336|281:301,1,70,2|0,3:2|0:0,0:0:0:0:
241,205,140000,2,0,P|236:158|231:128,1,70,10|8,1:1|1:3,0:0:0:0:
368,88,140357,6,0,P|414:89|437:153,1,105,6|0,3:2|0:0,0:0:0:0:
451,146,140714,2,0,P|454:191|448:227,1,70,8|0,1:1|0:0,0:0:0:0:
512,69,141071,1,2,3:2:0:0:
512,69,141250,1,2,1:1:0:0:
360,194,141428,2,0,P|356:263|361:314,1,105,8|0,1:1|0:0,0:0:0:0:
366,313,141785,1,2,3:2:0:0:
440,365,141964,1,0,0:0:0:0:
491,293,142143,1,8,1:1:0:0:
358,298,142321,2,0,P|291:299|266:298,2,70,2|0|0,1:1|3:0|3:0,0:0:0:0:
209,320,142857,2,0,B|171:331|171:331|129:311,1,70,10|0,1:1|0:0,0:0:0:0:
99,139,143214,5,2,3:2:0:0:
99,139,143393,1,0,0:0:0:0:
79,224,143571,1,8,1:1:0:0:
79,224,143750,1,0,0:0:0:0:
170,237,143928,1,2,3:2:0:0:
170,237,144107,1,0,0:0:0:0:
190,147,144285,2,0,P|187:86|184:39,1,105,10|0,1:1|0:0,0:0:0:0:
190,31,144643,5,2,3:1:0:0:
90,43,144821,1,2,3:2:0:0:
314,86,145000,2,0,L|367:78,2,46.6666666666667,2|8|8,3:2|3:0|3:0,0:0:0:0:
388,63,145357,2,0,P|415:69|444:76,1,35,2|0,3:2|0:0,0:0:0:0:
447,157,145535,2,0,P|446:211|441:260,1,70,2|8,3:2|1:3,0:0:0:0:
438,235,145803,1,8,1:3:0:0:
433,244,145893,1,8,1:3:0:0:
428,253,145982,1,8,1:3:0:0:
421,260,146071,6,0,P|376:301|299:275,1,140,6|2,3:2|3:2,0:0:0:0:
109,191,146785,2,0,P|151:217|233:183,1,140,10|2,1:1|1:1,0:0:0:0:
132,118,147321,2,0,P|81:106|51:104,1,70,0|0,3:3|0:0,0:0:0:0:
196,73,147678,1,8,1:1:0:0:
305,29,147857,2,0,P|370:42|399:58,1,70,2|0,3:2|0:0,0:0:0:0:
473,140,148214,5,0,3:3:0:0:
393,169,148393,1,8,1:1:0:0:
313,142,148571,1,0,0:0:0:0:
396,179,148750,1,2,1:1:0:0:
403,260,148928,6,0,P|402:308|403:338,1,70,6|0,3:2|0:0,0:0:0:0:
318,332,149285,2,0,P|319:289|318:253,1,70,0|0,3:3|0:0,0:0:0:0:
479,302,149643,1,8,1:1:0:0:
239,295,149821,1,0,0:0:0:0:
126,325,150000,1,2,1:1:0:0:
126,325,150178,1,0,3:3:0:0:
126,325,150535,1,0,3:3:0:0:
38,294,150714,1,10,1:1:0:0:
254,371,151071,5,8,1:1:0:0:
254,371,151250,1,8,1:3:0:0:
275,253,151428,1,4,3:3:0:0:
277,242,151518,1,4,3:3:0:0:
280,232,151607,1,4,3:3:0:0:
283,222,151696,1,8,3:3:0:0:
287,212,151785,2,0,P|281:166|279:129,1,70,6|0,3:2|3:0,0:0:0:0:
363,32,152143,2,0,P|383:75|368:105,1,70,0|0,1:0|3:0,0:0:0:0:
261,19,152500,2,0,P|198:14|105:28,1,140,8|2,1:1|3:1,0:0:0:0:
492,29,153214,1,2,1:1:0:0:
492,29,153393,1,0,3:3:0:0:
492,29,153571,1,8,1:1:0:0:
469,127,153750,5,8,1:1:0:0:
473,136,153839,1,8,1:1:0:0:
478,145,153928,1,8,1:1:0:0:
506,238,154107,2,0,P|500:274|499:285,2,35,0|2|8,3:0|1:2|1:0,0:0:0:0:
416,312,154464,1,2,0:0:0:0:
382,172,154643,6,0,P|320:171|282:176,1,70,6|0,3:1|0:0,0:0:0:0:
304,180,154910,1,2,3:2:0:0:
297,188,155000,1,8,1:0:0:0:
191,145,155178,1,2,3:2:0:0:
144,242,155357,2,0,P|189:246|228:257,1,70,8|0,1:1|0:0,0:0:0:0:
220,262,155625,1,8,1:3:0:0:
225,274,155714,1,8,1:1:0:0:
268,367,155893,6,0,P|275:305|277:53,1,315,6|0,3:1|0:0,0:0:0:0:
269,44,156785,5,8,1:1:0:0:
295,208,156964,1,0,3:3:0:0:
247,297,157321,5,4,1:3:0:0:
303,368,157678,5,2,3:2:0:0:
155,301,157857,1,8,1:1:0:0:
145,305,157946,1,8,1:1:0:0:
135,309,158035,1,2,3:2:0:0:
253,290,158214,5,8,1:3:0:0:
304,201,158393,1,0,3:0:0:0:
313,196,158482,1,4,1:3:0:0:
323,193,158571,1,10,1:1:0:0:
332,189,158660,1,8,1:1:0:0:
342,186,158750,1,10,1:1:0:0:
352,183,158839,1,8,1:1:0:0:
363,178,158928,6,0,P|395:136|336:66,1,140,6|8,3:1|1:1,0:0:0:0:
47,18,159643,1,0,3:2:0:0:
147,63,159821,1,2,3:2:0:0:
251,14,160000,2,0,P|251:65|249:104,1,70,8|2,1:1|3:2,0:0:0:0:
71,113,160357,6,0,P|41:171|69:212,1,105,2|0,1:1|0:0,0:0:0:0:
62,211,160714,2,0,P|108:216|142:218,1,70,8|2,1:1|3:2,0:0:0:0:
239,348,161071,2,0,P|240:301|239:264,1,70,2|0,1:1|3:0,0:0:0:0:
240,191,161428,1,8,1:1:0:0:
240,191,161607,1,2,1:2:0:0:
349,201,161785,6,0,P|400:200|467:199,1,105,2|0,3:1|0:0,0:0:0:0:
464,205,162143,1,8,1:1:0:0:
240,191,162500,1,2,3:2:0:0:
240,191,162678,1,2,1:2:0:0:
240,191,162857,1,8,1:1:0:0:
123,188,163035,2,0,P|73:188|36:192,1,70,2|0,3:2|0:0,0:0:0:0:
178,122,163393,1,0,3:3:0:0:
125,53,163571,1,8,1:1:0:0:
52,109,163750,1,0,3:3:0:0:
132,42,163928,6,0,P|180:41|214:41,1,70,2|0,2:1|3:3,0:0:0:0:
345,92,164285,2,0,P|288:88|253:87,1,70,10|0,1:1|3:3,0:0:0:0:
245,165,164643,6,0,P|239:210|242:315,1,140,6|8,3:1|1:1,0:0:0:0:
0,384,165357,1,0,3:0:0:0:
40,310,165535,1,2,1:1:0:0:
0,237,165714,1,8,1:0:0:0:
61,174,165893,1,2,3:2:0:0:
130,222,166071,2,0,P|176:226|201:228,1,70,2|0,1:1|3:0,0:0:0:0:
118,303,166428,1,8,1:1:0:0:
56,165,166607,2,0,P|56:103|60:66,1,70,2|0,1:1|3:3,0:0:0:0:
162,138,166964,1,2,3:2:0:0:
275,99,167143,2,0,P|275:143|273:185,1,70,10|0,1:1|0:0,0:0:0:0:
106,29,167500,6,0,P|139:11|244:37,1,140,2|8,3:1|1:1,0:0:0:0:
233,235,168035,2,0,P|171:257|97:228,1,140,2|0,1:1|3:3,0:0:0:0:
217,157,168571,1,10,1:1:0:0:
314,268,168750,1,0,3:3:0:0:
376,212,168928,6,0,P|426:215|461:217,1,70,6|8,3:1|1:1,0:0:0:0:
488,330,169375,1,8,1:1:0:0:
488,330,169464,1,0,3:0:0:0:
421,378,169643,1,2,3:1:0:0:
345,343,169821,1,2,3:2:0:0:
334,346,169910,1,0,3:2:0:0:
323,349,170000,1,4,3:3:0:0:
313,353,170089,1,8,1:3:0:0:
303,357,170178,1,8,1:1:0:0:
293,360,170268,1,8,1:1:0:0:
281,363,170357,6,0,P|223:356|150:352,1,105,6|0,3:1|0:0,0:0:0:0:
164,357,170714,2,0,P|144:327|158:290,1,70,8|0,1:1|0:0,0:0:0:0:
207,222,171071,1,0,3:0:0:0:
90,242,171250,1,2,3:1:0:0:
90,242,171428,1,8,1:1:0:0:
90,242,171607,1,2,3:2:0:0:
143,130,171785,6,0,P|216:121|241:122,1,70,2|0,1:1|2:2,0:0:0:0:
286,160,172143,1,8,1:1:0:0:
80,78,172321,1,0,3:3:0:0:
267,1,172500,2,0,P|270:44|270:78,1,70,2|0,1:1|2:2,0:0:0:0:
351,1,172857,2,0,P|351:49|353:82,1,70,8|0,1:1|0:0,0:0:0:0:
511,136,173214,6,0,P|459:126|392:138,1,105,2|0,3:1|2:2,0:0:0:0:
401,141,173571,1,8,1:1:0:0:
198,157,173928,1,2,3:1:0:0:
114,121,174107,1,2,3:2:0:0:
42,174,174285,1,8,1:1:0:0:
198,171,174464,6,0,P|197:237|194:332,1,140,4|2,3:1|3:1,0:0:0:0:
74,359,175000,2,0,P|24:358|-24:358,1,70,10|0,1:1|0:0,0:0:0:0:
44,270,175357,2,0,P|86:271|122:274,1,70,2|0,1:1|3:3,0:0:0:0:
200,319,175714,1,8,1:0:0:0:
286,277,175893,1,2,3:1:0:0:
374,341,176071,6,0,P|412:319|391:222,1,140,4|8,3:1|1:1,0:0:0:0:
326,120,176607,1,2,1:1:0:0:
326,120,176785,2,0,P|303:156|328:200,1,70,0|0,3:0|3:3,0:0:0:0:
400,81,177143,1,10,1:1:0:0:
307,7,177321,1,6,3:1:0:0:
229,46,177500,1,0,0:0:0:0:
155,25,177678,1,2,3:2:0:0:
71,77,177857,1,8,1:1:0:0:
6,180,178035,6,0,P|58:197|122:215,1,105,6|0,3:1|2:2,0:0:0:0:
114,218,178393,1,0,3:3:0:0:
122,224,178482,1,8,1:1:0:0:
130,229,178571,1,8,1:1:0:0:
138,234,178660,1,8,0:0:0:0:
146,239,178750,1,8,1:0:0:0:
154,244,178839,1,8,0:0:0:0:
163,249,178928,6,0,P|223:244|230:177,1,105,6|0,3:1|0:0,0:0:0:0:
233,198,179285,1,8,1:1:0:0:
307,283,179464,1,0,0:0:0:0:
388,251,179643,1,8,1:1:0:0:
467,298,179821,1,2,3:2:0:0:
396,237,180000,1,0,0:0:0:0:
470,307,180178,6,0,P|424:333|420:355,1,70,8|8,1:1|1:3,0:0:0:0:
423,355,180446,1,8,1:0:0:0:
426,364,180535,1,0,3:0:0:0:
324,356,180714,1,8,1:1:0:0:
216,382,180893,1,0,3:3:0:0:
76,335,181071,5,2,3:2:0:0:
261,284,181250,2,0,P|191:271|170:271,1,70,2|0,3:1|0:0,0:0:0:0:
63,341,181607,6,0,P|75:273|88:206,1,105,6|0,3:1|0:0,0:0:0:0:
76,228,181964,1,0,3:3:0:0:
164,159,182143,2,0,P|169:122|171:80,1,70,8|0,1:1|0:0,0:0:0:0:
101,21,182500,1,2,1:2:0:0:
46,85,182678,1,2,3:2:0:0:
183,79,182857,1,8,1:1:0:0:
258,131,183035,6,0,P|307:126|381:125,1,105,2|0,3:2|0:0,0:0:0:0:
378,130,183393,2,0,P|382:181|386:227,1,70,2|8,3:1|1:0,0:0:0:0:
272,224,183750,2,0,P|275:271|280:314,1,70,2|0,3:2|0:0,0:0:0:0:
169,310,184107,2,0,P|171:357|174:396,1,70,2|8,3:2|1:1,0:0:0:0:
339,368,184464,6,0,P|389:362|460:373,1,105,6|0,3:1|0:0,0:0:0:0:
457,365,184821,1,2,1:2:0:0:
512,296,185000,1,8,1:1:0:0:
445,242,185178,1,0,0:0:0:0:
389,309,185357,1,0,3:3:0:0:
449,227,185535,5,2,3:1:0:0:
492,154,185714,1,10,1:0:0:0:
422,100,185893,1,2,3:2:0:0:
366,177,186071,2,0,P|325:173|278:168,2,70,2|2|8,1:1|3:2|1:0,0:0:0:0:
431,91,186607,2,0,P|444:46|421:14,1,70,2|0,1:1|2:2,0:0:0:0:
244,28,186964,2,0,P|222:66|242:103,1,70,2|8,3:2|1:1,0:0:0:0:
326,215,187321,6,0,P|327:153|330:79,1,105,6|0,1:1|0:0,0:0:0:0:
335,100,187678,1,0,3:3:0:0:
334,16,187857,1,8,1:1:0:0:
247,160,188035,2,0,P|198:161|158:162,1,70,2|0,3:1|0:0,0:0:0:0:
106,120,188393,1,2,3:2:0:0:
132,231,188571,1,8,1:1:0:0:
47,192,188750,2,0,P|45:242|44:316,1,105,2|0,3:2|0:0,0:0:0:0:
37,312,189107,5,2,3:1:0:0:
127,378,189285,1,8,1:0:0:0:
213,323,189464,2,0,P|216:270|218:190,1,105,2|0,3:1|0:0,0:0:0:0:
224,211,189821,2,0,P|267:212|300:212,1,70,2|8,3:1|1:1,0:0:0:0:
391,316,190178,2,0,P|392:262|391:207,1,105,2|0,3:1|0:0,0:0:0:0:
399,205,190535,1,0,3:3:0:0:
491,119,190714,2,0,P|457:120|408:120,1,70,8|0,1:1|0:0,0:0:0:0:
356,54,191071,1,2,1:2:0:0:
294,122,191250,1,2,3:1:0:0:
216,93,191428,1,8,1:1:0:0:
163,164,191607,1,2,3:1:0:0:
61,151,191785,5,2,1:2:0:0:
61,151,191964,1,0,3:3:0:0:
233,231,192143,1,10,1:1:0:0:
233,231,192321,1,0,3:3:0:0:
397,314,192500,1,2,1:2:0:0:
303,345,192678,1,8,1:3:0:0:
294,350,192768,1,8,1:3:0:0:
284,354,192857,1,8,1:1:0:0:
338,232,193035,6,0,P|342:183|338:123,1,105,6|0,3:1|0:0,0:0:0:0:
334,117,193393,1,0,3:3:0:0:
185,189,193571,2,0,P|184:132|192:73,1,105,10|0,1:1|0:0,0:0:0:0:
198,76,193928,1,2,1:2:0:0:
273,28,194107,1,0,3:3:0:0:
122,37,194285,1,8,1:1:0:0:
23,61,194464,6,0,P|27:106|26:141,1,70,2|0,1:1|0:0,0:0:0:0:
21,140,194732,1,8,1:1:0:0:
14,148,194821,1,0,0:0:0:0:
99,196,195000,1,10,1:1:0:0:
41,259,195178,1,8,0:0:0:0:
49,265,195268,1,0,3:0:0:0:
57,271,195357,1,10,3:2:0:0:
3,384,195535,1,2,3:2:0:0:
210,336,195893,6,0,P|309:338|377:345,1,140,6|0,3:1|3:3,0:0:0:0:
427,290,196428,2,0,B|446:258|446:258|430:220,1,70,10|0,1:1|0:0,0:0:0:0:
477,365,196785,1,2,1:1:0:0:
316,243,196964,1,0,3:3:0:0:
316,243,197143,1,8,1:1:0:0:
436,217,197321,6,0,P|433:174|436:142,1,70,2|0,1:1|0:0,0:0:0:0:
440,141,197589,1,8,1:0:0:0:
449,134,197678,1,2,3:2:0:0:
418,34,197857,1,8,1:1:0:0:
407,32,197946,1,0,3:0:0:0:
396,29,198035,1,0,3:0:0:0:
385,27,198125,1,0,3:0:0:0:
374,25,198214,1,10,3:2:0:0:
210,85,198393,1,2,3:2:0:0:
325,228,198750,6,0,P|322:176|324:96,1,105,6|0,3:1|0:0,0:0:0:0:
328,114,199107,1,0,0:0:0:0:
196,174,199285,2,0,P|123:178|101:175,1,70,10|0,1:1|0:0,0:0:0:0:
32,128,199643,1,0,0:0:0:0:
72,38,199821,1,2,3:2:0:0:
158,79,200000,1,8,1:1:0:0:
24,140,200178,6,0,P|22:193|22:227,1,70,2|0,1:1|0:0,0:0:0:0:
27,218,200446,1,8,1:0:0:0:
33,225,200535,1,0,3:0:0:0:
70,316,200714,1,8,1:1:0:0:
342,358,201071,1,10,3:2:0:0:
408,220,201250,1,2,3:2:0:0:
408,220,201607,6,0,P|414:157|406:73,1,140,6|0,3:1|3:3,0:0:0:0:
500,222,202143,2,0,P|492:268|499:308,1,70,10|0,1:1|0:0,0:0:0:0:
504,144,202500,1,2,1:1:0:0:
329,184,202678,1,2,3:2:0:0:
329,184,202857,1,8,1:1:0:0:
388,264,203035,5,2,3:2:0:0:
304,314,203214,1,0,3:0:0:0:
303,324,203303,1,8,1:1:0:0:
301,334,203393,1,0,3:0:0:0:
238,240,203571,1,8,1:1:0:0:
235,229,203660,1,0,3:0:0:0:
231,219,203750,1,0,3:0:0:0:
388,264,203928,1,8,1:1:0:0:
127,300,204107,1,8,1:1:0:0:
20,323,204285,5,4,1:3:0:0:
22,333,204375,1,4,1:3:0:0:
25,343,204464,2,0,P|31:171|48:51,1,280,6|0,3:1|2:0,0:0:0:0:
