osu file format v14

[General]
AudioFilename: audio.ogg
AudioLeadIn: 0
PreviewTime: 46185
Countdown: 0
SampleSet: Soft
StackLeniency: 0.7
Mode: 3
LetterboxInBreaks: 0
SpecialStyle: 0
WidescreenStoryboard: 1

[Editor]
Bookmarks: 59914
DistanceSpacing: 1
BeatDivisor: 8
GridSize: 16
TimelineZoom: 1.8

[Metadata]
Title:Saikawa Speciality
TitleUnicode:サイカワスペシャリテ
Artist:Chata
ArtistUnicode:茶太
Creator:Nabi-
Version:Hard
Source:アイコトバ -Silver Snow Sister-
Tags:aikotoba あざらしそふと Azarashi Soft+1 Amekawa Shino 飴川 紫乃 Ozawa Minori 小澤 みのり 7GEAR Sound Team eroge visual novel vn jpop j-pop pop japanese video game galgame op opening
BeatmapID:4401831
BeatmapSetID:2065992

[Difficulty]
HPDrainRate:7
CircleSize:4
OverallDifficulty:7
ApproachRate:5
SliderMultiplier:1.4
SliderTickRate:1

[Events]
//Background and Video events
0,0,"zev_shi_c04_15.jpg",0,0
Video,0,"sister video.avi"
//Break Periods
//Storyboard Layer 0 (Background)
//Storyboard Layer 1 (Fail)
//Storyboard Layer 2 (Pass)
//Storyboard Layer 3 (Foreground)
//Storyboard Layer 4 (Overlay)
//Storyboard Sound Samples

[TimingPoints]
1680,329.67032967033,4,2,1,40,1,0
46350,-100,4,2,1,40,0,1
56570,-100,4,2,1,40,0,0
57064,-100,4,2,1,40,0,1
67614,-100,4,2,1,40,0,0

[HitObjects]
64,192,526,128,0,690:0:0:0:0:
192,192,690,128,0,855:0:0:0:0:
320,192,855,128,0,1020:0:0:0:0:
448,192,1020,128,0,1185:0:0:0:0:
192,192,1185,128,0,1350:0:0:0:0:
64,192,1515,1,0,0:0:0:0:
448,192,1515,128,0,1844:0:0:0:0:
192,192,1844,128,0,2009:0:0:0:0:
320,192,2009,128,0,2174:0:0:0:0:
448,192,2009,1,0,0:0:0:0:
64,192,2174,128,0,2339:0:0:0:0:
192,192,2339,128,0,2504:0:0:0:0:
448,192,2504,128,0,2669:0:0:0:0:
320,192,2669,128,0,2833:0:0:0:0:
64,192,2669,1,0,0:0:0:0:
192,192,2833,128,0,2998:0:0:0:0:
448,192,2998,1,0,0:0:0:0:
192,192,3163,128,0,3328:0:0:0:0:
320,192,3328,1,0,0:0:0:0:
64,192,3328,128,0,3493:0:0:0:0:
448,192,3493,128,0,3658:0:0:0:0:
192,192,3658,128,0,3822:0:0:0:0:
448,192,3822,128,0,3987:0:0:0:0:
64,192,3987,128,0,4152:0:0:0:0:
320,192,3987,1,0,0:0:0:0:
192,192,4152,128,0,4317:0:0:0:0:
448,192,4317,1,0,0:0:0:0:
320,192,4482,128,0,4647:0:0:0:0:
64,192,4647,1,0,0:0:0:0:
192,192,4647,128,0,4811:0:0:0:0:
448,192,4811,128,0,4976:0:0:0:0:
320,192,4976,128,0,5141:0:0:0:0:
64,192,5141,128,0,5306:0:0:0:0:
192,192,5306,128,0,5471:0:0:0:0:
448,192,5306,1,0,0:0:0:0:
320,192,5471,128,0,5636:0:0:0:0:
64,192,5636,1,0,0:0:0:0:
448,192,5800,1,0,0:0:0:0:
192,192,5965,1,0,0:0:0:0:
64,192,5965,1,0,0:0:0:0:
448,192,6130,1,0,0:0:0:0:
192,192,6295,1,0,0:0:0:0:
320,192,6295,1,0,0:0:0:0:
64,192,6460,1,0,0:0:0:0:
192,192,6460,1,0,0:0:0:0:
320,192,6625,1,0,0:0:0:0:
448,192,6625,1,0,0:0:0:0:
448,192,6789,1,0,0:0:0:0:
64,192,6789,128,0,7119:0:0:0:0:
320,192,7119,128,0,7284:0:0:0:0:
192,192,7284,128,0,7449:0:0:0:0:
64,192,7284,1,0,0:0:0:0:
448,192,7449,128,0,7614:0:0:0:0:
320,192,7614,128,0,7778:0:0:0:0:
64,192,7778,128,0,7943:0:0:0:0:
192,192,7943,128,0,8108:0:0:0:0:
448,192,7943,1,0,0:0:0:0:
320,192,8108,128,0,8273:0:0:0:0:
64,192,8273,1,0,0:0:0:0:
320,192,8438,128,0,8603:0:0:0:0:
192,192,8603,1,0,0:0:0:0:
448,192,8603,128,0,8767:0:0:0:0:
64,192,8767,128,0,8932:0:0:0:0:
320,192,8932,128,0,9097:0:0:0:0:
64,192,9097,128,0,9262:0:0:0:0:
448,192,9262,128,0,9427:0:0:0:0:
192,192,9262,1,0,0:0:0:0:
320,192,9427,128,0,9592:0:0:0:0:
64,192,9592,1,0,0:0:0:0:
192,192,9756,128,0,9921:0:0:0:0:
448,192,9921,1,0,0:0:0:0:
320,192,9921,128,0,10086:0:0:0:0:
64,192,10086,1,0,0:0:0:0:
192,192,10169,1,0,0:0:0:0:
320,192,10251,1,0,0:0:0:0:
64,192,10416,1,0,0:0:0:0:
320,192,10581,1,0,0:0:0:0:
448,192,10745,1,0,0:0:0:0:
192,192,10745,1,0,0:0:0:0:
192,192,11075,1,0,0:0:0:0:
448,192,11075,1,0,0:0:0:0:
64,192,11405,1,0,0:0:0:0:
320,192,11405,1,0,0:0:0:0:
64,192,11734,1,0,0:0:0:0:
320,192,11734,1,0,0:0:0:0:
192,192,11817,1,0,0:0:0:0:
448,192,11899,1,0,0:0:0:0:
320,192,11982,1,0,0:0:0:0:
64,192,12064,1,0,0:0:0:0:
192,192,12064,1,0,0:0:0:0:
192,192,12394,1,0,0:0:0:0:
448,192,12559,1,0,0:0:0:0:
320,192,12559,1,0,0:0:0:0:
320,192,12723,1,0,0:0:0:0:
64,192,12888,1,0,0:0:0:0:
192,192,12888,1,0,0:0:0:0:
192,192,13053,1,0,0:0:0:0:
64,192,13218,1,0,0:0:0:0:
448,192,13218,1,0,0:0:0:0:
448,192,13383,1,0,0:0:0:0:
192,192,13548,1,0,0:0:0:0:
320,192,13548,1,0,0:0:0:0:
192,192,13712,1,0,0:0:0:0:
448,192,13877,1,0,0:0:0:0:
320,192,13877,1,0,0:0:0:0:
320,192,14042,1,0,0:0:0:0:
64,192,14207,1,0,0:0:0:0:
448,192,14207,1,0,0:0:0:0:
64,192,14372,1,0,0:0:0:0:
320,192,14537,1,0,0:0:0:0:
448,192,14537,1,0,0:0:0:0:
320,192,14701,1,0,0:0:0:0:
192,192,14866,1,0,0:0:0:0:
64,192,14866,1,0,0:0:0:0:
192,192,15031,1,0,0:0:0:0:
448,192,15196,1,0,0:0:0:0:
64,192,15196,1,0,0:0:0:0:
448,192,15361,1,0,0:0:0:0:
192,192,15526,1,0,0:0:0:0:
320,192,15526,1,0,0:0:0:0:
192,192,15690,1,0,0:0:0:0:
64,192,15855,1,0,0:0:0:0:
320,192,15855,1,0,0:0:0:0:
320,192,16020,1,0,0:0:0:0:
64,192,16185,1,0,0:0:0:0:
192,192,16185,1,0,0:0:0:0:
64,192,16350,1,0,0:0:0:0:
448,192,16515,1,0,0:0:0:0:
320,192,16515,1,0,0:0:0:0:
448,192,16680,1,0,0:0:0:0:
192,192,16844,1,0,0:0:0:0:
320,192,16844,1,0,0:0:0:0:
320,192,17009,1,0,0:0:0:0:
64,192,17174,1,0,0:0:0:0:
192,192,17174,1,0,0:0:0:0:
192,192,17339,1,0,0:0:0:0:
320,192,17504,1,0,0:0:0:0:
448,192,17504,1,0,0:0:0:0:
448,192,17669,1,0,0:0:0:0:
64,192,17833,1,0,0:0:0:0:
192,192,17833,1,0,0:0:0:0:
64,192,17998,1,0,0:0:0:0:
192,192,18163,1,0,0:0:0:0:
320,192,18163,1,0,0:0:0:0:
192,192,18328,1,0,0:0:0:0:
448,192,18493,1,0,0:0:0:0:
320,192,18493,1,0,0:0:0:0:
320,192,18658,1,0,0:0:0:0:
64,192,18822,1,0,0:0:0:0:
192,192,18822,1,0,0:0:0:0:
64,192,18987,1,0,0:0:0:0:
320,192,19152,1,0,0:0:0:0:
448,192,19152,1,0,0:0:0:0:
448,192,19317,1,0,0:0:0:0:
192,192,19482,1,0,0:0:0:0:
320,192,19482,1,0,0:0:0:0:
320,192,19647,1,0,0:0:0:0:
192,192,19811,1,0,0:0:0:0:
64,192,19811,1,0,0:0:0:0:
192,192,19976,1,0,0:0:0:0:
320,192,20059,1,0,0:0:0:0:
448,192,20141,1,0,0:0:0:0:
64,192,20141,1,0,0:0:0:0:
64,192,20306,128,0,20471:0:0:0:0:
320,192,20471,128,0,20636:0:0:0:0:
448,192,20471,1,0,0:0:0:0:
64,192,20636,128,0,20800:0:0:0:0:
448,192,20800,128,0,20965:0:0:0:0:
192,192,20800,1,0,0:0:0:0:
320,192,20965,128,0,21130:0:0:0:0:
64,192,21130,1,0,0:0:0:0:
192,192,21130,1,0,0:0:0:0:
320,192,21295,128,0,21460:0:0:0:0:
192,192,21295,128,0,21460:0:0:0:0:
448,192,21625,1,0,0:0:0:0:
320,192,21625,1,0,0:0:0:0:
320,192,21789,1,0,0:0:0:0:
192,192,21789,1,0,0:0:0:0:
64,192,21954,1,0,0:0:0:0:
192,192,21954,1,0,0:0:0:0:
320,192,22284,128,0,22449:0:0:0:0:
192,192,22449,128,0,22614:0:0:0:0:
320,192,22614,128,0,22778:0:0:0:0:
64,192,22778,1,0,0:0:0:0:
192,192,22778,1,0,0:0:0:0:
448,192,22778,1,0,0:0:0:0:
64,192,22943,1,0,0:0:0:0:
320,192,23108,1,0,0:0:0:0:
192,192,23108,1,0,0:0:0:0:
448,192,23273,1,0,0:0:0:0:
64,192,23438,1,0,0:0:0:0:
192,192,23438,1,0,0:0:0:0:
192,192,23603,1,0,0:0:0:0:
320,192,23603,1,0,0:0:0:0:
320,192,23767,1,0,0:0:0:0:
448,192,23767,1,0,0:0:0:0:
64,192,23932,1,0,0:0:0:0:
192,192,23932,1,0,0:0:0:0:
448,192,24097,1,0,0:0:0:0:
192,192,24262,1,0,0:0:0:0:
320,192,24262,1,0,0:0:0:0:
64,192,24427,1,0,0:0:0:0:
448,192,24427,1,0,0:0:0:0:
192,192,24592,1,0,0:0:0:0:
320,192,24756,1,0,0:0:0:0:
448,192,24756,1,0,0:0:0:0:
64,192,24921,1,0,0:0:0:0:
192,192,25086,1,0,0:0:0:0:
320,192,25086,1,0,0:0:0:0:
448,192,25251,1,0,0:0:0:0:
64,192,25251,1,0,0:0:0:0:
448,192,25416,1,0,0:0:0:0:
320,192,25416,1,0,0:0:0:0:
192,192,25581,1,0,0:0:0:0:
448,192,25745,1,0,0:0:0:0:
64,192,25745,1,0,0:0:0:0:
320,192,25910,1,0,0:0:0:0:
192,192,26075,1,0,0:0:0:0:
64,192,26075,1,0,0:0:0:0:
192,192,26240,1,0,0:0:0:0:
320,192,26240,1,0,0:0:0:0:
448,192,26405,1,0,0:0:0:0:
64,192,26405,1,0,0:0:0:0:
320,192,26570,1,0,0:0:0:0:
448,192,26570,1,0,0:0:0:0:
192,192,26734,1,0,0:0:0:0:
448,192,26899,1,0,0:0:0:0:
64,192,26899,1,0,0:0:0:0:
320,192,27064,1,0,0:0:0:0:
192,192,27064,1,0,0:0:0:0:
448,192,27229,1,0,0:0:0:0:
64,192,27394,1,0,0:0:0:0:
192,192,27394,1,0,0:0:0:0:
448,192,27559,1,0,0:0:0:0:
320,192,27559,1,0,0:0:0:0:
64,192,27723,1,0,0:0:0:0:
448,192,27723,1,0,0:0:0:0:
192,192,27888,1,0,0:0:0:0:
448,192,28053,1,0,0:0:0:0:
320,192,28053,1,0,0:0:0:0:
64,192,28053,1,0,0:0:0:0:
64,192,28383,1,0,0:0:0:0:
192,192,28383,1,0,0:0:0:0:
320,192,28548,1,0,0:0:0:0:
448,192,28712,1,0,0:0:0:0:
64,192,28712,1,0,0:0:0:0:
320,192,28877,1,0,0:0:0:0:
448,192,28877,1,0,0:0:0:0:
192,192,29042,1,0,0:0:0:0:
64,192,29042,1,0,0:0:0:0:
192,192,29207,128,0,29372:0:0:0:0:
320,192,29372,1,0,0:0:0:0:
448,192,29372,1,0,0:0:0:0:
320,192,29537,1,0,0:0:0:0:
192,192,29537,1,0,0:0:0:0:
64,192,29701,1,0,0:0:0:0:
448,192,29701,1,0,0:0:0:0:
64,192,29866,1,0,0:0:0:0:
320,192,30031,1,0,0:0:0:0:
192,192,30031,1,0,0:0:0:0:
320,192,30196,1,0,0:0:0:0:
448,192,30196,1,0,0:0:0:0:
64,192,30361,1,0,0:0:0:0:
192,192,30361,1,0,0:0:0:0:
192,192,30526,1,0,0:0:0:0:
64,192,30690,1,0,0:0:0:0:
320,192,30690,1,0,0:0:0:0:
448,192,30690,1,0,0:0:0:0:
320,192,30855,1,0,0:0:0:0:
448,192,31020,1,0,0:0:0:0:
192,192,31020,1,0,0:0:0:0:
64,192,31185,1,0,0:0:0:0:
64,192,31350,1,0,0:0:0:0:
320,192,31350,1,0,0:0:0:0:
320,192,31515,1,0,0:0:0:0:
192,192,31680,1,0,0:0:0:0:
64,192,31680,1,0,0:0:0:0:
320,192,31844,1,0,0:0:0:0:
448,192,31844,1,0,0:0:0:0:
192,192,32009,1,0,0:0:0:0:
448,192,32009,1,0,0:0:0:0:
192,192,32174,1,0,0:0:0:0:
64,192,32339,1,0,0:0:0:0:
320,192,32339,1,0,0:0:0:0:
448,192,32339,1,0,0:0:0:0:
320,192,32504,1,0,0:0:0:0:
448,192,32669,1,0,0:0:0:0:
64,192,32669,1,0,0:0:0:0:
192,192,32833,1,0,0:0:0:0:
320,192,32833,1,0,0:0:0:0:
64,192,32998,1,0,0:0:0:0:
192,192,32998,1,0,0:0:0:0:
448,192,33163,1,0,0:0:0:0:
320,192,33328,1,0,0:0:0:0:
64,192,33328,1,0,0:0:0:0:
448,192,33328,1,0,0:0:0:0:
192,192,33658,1,0,0:0:0:0:
192,192,33822,1,0,0:0:0:0:
320,192,33987,1,0,0:0:0:0:
448,192,33987,1,0,0:0:0:0:
64,192,34152,1,0,0:0:0:0:
64,192,34482,1,0,0:0:0:0:
192,192,34482,1,0,0:0:0:0:
320,192,34811,1,0,0:0:0:0:
192,192,34976,1,0,0:0:0:0:
64,192,34976,1,0,0:0:0:0:
448,192,35141,1,0,0:0:0:0:
192,192,35306,128,0,35471:0:0:0:0:
320,192,35471,128,0,35636:0:0:0:0:
64,192,35636,128,0,35965:0:0:0:0:
192,192,35636,1,0,0:0:0:0:
448,192,35965,128,0,36130:0:0:0:0:
192,192,36130,1,0,0:0:0:0:
320,192,36130,1,0,0:0:0:0:
64,192,36130,1,0,0:0:0:0:
448,192,36295,1,0,0:0:0:0:
448,192,36460,1,0,0:0:0:0:
64,192,36460,1,0,0:0:0:0:
64,192,36625,1,0,0:0:0:0:
192,192,36625,1,0,0:0:0:0:
320,192,36789,1,0,0:0:0:0:
448,192,36789,1,0,0:0:0:0:
320,192,37119,1,0,0:0:0:0:
192,192,37119,1,0,0:0:0:0:
192,192,37449,1,0,0:0:0:0:
64,192,37449,1,0,0:0:0:0:
448,192,37449,1,0,0:0:0:0:
320,192,37614,1,0,0:0:0:0:
64,192,37778,1,0,0:0:0:0:
192,192,37778,1,0,0:0:0:0:
64,192,37943,1,0,0:0:0:0:
448,192,37943,1,0,0:0:0:0:
320,192,38108,1,0,0:0:0:0:
192,192,38273,1,0,0:0:0:0:
64,192,38273,1,0,0:0:0:0:
320,192,38438,1,0,0:0:0:0:
448,192,38438,1,0,0:0:0:0:
192,192,38603,1,0,0:0:0:0:
448,192,38603,1,0,0:0:0:0:
64,192,38603,1,0,0:0:0:0:
192,192,38767,1,0,0:0:0:0:
320,192,38932,1,0,0:0:0:0:
448,192,38932,1,0,0:0:0:0:
192,192,39097,1,0,0:0:0:0:
64,192,39097,1,0,0:0:0:0:
448,192,39427,1,0,0:0:0:0:
320,192,39427,1,0,0:0:0:0:
192,192,39592,1,0,0:0:0:0:
64,192,39592,1,0,0:0:0:0:
320,192,39756,1,0,0:0:0:0:
448,192,39756,1,0,0:0:0:0:
64,192,39756,1,0,0:0:0:0:
448,192,40086,1,0,0:0:0:0:
320,192,40086,1,0,0:0:0:0:
64,192,40251,1,0,0:0:0:0:
192,192,40251,1,0,0:0:0:0:
320,192,40416,1,0,0:0:0:0:
448,192,40416,1,0,0:0:0:0:
192,192,40581,1,0,0:0:0:0:
64,192,40581,1,0,0:0:0:0:
448,192,40745,1,0,0:0:0:0:
64,192,40745,128,0,41075:0:0:0:0:
320,192,40745,1,0,0:0:0:0:
192,192,41075,1,0,0:0:0:0:
320,192,41075,1,0,0:0:0:0:
448,192,41075,128,0,41405:0:0:0:0:
192,192,41405,1,0,0:0:0:0:
64,192,41405,1,0,0:0:0:0:
320,192,41570,1,0,0:0:0:0:
448,192,41570,1,0,0:0:0:0:
192,192,41734,1,0,0:0:0:0:
64,192,41899,1,0,0:0:0:0:
448,192,41899,1,0,0:0:0:0:
320,192,42064,1,0,0:0:0:0:
192,192,42229,1,0,0:0:0:0:
64,192,42229,1,0,0:0:0:0:
448,192,42394,128,0,42723:0:0:0:0:
64,192,42394,1,0,0:0:0:0:
320,192,42559,1,0,0:0:0:0:
64,192,42723,1,0,0:0:0:0:
192,192,42723,1,0,0:0:0:0:
448,192,42888,1,0,0:0:0:0:
320,192,42888,1,0,0:0:0:0:
192,192,43053,1,0,0:0:0:0:
64,192,43218,1,0,0:0:0:0:
448,192,43218,1,0,0:0:0:0:
320,192,43383,1,0,0:0:0:0:
448,192,43383,1,0,0:0:0:0:
64,192,43548,1,0,0:0:0:0:
192,192,43548,1,0,0:0:0:0:
448,192,43712,1,0,0:0:0:0:
64,192,43712,128,0,44042:0:0:0:0:
320,192,43712,1,0,0:0:0:0:
192,192,44042,1,0,0:0:0:0:
448,192,44042,1,0,0:0:0:0:
192,192,44207,1,0,0:0:0:0:
320,192,44207,1,0,0:0:0:0:
320,192,44372,1,0,0:0:0:0:
192,192,44537,1,0,0:0:0:0:
64,192,44537,1,0,0:0:0:0:
64,192,44701,1,0,0:0:0:0:
448,192,44701,1,0,0:0:0:0:
320,192,44866,1,0,0:0:0:0:
448,192,44866,1,0,0:0:0:0:
192,192,45031,1,0,0:0:0:0:
320,192,45031,128,0,45361:0:0:0:0:
64,192,45361,1,0,0:0:0:0:
192,192,45526,1,0,0:0:0:0:
448,192,45690,1,0,0:0:0:0:
192,192,45855,1,0,0:0:0:0:
320,192,45938,1,0,0:0:0:0:
64,192,46020,1,0,0:0:0:0:
192,192,46103,1,0,0:0:0:0:
448,192,46185,1,0,0:0:0:0:
320,192,46267,1,0,0:0:0:0:
64,192,46350,128,0,46515:0:0:0:0:
192,192,46350,1,0,0:0:0:0:
448,192,46680,1,0,0:0:0:0:
64,192,46680,128,0,46844:0:0:0:0:
320,192,46844,1,0,0:0:0:0:
448,192,46844,128,0,47009:0:0:0:0:
192,192,47009,128,0,47174:0:0:0:0:
64,192,47174,1,0,0:0:0:0:
320,192,47174,128,0,47339:0:0:0:0:
192,192,47339,128,0,47504:0:0:0:0:
448,192,47339,1,0,0:0:0:0:
320,192,47504,128,0,47669:0:0:0:0:
64,192,47504,1,0,0:0:0:0:
448,192,47669,128,0,47833:0:0:0:0:
64,192,47669,1,0,0:0:0:0:
192,192,47833,1,0,0:0:0:0:
448,192,47998,128,0,48163:0:0:0:0:
192,192,48163,1,0,0:0:0:0:
64,192,48163,128,0,48328:0:0:0:0:
448,192,48328,1,0,0:0:0:0:
320,192,48328,128,0,48493:0:0:0:0:
64,192,48493,128,0,48658:0:0:0:0:
192,192,48493,1,0,0:0:0:0:
320,192,48658,128,0,48822:0:0:0:0:
448,192,48658,1,0,0:0:0:0:
64,192,48822,1,0,0:0:0:0:
192,192,48822,1,0,0:0:0:0:
192,192,48987,128,0,49152:0:0:0:0:
320,192,48987,1,0,0:0:0:0:
448,192,49152,1,0,0:0:0:0:
192,192,49317,128,0,49482:0:0:0:0:
320,192,49317,1,0,0:0:0:0:
64,192,49482,1,0,0:0:0:0:
448,192,49482,128,0,49647:0:0:0:0:
320,192,49647,128,0,49811:0:0:0:0:
192,192,49811,1,0,0:0:0:0:
64,192,49811,128,0,49976:0:0:0:0:
448,192,49976,128,0,50141:0:0:0:0:
320,192,50141,1,0,0:0:0:0:
192,192,50141,1,0,0:0:0:0:
448,192,50306,1,0,0:0:0:0:
64,192,50306,128,0,50636:0:0:0:0:
192,192,50306,1,0,0:0:0:0:
448,192,50636,1,0,0:0:0:0:
320,192,50636,128,0,50800:0:0:0:0:
64,192,50800,128,0,50965:0:0:0:0:
192,192,50800,1,0,0:0:0:0:
320,192,50965,1,0,0:0:0:0:
448,192,50965,128,0,51212:0:0:0:0:
192,192,51212,1,0,0:0:0:0:
320,192,51295,1,0,0:0:0:0:
64,192,51460,1,0,0:0:0:0:
448,192,51460,1,0,0:0:0:0:
192,192,51625,1,0,0:0:0:0:
448,192,51707,1,0,0:0:0:0:
192,192,51789,1,0,0:0:0:0:
64,192,51789,1,0,0:0:0:0:
320,192,51954,1,0,0:0:0:0:
448,192,52119,1,0,0:0:0:0:
64,192,52119,128,0,52366:0:0:0:0:
448,192,52366,1,0,0:0:0:0:
192,192,52449,1,0,0:0:0:0:
320,192,52449,1,0,0:0:0:0:
320,192,52614,1,0,0:0:0:0:
64,192,52778,1,0,0:0:0:0:
448,192,52778,1,0,0:0:0:0:
192,192,52943,1,0,0:0:0:0:
320,192,53108,1,0,0:0:0:0:
448,192,53108,1,0,0:0:0:0:
64,192,53273,1,0,0:0:0:0:
320,192,53355,1,0,0:0:0:0:
64,192,53438,1,0,0:0:0:0:
192,192,53438,1,0,0:0:0:0:
448,192,53603,1,0,0:0:0:0:
192,192,53685,1,0,0:0:0:0:
320,192,53767,1,0,0:0:0:0:
448,192,53767,1,0,0:0:0:0:
320,192,53932,1,0,0:0:0:0:
64,192,54097,1,0,0:0:0:0:
192,192,54097,1,0,0:0:0:0:
448,192,54262,1,0,0:0:0:0:
192,192,54427,1,0,0:0:0:0:
320,192,54427,1,0,0:0:0:0:
64,192,54592,128,0,54756:0:0:0:0:
448,192,54756,128,0,54921:0:0:0:0:
320,192,54756,1,0,0:0:0:0:
192,192,54921,128,0,55086:0:0:0:0:
320,192,55086,128,0,55251:0:0:0:0:
64,192,55086,1,0,0:0:0:0:
192,192,55251,1,0,0:0:0:0:
448,192,55251,128,0,55416:0:0:0:0:
320,192,55416,1,0,0:0:0:0:
64,192,55416,128,0,55581:0:0:0:0:
192,192,55581,1,0,0:0:0:0:
320,192,55581,128,0,55910:0:0:0:0:
64,192,55910,1,0,0:0:0:0:
448,192,55910,1,0,0:0:0:0:
192,192,56075,1,0,0:0:0:0:
64,192,56075,1,0,0:0:0:0:
320,192,56240,128,0,56405:0:0:0:0:
448,192,56240,128,0,56405:0:0:0:0:
192,192,56570,128,0,56899:0:0:0:0:
320,192,56570,128,0,56899:0:0:0:0:
64,192,56899,1,0,0:0:0:0:
448,192,56982,1,0,0:0:0:0:
192,192,57064,1,0,0:0:0:0:
64,192,57064,128,0,57229:0:0:0:0:
320,192,57229,128,0,57394:0:0:0:0:
448,192,57394,1,0,0:0:0:0:
192,192,57394,128,0,57559:0:0:0:0:
320,192,57559,128,0,57723:0:0:0:0:
64,192,57723,1,0,0:0:0:0:
192,192,57723,128,0,57888:0:0:0:0:
448,192,57888,1,0,0:0:0:0:
320,192,57888,1,0,0:0:0:0:
64,192,58053,1,0,0:0:0:0:
192,192,58053,1,0,0:0:0:0:
64,192,58218,1,0,0:0:0:0:
448,192,58218,128,0,58548:0:0:0:0:
320,192,58383,1,0,0:0:0:0:
192,192,58548,128,0,58712:0:0:0:0:
320,192,58712,128,0,58877:0:0:0:0:
448,192,58712,1,0,0:0:0:0:
64,192,58877,128,0,59042:0:0:0:0:
192,192,58877,1,0,0:0:0:0:
320,192,59042,128,0,59207:0:0:0:0:
448,192,59042,1,0,0:0:0:0:
64,192,59207,128,0,59372:0:0:0:0:
192,192,59207,1,0,0:0:0:0:
320,192,59372,1,0,0:0:0:0:
448,192,59372,1,0,0:0:0:0:
64,192,59537,1,0,0:0:0:0:
448,192,59537,128,0,59701:0:0:0:0:
192,192,59701,1,0,0:0:0:0:
320,192,59701,1,0,0:0:0:0:
448,192,59866,1,0,0:0:0:0:
64,192,59866,128,0,60031:0:0:0:0:
320,192,60031,128,0,60196:0:0:0:0:
192,192,60031,1,0,0:0:0:0:
448,192,60196,128,0,60361:0:0:0:0:
192,192,60361,128,0,60526:0:0:0:0:
64,192,60361,1,0,0:0:0:0:
448,192,60526,1,0,0:0:0:0:
320,192,60526,128,0,60690:0:0:0:0:
64,192,60690,1,0,0:0:0:0:
192,192,60690,1,0,0:0:0:0:
64,192,60855,128,0,61185:0:0:0:0:
448,192,60855,1,0,0:0:0:0:
320,192,61185,128,0,61350:0:0:0:0:
192,192,61185,1,0,0:0:0:0:
448,192,61350,1,0,0:0:0:0:
64,192,61350,1,0,0:0:0:0:
448,192,61515,128,0,61762:0:0:0:0:
320,192,61515,1,0,0:0:0:0:
192,192,61762,1,0,0:0:0:0:
64,192,61762,1,0,0:0:0:0:
320,192,61844,1,0,0:0:0:0:
64,192,62009,1,0,0:0:0:0:
448,192,62009,1,0,0:0:0:0:
192,192,62174,1,0,0:0:0:0:
448,192,62256,1,0,0:0:0:0:
64,192,62339,1,0,0:0:0:0:
192,192,62339,1,0,0:0:0:0:
320,192,62504,1,0,0:0:0:0:
64,192,62669,1,0,0:0:0:0:
448,192,62669,128,0,62833:0:0:0:0:
192,192,62833,1,0,0:0:0:0:
320,192,62916,1,0,0:0:0:0:
64,192,62998,1,0,0:0:0:0:
192,192,62998,1,0,0:0:0:0:
64,192,63163,1,0,0:0:0:0:
320,192,63328,1,0,0:0:0:0:
448,192,63328,128,0,63493:0:0:0:0:
192,192,63493,1,0,0:0:0:0:
64,192,63658,1,0,0:0:0:0:
320,192,63658,128,0,63822:0:0:0:0:
192,192,63822,1,0,0:0:0:0:
448,192,63905,1,0,0:0:0:0:
64,192,63987,1,0,0:0:0:0:
192,192,63987,128,0,64152:0:0:0:0:
320,192,64152,1,0,0:0:0:0:
64,192,64234,1,0,0:0:0:0:
320,192,64317,1,0,0:0:0:0:
448,192,64317,1,0,0:0:0:0:
448,192,64482,1,0,0:0:0:0:
448,192,64647,128,0,64811:0:0:0:0:
64,192,64647,1,0,0:0:0:0:
320,192,64811,1,0,0:0:0:0:
192,192,64976,128,0,65141:0:0:0:0:
64,192,64976,128,0,65141:0:0:0:0:
448,192,65141,1,0,0:0:0:0:
192,192,65306,128,0,65471:0:0:0:0:
64,192,65306,128,0,65471:0:0:0:0:
320,192,65471,1,0,0:0:0:0:
448,192,65636,128,0,65800:0:0:0:0:
64,192,65636,1,0,0:0:0:0:
192,192,65800,1,0,0:0:0:0:
320,192,65883,1,0,0:0:0:0:
64,192,65965,1,0,0:0:0:0:
192,192,66048,1,0,0:0:0:0:
448,192,66130,128,0,66295:0:0:0:0:
320,192,66130,128,0,66295:0:0:0:0:
192,192,66460,1,0,0:0:0:0:
448,192,66542,1,0,0:0:0:0:
192,192,66625,1,0,0:0:0:0:
320,192,66707,1,0,0:0:0:0:
64,192,66789,128,0,66954:0:0:0:0:
448,192,66789,128,0,66954:0:0:0:0:
448,192,67119,128,0,67284:0:0:0:0:
64,192,67119,1,0,0:0:0:0:
192,192,67284,128,0,67449:0:0:0:0:
64,192,67284,1,0,0:0:0:0:
320,192,67449,128,0,67614:0:0:0:0:
64,192,67614,1,0,0:0:0:0:
448,192,67614,1,0,0:0:0:0:
192,192,67778,1,0,0:0:0:0:
320,192,67943,1,0,0:0:0:0:
448,192,67943,1,0,0:0:0:0:
64,192,68108,1,0,0:0:0:0:
448,192,68108,128,0,68273:0:0:0:0:
320,192,68273,1,0,0:0:0:0:
64,192,68438,1,0,0:0:0:0:
448,192,68438,1,0,0:0:0:0:
192,192,68603,1,0,0:0:0:0:
320,192,68603,1,0,0:0:0:0:
192,192,68767,1,0,0:0:0:0:
64,192,68767,128,0,68932:0:0:0:0:
448,192,68932,1,0,0:0:0:0:
320,192,69097,1,0,0:0:0:0:
64,192,69097,1,0,0:0:0:0:
192,192,69262,1,0,0:0:0:0:
448,192,69262,1,0,0:0:0:0:
320,192,69427,1,0,0:0:0:0:
448,192,69427,128,0,69592:0:0:0:0:
64,192,69592,1,0,0:0:0:0:
448,192,69756,1,0,0:0:0:0:
192,192,69839,1,0,0:0:0:0:
320,192,69921,1,0,0:0:0:0:
64,192,70086,1,0,0:0:0:0:
192,192,70086,128,0,70251:0:0:0:0:
64,192,70416,1,0,0:0:0:0:
448,192,70416,128,0,70581:0:0:0:0:
64,192,70581,1,0,0:0:0:0:
192,192,70581,128,0,70745:0:0:0:0:
320,192,70745,128,0,70910:0:0:0:0:
448,192,70910,1,0,0:0:0:0:
192,192,70910,128,0,71075:0:0:0:0:
64,192,71075,128,0,71240:0:0:0:0:
448,192,71075,1,0,0:0:0:0:
448,192,71405,128,0,71734:0:0:0:0:
192,192,71405,1,0,0:0:0:0:
192,192,71734,128,0,71899:0:0:0:0:
64,192,71734,1,0,0:0:0:0:
448,192,71899,1,0,0:0:0:0:
320,192,71899,128,0,72229:0:0:0:0:
64,192,72064,128,0,72229:0:0:0:0:
192,192,72064,1,0,0:0:0:0:
64,192,72559,128,0,73383:0:0:0:0:
448,192,72559,128,0,73053:0:0:0:0:
192,192,72559,128,0,73218:0:0:0:0:
