osu file format v14

[General]
AudioFilename: audio.mp3
AudioLeadIn: 0
PreviewTime: -1
Countdown: 1
SampleSet: Normal
StackLeniency: 0.7
Mode: 0
LetterboxInBreaks: 0
WidescreenStoryboard: 1

[Editor]
Bookmarks: 16538,44983,59205,73427,80538,87650,101872,130316,158761,172983,187205,215650,286761,290761,304983
DistanceSpacing: 1
BeatDivisor: 4
GridSize: 4
TimelineZoom: 1.7

[Metadata]
Title:Remind
TitleUnicode:Remind
Artist:Chata
ArtistUnicode:Chata
Creator:Epikem
Version:epifull
Source:
Tags:touhou
BeatmapID:1439751
BeatmapSetID:679528

[Difficulty]
HPDrainRate:4
CircleSize:3
OverallDifficulty:8
ApproachRate:9.7
SliderMultiplier:3.39999990463257
SliderTickRate:2

[Events]
//Background and Video events
//Break Periods
//Storyboard Layer 0 (Background)
//Storyboard Layer 1 (Fail)
//Storyboard Layer 2 (Pass)
//Storyboard Layer 3 (Foreground)
//Storyboard Sound Samples

[TimingPoints]
539,444.444444444444,4,1,0,50,1,0
2316,-66.6666666666667,4,1,0,50,0,0
44983,-100,4,1,0,50,0,0
73427,-200,4,1,0,50,0,0
80538,-133.333333333333,4,1,0,50,0,0
84094,-50,4,1,0,51,0,0
84761,-100,4,1,0,51,0,0
87650,-66.6666666666667,4,1,0,51,0,0
101872,-200,4,1,0,33,0,0
126761,-200,4,1,0,7,0,0
126983,-200,4,1,0,32,0,0
129650,-133.333333333333,4,1,0,32,0,0
130094,-100,4,1,0,32,0,0
158761,-200,4,1,0,32,0,0
169427,-133.333333333333,4,1,0,32,0,0
172982,-66.6666666666667,4,1,0,32,0,0
187205,-100,4,1,0,32,0,0
215650,-200,4,1,0,32,0,0
222761,-133.333333333333,4,1,0,32,0,0
226316,-66.6666666666667,4,1,0,32,0,0
226761,-100,4,1,0,32,0,0
229872,-66.6666666666667,4,1,0,32,0,0
258316,-200,4,1,0,32,0,0
290761,444.444444444444,4,1,0,32,1,0
290761,-66.6666666666667,4,1,0,32,0,0

[HitObjects]
60,143,539,5,0,0:0:0:0:
370,266,761,1,0,0:0:0:0:
441,192,872,1,0,0:0:0:0:
270,250,983,6,0,P|199:295|93:314,1,169.999995231628
145,75,1427,5,0,0:0:0:0:
103,181,1538,1,0,0:0:0:0:
210,162,1650,1,0,0:0:0:0:
322,140,1761,1,0,0:0:0:0:
363,249,1872,2,0,P|437:287|506:370,1,169.999995231628
134,124,2316,5,0,0:0:0:0:
35,89,2427,1,0,0:0:0:0:
205,54,2538,2,0,P|274:48|333:66,1,127.50000128746
137,147,2761,6,0,P|99:150|0:121,1,127.50000128746
206,223,2983,5,0,0:0:0:0:
49,272,3094,2,0,P|87:318|160:339,1,127.50000128746
226,289,3316,5,0,0:0:0:0:
130,112,3427,2,0,P|127:161|150:261,1,127.50000128746
302,378,3650,2,0,P|317:320|312:236,1,127.50000128746
274,84,3872,5,0,0:0:0:0:
210,261,3983,1,0,0:0:0:0:
338,164,4094,5,0,0:0:0:0:
386,317,4205,1,0,0:0:0:0:
449,243,4316,2,0,P|483:280|501:381,1,127.50000128746
217,192,4539,5,0,0:0:0:0:
140,236,4650,1,0,0:0:0:0:
307,198,4761,1,0,0:0:0:0:
124,271,4872,2,0,P|75:287|-12:270,1,127.50000128746
307,98,5205,5,0,0:0:0:0:
224,334,5316,1,0,0:0:0:0:
259,304,5539,5,0,0:0:0:0:
204,38,5650,1,0,0:0:0:0:
354,279,5872,6,0,P|409:296|493:282,1,127.50000128746
108,120,6094,2,0,P|62:107|-24:116,1,127.50000128746
431,182,6316,2,0,P|488:168|536:118,1,127.50000128746
287,159,6539,5,0,0:0:0:0:
458,45,6650,2,0,P|418:42|325:72,1,127.50000128746
249,28,6872,5,0,0:0:0:0:
194,199,6983,1,0,0:0:0:0:
0,0,7205,5,0,0:0:0:0:
236,42,7427,5,0,0:0:0:0:
364,95,7539,1,0,0:0:0:0:
185,116,7650,5,0,0:0:0:0:
275,129,7761,1,0,0:0:0:0:
112,161,7872,1,0,0:0:0:0:
287,204,7983,5,0,0:0:0:0:
202,227,8094,1,0,0:0:0:0:
356,260,8205,1,0,0:0:0:0:
172,321,8316,5,0,0:0:0:0:
256,295,8427,1,0,0:0:0:0:
330,354,8539,5,0,0:0:0:0:
419,384,8650,1,0,0:0:0:0:
491,334,8761,1,0,0:0:0:0:
138,70,8983,1,0,0:0:0:0:
303,52,9094,1,0,0:0:0:0:
216,28,9205,1,0,0:0:0:0:
16,240,9427,6,0,P|74:258|153:252,1,127.50000128746
422,115,9650,2,0,P|360:89|275:91,1,127.50000128746
176,360,9872,2,0,P|218:323|239:212,1,127.50000128746
254,26,10094,5,0,0:0:0:0:
350,221,10205,2,0,P|349:163|314:91,1,127.50000128746
40,212,10427,5,0,0:0:0:0:
258,236,10538,2,0,P|216:210|136:194,1,127.50000128746
97,382,10761,6,0,P|156:359|203:306,1,127.50000128746
110,0,10983,2,0,P|82:51|67:136,1,127.50000128746
169,240,11205,1,0,0:0:0:0:
270,199,11316,1,0,0:0:0:0:
126,145,11427,2,0,P|73:137|-5:148,1,127.50000128746
338,133,11650,5,0,0:0:0:0:
246,80,11761,1,0,0:0:0:0:
408,65,11872,2,0,P|453:40|529:19,1,127.50000128746
381,232,12094,5,0,0:0:0:0:
294,289,12205,1,0,0:0:0:0:
194,275,12316,1,0,0:0:0:0:
373,210,12427,2,0,P|422:211|509:243,1,127.50000128746
287,166,12650,1,0,0:0:0:0:
396,335,12761,1,0,0:0:0:0:
264,46,12983,6,0,P|328:40|398:55,1,127.50000128746
123,219,13205,2,0,P|74:219|-15:169,1,127.50000128746
411,146,13427,2,0,P|469:152|529:203,1,127.50000128746
302,296,13650,1,0,0:0:0:0:
435,244,13761,1,0,0:0:0:0:
244,187,13872,5,0,0:0:0:0:
271,198,13983,1,0,0:0:0:0:
297,195,14094,1,0,0:0:0:0:
435,103,14316,5,0,0:0:0:0:
230,52,14539,5,0,0:0:0:0:
435,103,14650,1,0,0:0:0:0:
161,180,14761,2,0,L|4:179,1,127.50000128746
422,271,14983,6,0,L|578:269,1,127.50000128746
335,207,15205,1,0,0:0:0:0:
364,366,15316,1,0,0:0:0:0:
451,111,15427,1,0,0:0:0:0:
208,160,15539,1,0,0:0:0:0:
208,160,15761,5,0,0:0:0:0:
334,122,15872,1,0,0:0:0:0:
447,197,15983,1,0,0:0:0:0:
373,301,16094,5,0,0:0:0:0:
281,337,16205,1,0,0:0:0:0:
184,311,16316,1,0,0:0:0:0:
87,340,16427,1,0,0:0:0:0:
15,121,16538,6,0,P|131:85|295:146,1,255.000002574921
301,221,16872,1,0,0:0:0:0:
419,52,16983,2,0,P|432:103|411:210,1,127.50000128746
479,350,17205,2,0,P|388:356|280:228,1,255.000002574921
178,300,17539,1,0,0:0:0:0:
129,181,17650,2,0,P|65:187|5:209,1,127.50000128746
244,127,17873,1,0,0:0:0:0:
244,127,18095,5,0,0:0:0:0:
200,2,18205,1,0,0:0:0:0:
316,240,18317,5,0,0:0:0:0:
357,64,18428,1,0,0:0:0:0:
467,268,18538,2,0,P|425:235|289:207,1,127.50000128746
199,289,18762,5,0,0:0:0:0:
323,370,18873,1,0,0:0:0:0:
240,183,18983,2,0,P|245:239|229:333,1,127.50000128746
232,77,19206,5,0,0:0:0:0:
130,249,19317,1,0,0:0:0:0:
323,150,19428,1,0,0:0:0:0:
88,156,19539,1,0,0:0:0:0:
88,156,19762,5,0,0:0:0:0:
266,112,19872,1,0,0:0:0:0:
30,50,19983,1,0,0:0:0:0:
343,158,20094,6,0,P|353:92|410:9,1,127.50000128746
428,187,20316,1,0,0:0:0:0:
268,84,20427,1,0,0:0:0:0:
241,351,20538,6,0,P|199:309|156:243,1,127.50000128746
235,199,20761,1,0,0:0:0:0:
132,362,20872,1,0,0:0:0:0:
143,368,21094,5,0,0:0:0:0:
74,99,21205,1,0,0:0:0:0:
480,259,21427,5,0,0:0:0:0:
247,66,21650,5,0,0:0:0:0:
153,124,21761,1,0,0:0:0:0:
302,161,21872,5,0,0:0:0:0:
359,260,21983,1,0,0:0:0:0:
294,344,22094,1,0,0:0:0:0:
176,265,22205,5,0,0:0:0:0:
116,177,22316,1,0,0:0:0:0:
181,91,22427,1,0,0:0:0:0:
286,54,22539,5,0,0:0:0:0:
166,0,22650,1,0,0:0:0:0:
300,146,22761,5,0,0:0:0:0:
407,107,22872,1,0,0:0:0:0:
450,208,22983,1,0,0:0:0:0:
345,252,23094,1,0,0:0:0:0:
417,326,23205,5,0,0:0:0:0:
311,363,23316,1,0,0:0:0:0:
205,348,23427,1,0,0:0:0:0:
114,293,23538,1,0,0:0:0:0:
47,185,23650,6,0,P|105:203|181:210,1,127.50000128746
256,165,23873,1,0,0:0:0:0:
103,73,23983,1,0,0:0:0:0:
417,59,24094,6,0,P|363:42|285:43,1,127.50000128746
212,95,24317,1,0,0:0:0:0:
382,196,24427,1,0,0:0:0:0:
199,240,24538,5,0,0:0:0:0:
277,90,24650,1,0,0:0:0:0:
318,302,24761,2,0,P|298:266|276:168,1,127.50000128746
392,53,24984,1,0,0:0:0:0:
106,144,25205,5,0,0:0:0:0:
193,224,25316,1,0,0:0:0:0:
199,99,25428,1,0,0:0:0:0:
112,282,25539,1,0,0:0:0:0:
36,70,25650,1,0,0:0:0:0:
340,102,25873,5,0,0:0:0:0:
407,188,25984,1,0,0:0:0:0:
512,162,26095,1,0,0:0:0:0:
234,177,26317,5,0,0:0:0:0:
234,177,26428,1,0,0:0:0:0:
141,139,26539,5,0,0:0:0:0:
233,281,26650,1,0,0:0:0:0:
274,75,26761,5,0,0:0:0:0:
133,311,26872,1,0,0:0:0:0:
167,221,26983,1,0,0:0:0:0:
261,206,27094,1,0,0:0:0:0:
231,42,27205,6,0,P|140:34|64:72,1,127.50000128746
341,139,27427,2,0,P|421:162|496:158,1,127.50000128746
215,213,27650,1,0,0:0:0:0:
364,253,27872,5,0,0:0:0:0:
61,200,27983,1,0,0:0:0:0:
416,161,28094,2,0,L|537:234,1,127.50000128746
362,60,28316,1,0,0:0:0:0:
179,337,28539,5,0,0:0:0:0:
418,192,28761,5,0,0:0:0:0:
418,192,28872,1,0,0:0:0:0:
356,94,28983,5,0,0:0:0:0:
266,225,29094,1,0,0:0:0:0:
104,242,29205,1,0,0:0:0:0:
337,323,29427,5,0,0:0:0:0:
160,136,29650,5,0,0:0:0:0:
381,167,29761,1,0,0:0:0:0:
388,183,29983,5,0,0:0:0:0:
140,52,30094,1,0,0:0:0:0:
204,250,30316,5,0,0:0:0:0:
372,156,30427,1,0,0:0:0:0:
186,246,30539,1,0,0:0:0:0:
365,98,30650,1,0,0:0:0:0:
178,230,30761,6,0,P|120:219|37:218,1,127.50000128746
316,267,30983,2,0,P|343:309|360:385,1,127.50000128746
442,189,31205,2,0,P|455:150|515:81,1,127.50000128746
409,29,31427,5,0,0:0:0:0:
190,144,31538,2,0,P|147:169|50:170,1,127.50000128746
238,45,31761,1,0,0:0:0:0:
296,270,31872,1,0,0:0:0:0:
42,80,32094,5,0,0:0:0:0:
354,52,32316,5,0,0:0:0:0:
378,306,32427,1,0,0:0:0:0:
396,296,32650,5,0,0:0:0:0:
486,39,32761,1,0,0:0:0:0:
273,139,32983,5,0,0:0:0:0:
443,204,33094,1,0,0:0:0:0:
173,228,33205,2,0,P|237:219|327:242,1,127.50000128746
148,79,33427,2,0,P|94:100|8:93,1,127.50000128746
27,198,33650,5,0,0:0:0:0:
236,123,33761,1,0,0:0:0:0:
258,118,33983,5,0,0:0:0:0:
145,195,34094,1,0,0:0:0:0:
201,18,34205,1,0,0:0:0:0:
317,233,34316,6,0,P|373:219|458:220,1,127.50000128746
481,141,34538,1,0,0:0:0:0:
398,306,34650,1,0,0:0:0:0:
216,123,34761,6,0,P|162:96|77:86,1,127.50000128746
15,35,34983,1,0,0:0:0:0:
93,174,35094,1,0,0:0:0:0:
305,187,35205,5,0,0:0:0:0:
242,348,35316,1,0,0:0:0:0:
395,250,35427,2,0,P|331:275|249:259,1,127.50000128746
424,129,35650,2,0,P|462:147|517:232,1,127.50000128746
343,164,35872,1,0,0:0:0:0:
413,46,35983,1,0,0:0:0:0:
215,146,36094,6,0,L|88:61,1,127.50000128746
33,22,36316,1,0,0:0:0:0:
297,234,36427,6,0,L|407:324,1,127.50000128746
476,372,36650,1,0,0:0:0:0:
273,124,36761,5,0,0:0:0:0:
214,314,36872,1,0,0:0:0:0:
146,174,36983,6,0,L|2:198,1,127.50000128746
297,227,37205,1,0,0:0:0:0:
235,72,37316,1,0,0:0:0:0:
473,58,37427,6,0,P|414:76|321:63,1,127.50000128746
260,25,37650,1,0,0:0:0:0:
167,180,37761,1,0,0:0:0:0:
0,47,37872,6,0,P|100:57|244:157,1,255.000002574921
199,264,38205,1,0,0:0:0:0:
454,215,38316,2,0,L|322:197,1,127.50000128746
86,332,38538,2,0,L|224:305,1,127.50000128746
303,194,38761,1,0,0:0:0:0:
349,349,38872,1,0,0:0:0:0:
433,248,38983,2,0,P|421:186|355:125,1,127.50000128746
150,234,39205,2,0,P|192:225|276:166,1,127.50000128746
465,52,39427,6,0,P|371:49|235:150,1,255.000002574921
228,258,39761,1,0,0:0:0:0:
10,309,39872,2,0,P|55:315|154:292,1,127.50000128746
278,186,40094,2,0,P|319:195|395:254,1,127.50000128746
472,384,40316,1,0,0:0:0:0:
406,241,40538,5,0,0:0:0:0:
472,384,40650,1,0,0:0:0:0:
480,174,40761,5,0,0:0:0:0:
472,384,40872,1,0,0:0:0:0:
294,227,40983,1,0,0:0:0:0:
294,227,41205,5,0,0:0:0:0:
65,143,41316,1,0,0:0:0:0:
424,59,41427,2,0,P|397:140|418:58,2,255.000002574921
415,87,42094,5,0,0:0:0:0:
40,196,42205,1,0,0:0:0:0:
166,94,42316,1,0,0:0:0:0:
291,184,42427,1,0,0:0:0:0:
415,87,42538,1,0,0:0:0:0:
324,318,42761,5,0,0:0:0:0:
233,46,42983,5,0,0:0:0:0:
343,84,43094,1,0,0:0:0:0:
135,78,43205,5,0,0:0:0:0:
71,213,43316,1,0,0:0:0:0:
228,205,43427,1,0,0:0:0:0:
147,166,43538,1,0,0:0:0:0:
175,310,43650,5,0,0:0:0:0:
330,226,43761,1,0,0:0:0:0:
278,315,43872,1,0,0:0:0:0:
233,223,43983,1,0,0:0:0:0:
428,162,44094,5,0,0:0:0:0:
340,118,44205,1,0,0:0:0:0:
233,121,44316,1,0,0:0:0:0:
171,182,44427,1,0,0:0:0:0:
158,264,44538,5,0,0:0:0:0:
443,60,44650,1,0,0:0:0:0:
352,293,44761,1,0,0:0:0:0:
203,99,44872,1,0,0:0:0:0:
339,161,44983,6,0,P|371:213|374:261,1,84.9999976158143
295,359,45205,1,0,0:0:0:0:
218,141,45316,1,0,0:0:0:0:
218,141,45427,2,0,P|233:88|264:59,1,84.9999976158143
356,14,45650,1,0,0:0:0:0:
248,254,45761,1,0,0:0:0:0:
270,265,45983,5,0,0:0:0:0:
451,123,46094,1,0,0:0:0:0:
137,71,46316,5,0,0:0:0:0:
404,272,46538,5,0,0:0:0:0:
297,214,46650,1,0,0:0:0:0:
466,182,46761,1,0,0:0:0:0:
405,364,46872,1,0,0:0:0:0:
384,134,46983,2,0,P|365:179|364:250,1,84.9999976158143
219,384,47205,2,0,P|203:343|173:291,1,84.9999976158143
70,166,47427,1,0,0:0:0:0:
278,277,47650,6,0,P|279:242|300:184,1,84.9999976158143
140,88,47872,2,0,P|195:96|246:90,1,84.9999976158143
358,384,48094,2,0,P|353:329|368:284,1,84.9999976158143
10,0,48316,2,0,P|45:12|107:15,1,84.9999976158143
413,90,48538,6,0,P|313:52|211:70,1,169.999995231629
106,121,48872,1,0,0:0:0:0:
199,288,48983,2,0,P|210:241|203:153,1,84.9999976158143
154,33,49205,1,0,0:0:0:0:
310,160,49316,2,0,P|261:115|243:67,1,84.9999976158143
404,186,49538,1,0,0:0:0:0:
335,343,49650,1,0,0:0:0:0:
507,138,49872,5,0,0:0:0:0:
335,343,50094,5,0,0:0:0:0:
299,92,50205,2,0,L|259:269,1,169.999995231629
216,24,50538,1,0,0:0:0:0:
59,193,50761,5,0,0:0:0:0:
129,295,50872,1,0,0:0:0:0:
210,133,50983,2,0,L|152:224,1,84.9999976158143
312,171,51205,5,0,0:0:0:0:
299,286,51316,1,0,0:0:0:0:
411,219,51427,2,0,L|453:323,1,84.9999976158143
286,259,51650,2,0,L|235:362,1,84.9999976158143
150,190,51872,2,0,L|34:190,1,84.9999976158143
194,79,52094,6,0,P|276:54|327:57,1,84.9999976158143
426,112,52316,1,0,0:0:0:0:
426,112,52427,2,0,P|364:180|329:295,1,169.999995231629
392,355,52761,1,0,0:0:0:0:
229,236,52872,1,0,0:0:0:0:
414,230,52983,1,0,0:0:0:0:
296,333,53094,1,0,0:0:0:0:
257,146,53205,1,0,0:0:0:0:
92,308,53427,5,0,0:0:0:0:
451,202,53650,5,0,0:0:0:0:
243,137,53761,2,0,P|299:100|362:91,1,84.9999976158143
295,236,53983,1,0,0:0:0:0:
407,40,54094,1,0,0:0:0:0:
407,40,54316,5,0,0:0:0:0:
283,164,54427,1,0,0:0:0:0:
174,32,54538,1,0,0:0:0:0:
174,32,54761,6,0,P|202:83|208:142,1,84.9999976158143
284,344,54983,2,0,P|253:298|251:234,1,84.9999976158143
22,88,55205,2,0,P|79:96|130:123,1,84.9999976158143
160,315,55427,1,0,0:0:0:0:
78,217,55538,1,0,0:0:0:0:
442,261,55650,6,0,P|380:233|323:236,1,84.9999976158143
272,292,55872,1,0,0:0:0:0:
346,133,55983,1,0,0:0:0:0:
126,277,56094,2,0,P|171:249|204:187,1,84.9999976158143
235,106,56316,1,0,0:0:0:0:
235,106,56427,2,0,P|275:141|309:210,1,84.9999976158143
341,280,56650,1,0,0:0:0:0:
457,226,56761,1,0,0:0:0:0:
78,292,56983,5,0,0:0:0:0:
11,42,57205,5,0,0:0:0:0:
199,104,57316,1,0,0:0:0:0:
417,170,57427,2,0,P|343:158|237:186,1,169.999995231629
142,254,57761,1,0,0:0:0:0:
23,94,57872,2,0,P|79:85|149:96,1,84.9999976158143
206,156,58094,1,0,0:0:0:0:
294,64,58205,1,0,0:0:0:0:
467,278,58316,6,0,P|467:341|484:404,1,84.9999976158143
371,100,58538,2,0,P|354:47|352:-11,1,84.9999976158143
254,297,58761,1,0,0:0:0:0:
180,96,58872,1,0,0:0:0:0:
217,303,58983,1,0,0:0:0:0:
270,69,59094,1,0,0:0:0:0:
110,332,59205,6,0,P|73:289|11:272,1,84.9999976158143
309,266,59427,2,0,P|298:316|297:389,1,84.9999976158143
164,124,59650,2,0,P|193:75|209:31,1,84.9999976158143
193,261,59872,1,0,0:0:0:0:
310,148,59983,1,0,0:0:0:0:
112,194,60094,2,0,L|11:162,1,84.9999976158143
193,127,60316,5,0,0:0:0:0:
291,65,60427,1,0,0:0:0:0:
444,190,60538,6,0,P|388:164|343:104,1,84.9999976158143
135,72,60761,1,0,0:0:0:0:
242,39,60872,1,0,0:0:0:0:
57,229,60983,2,0,B|109:224|109:224|149:173,1,84.9999976158143
314,35,61205,2,0,P|275:124|285:238,1,169.999995231629
316,327,61538,1,0,0:0:0:0:
503,158,61650,2,0,P|415:154|319:97,1,169.999995231629
228,42,61983,1,0,0:0:0:0:
28,189,62094,6,0,P|85:195|159:202,1,84.9999976158143
191,339,62316,2,0,P|258:326|310:296,1,84.9999976158143
438,377,62538,2,0,P|465:350|511:290,1,84.9999976158143
350,35,62761,6,0,P|311:86|289:187,1,169.999995231629
348,279,63094,1,0,0:0:0:0:
161,207,63205,1,0,0:0:0:0:
161,207,63427,5,0,0:0:0:0:
300,141,63538,1,0,0:0:0:0:
71,86,63650,2,0,P|156:71|216:81,1,84.9999976158143
263,224,63872,1,0,0:0:0:0:
36,343,64094,5,0,0:0:0:0:
70,175,64316,5,0,0:0:0:0:
196,282,64427,1,0,0:0:0:0:
120,343,64538,5,0,0:0:0:0:
157,196,64650,1,0,0:0:0:0:
0,244,64761,1,0,0:0:0:0:
385,359,64983,5,0,0:0:0:0:
397,232,65095,1,0,0:0:0:0:
285,172,65206,1,0,0:0:0:0:
396,367,65316,2,0,P|350:325|302:306,1,84.9999976158143
200,328,65538,1,0,0:0:0:0:
407,201,65650,6,0,P|406:264|389:325,1,84.9999976158143
258,20,65872,2,0,P|306:45|338:73,1,84.9999976158143
50,159,66094,2,0,P|86:120|152:91,1,84.9999976158143
239,244,66316,6,0,B|159:288|162:229|42:271,1,169.999995231629
253,343,66650,2,0,P|298:336|350:251,1,84.9999976158143
361,192,66872,1,0,0:0:0:0:
184,47,66983,2,0,L|211:175,1,84.9999976158143
159,225,67205,1,0,0:0:0:0:
284,87,67316,1,0,0:0:0:0:
72,123,67427,1,0,0:0:0:0:
72,123,67650,5,0,0:0:0:0:
72,123,67872,5,0,0:0:0:0:
17,0,67983,1,0,0:0:0:0:
138,218,68094,1,0,0:0:0:0:
171,74,68205,1,0,0:0:0:0:
280,171,68316,1,0,0:0:0:0:
280,171,68538,5,0,0:0:0:0:
120,153,68650,1,0,0:0:0:0:
248,297,68761,2,0,P|206:250|146:223,1,84.9999976158143
378,207,68983,6,0,P|403:272|399:341,1,84.9999976158143
233,103,69205,2,0,P|270:56|319:30,1,84.9999976158143
171,325,69427,2,0,P|111:333|30:309,1,84.9999976158143
310,200,69650,1,0,0:0:0:0:
266,370,69761,1,0,0:0:0:0:
114,230,69872,6,0,P|117:154|161:52,1,169.999995231629
50,0,70205,1,0,0:0:0:0:
215,182,70316,2,0,P|250:138|243:86,1,84.9999976158143
359,70,70538,1,0,0:0:0:0:
295,272,70650,1,0,0:0:0:0:
211,234,70761,1,0,0:0:0:0:
370,209,70872,1,0,0:0:0:0:
180,353,70983,1,0,0:0:0:0:
493,270,71205,5,0,0:0:0:0:
368,147,71427,5,0,0:0:0:0:
297,354,71538,1,0,0:0:0:0:
283,47,71650,2,0,P|259:106|265:193,1,84.9999976158143
445,343,71872,2,0,P|386:300|340:289,1,84.9999976158143
74,239,72094,1,0,0:0:0:0:
189,282,72205,1,0,0:0:0:0:
289,196,72316,2,0,P|331:165|398:155,1,84.9999976158143
120,204,72538,5,0,0:0:0:0:
214,335,72650,1,0,0:0:0:0:
376,313,72761,2,0,P|385:277|408:225,1,84.9999976158143
383,59,72983,5,0,0:0:0:0:
170,133,73094,1,0,0:0:0:0:
312,203,73205,1,0,0:0:0:0:
111,284,73316,1,0,0:0:0:0:
379,347,73427,5,0,0:0:0:0:
379,347,73650,2,0,L|423:281,1,42.4999988079071
331,54,74094,1,0,0:0:0:0:
377,310,74316,5,0,0:0:0:0:
347,347,74761,1,0,0:0:0:0:
300,112,74983,5,0,0:0:0:0:
280,232,75094,1,0,0:0:0:0:
195,82,75205,2,0,P|246:65|304:70,1,84.9999976158143
364,104,75538,1,0,0:0:0:0:
314,310,75872,1,0,0:0:0:0:
87,149,76094,5,0,0:0:0:0:
187,114,76205,1,0,0:0:0:0:
271,139,76316,1,0,0:0:0:0:
315,211,76427,1,0,0:0:0:0:
276,279,76538,1,0,0:0:0:0:
228,292,76650,1,0,0:0:0:0:
193,279,76761,2,0,L|144:262,1,42.4999988079071
384,232,76983,5,0,0:0:0:0:
334,153,77205,2,0,L|369:181,2,42.4999988079071
195,222,77650,1,0,0:0:0:0:
111,101,77872,5,0,0:0:0:0:
283,248,77983,1,0,0:0:0:0:
97,322,78316,5,0,0:0:0:0:
204,39,78538,1,0,0:0:0:0:
424,158,78761,2,0,L|350:152,2,42.4999988079071
424,158,79205,1,0,0:0:0:0:
261,147,79427,1,0,0:0:0:0:
102,133,79650,5,0,0:0:0:0:
198,87,79761,1,0,0:0:0:0:
236,200,79872,1,0,0:0:0:0:
328,164,79983,1,0,0:0:0:0:
417,107,80094,5,0,0:0:0:0:
494,155,80205,1,0,0:0:0:0:
469,245,80316,1,0,0:0:0:0:
314,270,80538,5,0,0:0:0:0:
297,86,80650,1,0,0:0:0:0:
512,15,80761,1,0,0:0:0:0:
0,0,80983,5,0,0:0:0:0:
203,84,81094,1,0,0:0:0:0:
176,270,81205,1,0,0:0:0:0:
367,214,81427,5,0,0:0:0:0:
421,334,81538,1,0,0:0:0:0:
444,128,81650,2,0,P|389:110|336:113,1,63.7500006437302
232,193,81872,2,0,P|268:210|320:223,1,63.7500006437302
373,20,82094,2,0,P|321:28|276:51,1,63.7500006437302
143,257,82316,1,0,0:0:0:0:
457,58,82538,5,0,0:0:0:0:
143,257,82761,1,0,0:0:0:0:
213,326,82872,1,0,0:0:0:0:
275,211,82983,1,0,0:0:0:0:
346,323,83094,1,0,0:0:0:0:
431,239,83205,6,0,P|447:171|440:129,1,63.7500006437302
278,33,83427,2,0,P|309:39|339:51,1,63.7500006437302
142,118,83650,2,0,P|108:185|115:215,1,63.7500006437302
149,257,83872,1,0,0:0:0:0:
14,138,83983,1,0,0:0:0:0:
332,155,84094,6,0,P|275:183|201:110,1,169.999995231629
303,69,84316,2,0,P|353:43|419:130,1,169.999995231629
164,243,84538,1,0,0:0:0:0:
374,217,84761,6,0,L|493:222,1,84.9999976158143
264,116,84983,2,0,L|369:114,1,84.9999976158143
165,284,85205,2,0,L|298:319,1,84.9999976158143
58,78,85427,2,0,L|157:61,1,84.9999976158143
300,113,85650,5,0,0:0:0:0:
29,180,85761,1,0,0:0:0:0:
400,274,85872,2,0,L|285:274,1,84.9999976158143
118,102,86094,1,0,0:0:0:0:
118,102,86316,5,0,0:0:0:0:
259,277,86427,1,0,0:0:0:0:
218,31,86538,1,0,0:0:0:0:
169,329,86650,1,0,0:0:0:0:
325,197,86761,5,0,0:0:0:0:
425,154,86872,1,0,0:0:0:0:
245,124,86983,1,0,0:0:0:0:
312,296,87094,1,0,0:0:0:0:
189,265,87205,5,0,0:0:0:0:
171,33,87316,1,0,0:0:0:0:
99,348,87427,5,0,0:0:0:0:
36,136,87538,1,0,0:0:0:0:
324,163,87650,6,0,P|382:152|466:149,1,127.50000128746
234,247,87872,2,0,P|207:289|180:380,1,127.50000128746
94,240,88094,2,0,P|70:223|-5:132,1,127.50000128746
47,48,88316,5,0,0:0:0:0:
260,175,88427,2,0,P|303:200|402:207,1,127.50000128746
246,72,88650,1,0,0:0:0:0:
187,248,88761,1,0,0:0:0:0:
499,120,88983,5,0,0:0:0:0:
158,52,89205,5,0,0:0:0:0:
134,306,89316,1,0,0:0:0:0:
116,296,89539,5,0,0:0:0:0:
26,39,89650,1,0,0:0:0:0:
205,141,89872,5,0,0:0:0:0:
59,220,89983,1,0,0:0:0:0:
279,260,90094,2,0,P|215:251|133:272,1,127.50000128746
390,104,90316,2,0,P|444:125|526:120,1,127.50000128746
476,240,90539,5,0,0:0:0:0:
298,85,90650,1,0,0:0:0:0:
298,85,90872,5,0,0:0:0:0:
364,187,90983,1,0,0:0:0:0:
343,0,91094,1,0,0:0:0:0:
195,192,91205,6,0,P|139:178|56:179,1,127.50000128746
0,119,91427,1,0,0:0:0:0:
92,267,91539,1,0,0:0:0:0:
332,142,91650,6,0,P|386:115|466:111,1,127.50000128746
496,30,91872,1,0,0:0:0:0:
420,203,91983,1,0,0:0:0:0:
196,170,92094,5,0,0:0:0:0:
245,353,92205,1,0,0:0:0:0:
112,251,92316,2,0,P|176:276|256:284,1,127.50000128746
74,156,92539,2,0,P|36:174|-3:258,1,127.50000128746
173,130,92761,1,0,0:0:0:0:
41,54,92872,1,0,0:0:0:0:
345,173,92983,6,0,L|484:112,1,127.50000128746
489,30,93205,1,0,0:0:0:0:
177,227,93316,6,0,L|39:288,1,127.50000128746
19,361,93539,1,0,0:0:0:0:
242,110,93650,5,0,0:0:0:0:
280,310,93761,1,0,0:0:0:0:
365,174,93872,6,0,L|501:202,1,127.50000128746
167,220,94094,1,0,0:0:0:0:
328,80,94205,1,0,0:0:0:0:
39,58,94316,6,0,P|98:76|185:62,1,127.50000128746
249,25,94539,1,0,0:0:0:0:
185,178,94650,1,0,0:0:0:0:
512,36,94761,6,0,P|412:46|283:150,1,255.000002574921
241,245,95094,1,0,0:0:0:0:
70,142,95205,2,0,L|213:123,1,127.50000128746
359,320,95427,2,0,L|226:288,1,127.50000128746
211,133,95650,1,0,0:0:0:0:
156,342,95761,1,0,0:0:0:0:
80,247,95872,2,0,P|92:185|153:99,1,127.50000128746
297,210,96094,2,0,P|335:228|435:238,1,127.50000128746
47,52,96316,6,0,P|141:49|287:117,1,255.000002574921
336,202,96650,1,0,0:0:0:0:
464,301,96761,2,0,P|419:307|338:298,1,127.50000128746
223,230,96983,2,0,P|182:239|98:292,1,127.50000128746
40,384,97205,1,0,0:0:0:0:
106,241,97427,5,0,0:0:0:0:
40,384,97539,1,0,0:0:0:0:
32,174,97650,5,0,0:0:0:0:
40,384,97761,1,0,0:0:0:0:
218,227,97872,1,0,0:0:0:0:
218,227,98094,5,0,0:0:0:0:
447,143,98205,1,0,0:0:0:0:
88,59,98316,2,0,P|114:143|94:58,2,255.000002574921
97,87,98983,5,0,0:0:0:0:
472,196,99094,1,0,0:0:0:0:
346,94,99205,1,0,0:0:0:0:
220,183,99316,1,0,0:0:0:0:
97,87,99427,1,0,0:0:0:0:
188,318,99650,5,0,0:0:0:0:
279,46,99872,5,0,0:0:0:0:
169,84,99983,1,0,0:0:0:0:
377,78,100094,5,0,0:0:0:0:
441,213,100205,1,0,0:0:0:0:
284,205,100316,1,0,0:0:0:0:
365,166,100427,1,0,0:0:0:0:
337,310,100539,5,0,0:0:0:0:
182,226,100650,1,0,0:0:0:0:
234,315,100761,1,0,0:0:0:0:
279,223,100872,1,0,0:0:0:0:
84,162,100983,5,0,0:0:0:0:
172,118,101094,1,0,0:0:0:0:
279,121,101205,1,0,0:0:0:0:
341,182,101316,1,0,0:0:0:0:
354,264,101427,5,0,0:0:0:0:
185,186,101539,1,0,0:0:0:0:
340,92,101650,1,0,0:0:0:0:
202,298,101761,1,0,0:0:0:0:
101,81,101872,6,0,P|93:141|99:202,2,84.9999976158143
200,5,102538,1,0,0:0:0:0:
27,285,102761,2,0,B|110:299|110:299|181:253|181:253|281:272,1,254.999992847443
384,299,103650,2,0,P|407:366|409:404,2,84.9999976158143
384,299,104316,1,0,0:0:0:0:
424,213,104427,1,0,0:0:0:0:
358,137,104538,2,0,P|307:155|240:148,1,84.9999976158143
110,103,104983,1,0,0:0:0:0:
290,30,105205,6,0,P|365:14|405:17,1,84.9999976158143
491,156,105650,2,0,L|421:154,2,42.4999988079071
362,250,106094,1,0,0:0:0:0:
146,84,106316,1,0,0:0:0:0:
362,250,106538,1,0,0:0:0:0:
22,368,106761,1,0,0:0:0:0:
473,107,106983,6,0,B|381:70|387:161|274:116,3,169.999995231629
310,126,108538,1,0,0:0:0:0:
438,252,108761,1,0,0:0:0:0:
220,119,108983,6,0,P|198:182|198:238,1,84.9999976158143
309,91,109316,2,0,L|153:63,1,127.499996423721
28,155,109872,1,0,0:0:0:0:
223,195,110094,1,0,0:0:0:0:
118,239,110316,1,0,0:0:0:0:
38,144,110538,1,0,0:0:0:0:
339,113,110983,5,0,0:0:0:0:
327,125,111205,1,0,0:0:0:0:
319,137,111427,5,0,0:0:0:0:
403,167,111538,1,0,0:0:0:0:
487,135,111650,1,0,0:0:0:0:
348,263,111872,2,0,P|299:305|289:333,2,84.9999976158143
123,64,112650,5,0,0:0:0:0:
160,44,112761,5,0,0:0:0:0:
92,164,112983,1,0,0:0:0:0:
15,3,113205,1,0,0:0:0:0:
341,100,113427,1,0,0:0:0:0:
268,257,113650,5,0,0:0:0:0:
472,34,113872,5,0,0:0:0:0:
130,149,114094,2,0,P|61:121|-20:127,2,127.499996423721
323,238,114983,1,0,0:0:0:0:
262,296,115094,1,0,0:0:0:0:
175,297,115205,1,0,0:0:0:0:
395,338,115427,1,0,0:0:0:0:
407,330,115872,1,0,0:0:0:0:
53,208,116094,6,0,P|71:162|96:125,1,84.9999976158143
164,88,116427,1,0,0:0:0:0:
193,260,116538,1,0,0:0:0:0:
249,133,116761,1,0,0:0:0:0:
271,345,116983,5,0,0:0:0:0:
327,67,117205,1,0,0:0:0:0:
366,274,117427,1,0,0:0:0:0:
426,116,117650,1,0,0:0:0:0:
237,76,117872,6,0,P|302:37|338:35,2,84.9999976158143
73,139,118538,1,0,0:0:0:0:
135,205,118650,1,0,0:0:0:0:
219,199,118761,1,0,0:0:0:0:
73,296,118983,6,0,P|28:315|-5:342,2,84.9999976158143
260,221,119650,1,0,0:0:0:0:
136,179,119872,2,0,L|102:151,1,42.4999988079071
319,230,120316,1,0,0:0:0:0:
460,94,120538,2,0,P|396:118|353:150,2,84.9999976158143
313,225,121205,2,0,P|273:167|267:107,1,127.499996423721
266,111,121650,1,0,0:0:0:0:
240,311,121872,1,0,0:0:0:0:
175,62,122205,2,0,L|221:41,1,42.4999988079071
27,203,122538,5,0,0:0:0:0:
474,249,122761,1,0,0:0:0:0:
474,249,122983,2,0,L|425:272,1,42.4999988079071
447,152,123205,6,0,P|382:139|344:150,1,84.9999976158143
298,210,123538,1,0,0:0:0:0:
218,160,123650,1,0,0:0:0:0:
85,227,123872,1,0,0:0:0:0:
361,70,124094,6,0,P|312:64|255:79,1,84.9999976158143
86,263,124538,1,0,0:0:0:0:
266,166,124761,1,0,0:0:0:0:
424,250,124983,2,0,B|406:296|406:296|328:338|282:240|189:308,1,254.999992847443
119,344,125761,1,0,0:0:0:0:
151,230,125872,1,0,0:0:0:0:
107,74,126094,6,0,P|203:69|234:110,1,127.499996423721
191,229,126538,2,0,B|167:194|163:155|163:155|136:175|120:204,1,127.499996423721
80,265,126983,1,0,0:0:0:0:
83,270,127094,2,0,L|233:265,1,127.499996423721
337,123,127650,1,0,0:0:0:0:
122,365,127872,1,0,0:0:0:0:
243,39,128094,1,0,0:0:0:0:
442,258,128316,6,0,P|364:268|330:263,1,84.9999976158143
273,239,128650,1,0,0:0:0:0:
157,293,128983,1,0,0:0:0:0:
320,352,129316,1,0,0:0:0:0:
403,288,129427,5,0,0:0:0:0:
235,308,129538,1,0,0:0:0:0:
450,195,129650,6,0,L|512:180,1,63.7500006437302
170,151,129872,1,0,0:0:0:0:
170,151,130094,5,0,0:0:0:0:
378,330,130205,1,0,0:0:0:0:
386,87,130316,2,0,P|423:66|489:47,1,84.9999976158143
351,254,130538,1,0,0:0:0:0:
302,163,130650,1,0,0:0:0:0:
302,360,130761,2,0,P|308:310|281:254,1,84.9999976158143
191,85,130983,5,0,0:0:0:0:
109,299,131094,1,0,0:0:0:0:
132,329,131316,5,0,0:0:0:0:
51,119,131427,2,0,P|82:148|104:192,1,84.9999976158143
252,321,131650,2,0,P|222:288|205:242,1,84.9999976158143
253,27,131872,2,0,P|196:60|168:112,1,84.9999976158143
119,208,132094,1,0,0:0:0:0:
136,207,132316,5,0,0:0:0:0:
39,135,132427,1,0,0:0:0:0:
238,200,132538,2,0,P|282:220|321:273,1,84.9999976158143
427,146,132761,2,0,P|439:89|414:35,1,84.9999976158143
336,61,132983,5,0,0:0:0:0:
391,237,133094,1,0,0:0:0:0:
281,154,133205,5,0,0:0:0:0:
288,291,133316,1,0,0:0:0:0:
212,74,133427,5,0,0:0:0:0:
189,245,133538,1,0,0:0:0:0:
323,199,133650,5,0,0:0:0:0:
138,153,133761,1,0,0:0:0:0:
210,329,133872,2,0,P|235:286|238:225,1,84.9999976158143
249,78,134094,6,0,P|315:63|353:67,1,84.9999976158143
119,159,134316,2,0,P|162:123|271:99,1,169.999995231629
121,265,134650,1,0,0:0:0:0:
41,103,134761,1,0,0:0:0:0:
16,321,134872,1,0,0:0:0:0:
200,203,134983,2,0,P|142:148|118:49,2,169.999995231629
316,125,135538,1,0,0:0:0:0:
198,46,135650,5,0,0:0:0:0:
289,3,135761,1,0,0:0:0:0:
105,10,135872,1,0,0:0:0:0:
360,265,136094,5,0,0:0:0:0:
310,368,136205,1,0,0:0:0:0:
455,161,136316,5,0,0:0:0:0:
486,332,136427,2,0,P|463:296|444:227,2,84.9999976158143
367,130,136761,5,0,0:0:0:0:
289,293,136872,1,0,0:0:0:0:
266,104,136983,5,0,0:0:0:0:
396,265,137094,1,0,0:0:0:0:
346,34,137205,5,0,0:0:0:0:
237,217,137316,1,0,0:0:0:0:
399,161,137427,6,0,P|336:132|261:128,1,84.9999976158143
147,171,137650,1,0,0:0:0:0:
291,345,137761,2,0,P|325:314|327:247,1,84.9999976158143
212,102,137983,1,0,0:0:0:0:
136,272,138094,5,0,0:0:0:0:
322,160,138205,1,0,0:0:0:0:
183,150,138316,2,0,P|109:136|47:161,1,84.9999976158143
243,261,138538,1,0,0:0:0:0:
436,152,138761,5,0,0:0:0:0:
184,73,138983,5,0,0:0:0:0:
76,57,139094,1,0,0:0:0:0:
180,196,139205,1,0,0:0:0:0:
277,156,139316,1,0,0:0:0:0:
33,152,139427,5,0,0:0:0:0:
343,190,139650,5,0,0:0:0:0:
343,190,139761,1,0,0:0:0:0:
291,92,139872,1,0,0:0:0:0:
430,227,139983,1,0,0:0:0:0:
163,219,140094,6,0,P|210:205|271:204,1,84.9999976158143
426,66,140316,2,0,P|374:49|317:59,1,84.9999976158143
64,134,140538,2,0,P|113:113|160:115,1,84.9999976158143
322,143,140761,1,0,0:0:0:0:
217,199,140872,1,0,0:0:0:0:
411,175,140983,6,0,P|337:157|266:164,1,84.9999976158143
128,301,141205,2,0,P|160:314|234:308,1,84.9999976158143
61,124,141427,1,0,0:0:0:0:
231,259,141650,5,0,0:0:0:0:
56,168,141761,1,0,0:0:0:0:
82,136,141983,5,0,0:0:0:0:
295,61,142094,1,0,0:0:0:0:
84,315,142316,5,0,0:0:0:0:
366,153,142538,5,0,0:0:0:0:
205,252,142650,1,0,0:0:0:0:
273,47,142761,2,0,P|206:65|124:156,2,169.999995231629
202,193,143316,1,0,0:0:0:0:
394,101,143427,2,0,P|334:135|244:164,1,84.9999976158143
120,305,143650,6,0,P|130:263|156:210,1,84.9999976158143
446,174,143872,2,0,P|403:211|327:227,1,84.9999976158143
271,287,144094,1,0,0:0:0:0:
312,109,144205,1,0,0:0:0:0:
353,344,144316,1,0,0:0:0:0:
329,94,144427,1,0,0:0:0:0:
182,343,144538,6,0,P|179:318|132:244,1,84.9999976158143
105,170,144761,1,0,0:0:0:0:
84,321,144872,1,0,0:0:0:0:
233,230,144983,1,0,0:0:0:0:
233,230,145205,6,0,P|180:198|61:214,1,169.999995231629
16,290,145538,1,0,0:0:0:0:
117,109,145650,1,0,0:0:0:0:
33,57,145761,1,0,0:0:0:0:
244,67,145872,6,0,B|205:25|205:25|130:34,1,84.9999976158143
470,198,146094,2,0,B|490:149|490:149|447:88,1,84.9999976158143
348,330,146316,1,0,0:0:0:0:
457,290,146427,1,0,0:0:0:0:
111,290,146538,2,0,P|220:259|329:268,1,169.999995231629
347,334,146872,1,0,0:0:0:0:
400,140,146983,2,0,P|289:168|230:228,1,169.999995231629
221,305,147316,1,0,0:0:0:0:
68,125,147427,2,0,P|120:129|165:125,1,84.9999976158143
255,46,147650,5,0,0:0:0:0:
272,206,147761,1,0,0:0:0:0:
356,34,147872,1,0,0:0:0:0:
202,134,147983,1,0,0:0:0:0:
477,117,148094,6,0,P|373:115|243:87,2,169.999995231629
477,117,148761,1,0,0:0:0:0:
389,294,148872,1,0,0:0:0:0:
359,119,148983,1,0,0:0:0:0:
480,234,149094,1,0,0:0:0:0:
305,211,149205,6,0,P|237:206|213:215,1,84.9999976158143
17,96,149427,2,0,P|39:151|85:198,1,84.9999976158143
102,28,149650,1,0,0:0:0:0:
149,127,149761,1,0,0:0:0:0:
132,239,149872,1,0,0:0:0:0:
225,180,149983,1,0,0:0:0:0:
325,214,150094,2,0,P|375:190|411:183,1,84.9999976158143
206,152,150316,2,0,P|164:171|118:203,1,84.9999976158143
398,105,150538,2,0,P|430:75|482:33,1,84.9999976158143
166,288,150761,2,0,P|116:322|68:369,1,84.9999976158143
397,369,150983,6,0,P|379:323|328:267,1,84.9999976158143
218,43,151205,2,0,P|176:81|146:148,1,84.9999976158143
324,136,151427,1,0,0:0:0:0:
90,189,151538,1,0,0:0:0:0:
447,180,151650,6,0,P|376:141|276:132,1,169.999995231629
134,37,151983,2,0,P|193:59|225:79,1,84.9999976158143
253,220,152205,1,0,0:0:0:0:
330,45,152316,5,0,0:0:0:0:
237,230,152427,1,0,0:0:0:0:
58,108,152538,2,0,P|115:139|189:136,2,84.9999976158143
342,72,152983,5,0,0:0:0:0:
102,244,153205,1,0,0:0:0:0:
229,173,153316,1,0,0:0:0:0:
165,341,153427,1,0,0:0:0:0:
72,159,153538,1,0,0:0:0:0:
286,242,153650,1,0,0:0:0:0:
286,242,153872,6,0,P|231:219|156:233,1,84.9999976158143
384,254,154094,1,0,0:0:0:0:
128,264,154205,1,0,0:0:0:0:
295,138,154316,6,0,P|330:113|389:93,1,84.9999976158143
186,196,154538,2,0,P|137:204|62:241,1,84.9999976158143
499,144,154761,2,0,P|448:184|361:206,1,84.9999976158143
148,111,154983,1,0,0:0:0:0:
346,47,155094,1,0,0:0:0:0:
39,14,155205,6,0,B|67:51|73:58|73:58|198:51|210:80,1,169.999995231629
280,15,155538,1,0,0:0:0:0:
169,246,155650,2,0,P|156:211|152:138,1,84.9999976158143
372,64,155872,2,0,P|320:95|299:232,1,169.999995231629
344,294,156205,1,0,0:0:0:0:
198,75,156316,1,0,0:0:0:0:
390,155,156427,1,0,0:0:0:0:
206,307,156538,2,0,P|187:258|176:190,1,84.9999976158143
49,105,156761,5,0,0:0:0:0:
321,171,156872,1,0,0:0:0:0:
65,270,156983,2,0,P|16:231|77:254,2,169.999995231629
176,345,157538,1,0,0:0:0:0:
251,142,157650,1,0,0:0:0:0:
159,236,157761,1,0,0:0:0:0:
306,304,157872,5,0,0:0:0:0:
363,195,157983,1,0,0:0:0:0:
414,82,158094,1,0,0:0:0:0:
422,285,158205,1,0,0:0:0:0:
235,108,158316,5,0,0:0:0:0:
497,143,158427,1,0,0:0:0:0:
171,212,158538,1,0,0:0:0:0:
387,188,158650,1,0,0:0:0:0:
122,316,158761,5,0,0:0:0:0:
260,220,158983,5,0,0:0:0:0:
351,252,159094,2,0,L|404:248,1,42.4999988079071
393,248,159427,1,0,0:0:0:0:
111,191,159650,1,0,0:0:0:0:
241,224,159761,1,0,0:0:0:0:
433,143,160094,5,0,0:0:0:0:
165,90,160316,1,0,0:0:0:0:
283,113,160427,1,0,0:0:0:0:
448,143,160538,2,0,P|378:129|330:131,1,84.9999976158143
275,183,160872,2,0,P|176:199|167:195,1,84.9999976158143
102,151,161205,1,0,0:0:0:0:
239,37,161427,5,0,0:0:0:0:
224,192,161538,2,0,L|217:270,1,42.4999988079071
387,306,161761,2,0,L|388:245,1,42.4999988079071
391,119,161983,1,0,0:0:0:0:
293,361,162094,2,0,L|302:254,1,84.9999976158143
205,139,162650,5,0,0:0:0:0:
131,72,162761,2,0,L|153:130,1,42.4999988079071
298,206,162983,2,0,L|272:130,1,42.4999988079071
222,86,163205,1,0,0:0:0:0:
187,318,163316,1,0,0:0:0:0:
167,181,163427,2,0,L|138:253,1,42.4999988079071
61,332,163650,5,0,0:0:0:0:
292,57,163872,1,0,0:0:0:0:
246,296,163983,1,0,0:0:0:0:
408,132,164094,2,0,P|429:214|429:240,1,84.9999976158143
196,161,164427,2,0,P|252:124|300:119,1,84.9999976158143
319,340,164761,2,0,P|280:294|267:254,1,84.9999976158143
124,268,165094,5,0,0:0:0:0:
201,335,165205,1,0,0:0:0:0:
196,194,165316,2,0,L|177:255,1,42.4999988079071
111,123,165538,1,0,0:0:0:0:
111,123,165650,2,0,L|147:65,1,42.4999988079071
297,143,165872,6,0,B|306:232|307:232|307:234|307:234|338:260|340:262|340:262|338:325,1,169.999995231629
204,278,166538,1,0,0:0:0:0:
158,362,166650,1,0,0:0:0:0:
124,191,166761,1,0,0:0:0:0:
312,304,166872,1,0,0:0:0:0:
231,253,166983,2,0,L|272:261,1,42.4999988079071
382,119,167205,1,0,0:0:0:0:
158,161,167316,1,0,0:0:0:0:
254,127,167427,2,0,L|211:130,1,42.4999988079071
35,43,167650,5,0,0:0:0:0:
451,88,167872,1,0,0:0:0:0:
170,104,168094,5,0,0:0:0:0:
141,191,168205,1,0,0:0:0:0:
171,280,168316,1,0,0:0:0:0:
140,363,168427,1,0,0:0:0:0:
254,315,168538,5,0,0:0:0:0:
332,270,168650,1,0,0:0:0:0:
412,303,168761,1,0,0:0:0:0:
457,376,168872,1,0,0:0:0:0:
422,199,168983,5,0,0:0:0:0:
227,350,169094,1,0,0:0:0:0:
182,141,169205,1,0,0:0:0:0:
281,271,169316,1,0,0:0:0:0:
51,232,169427,6,0,P|76:202|98:174,1,63.7500006437302
257,85,169650,1,0,0:0:0:0:
173,244,169761,1,0,0:0:0:0:
372,43,169872,2,0,L|355:104,1,63.7500006437302
166,32,170094,1,0,0:0:0:0:
241,267,170205,1,0,0:0:0:0:
67,105,170316,6,0,P|149:84|209:88,1,127.50000128746
333,172,170650,2,0,L|262:182,1,63.7500006437302
169,186,170872,1,0,0:0:0:0:
419,75,170983,1,0,0:0:0:0:
355,322,171094,1,0,0:0:0:0:
310,45,171205,6,0,P|355:37|392:32,1,63.7500006437302
235,338,171427,2,0,P|218:350|147:347,1,63.7500006437302
448,133,171650,2,0,P|486:118|533:110,1,63.7500006437302
74,287,171872,2,0,P|27:298|-23:304,1,63.7500006437302
190,140,172094,5,0,0:0:0:0:
203,297,172205,1,0,0:0:0:0:
311,55,172316,1,0,0:0:0:0:
311,55,172427,2,0,L|374:58,1,63.7500006437302
415,150,172650,5,0,0:0:0:0:
181,62,172761,1,0,0:0:0:0:
416,165,172872,1,0,0:0:0:0:
117,237,172983,6,0,B|97:200|98:200|97:201|97:201|102:87,1,127.50000128746
214,207,173205,2,0,B|240:238|240:238|237:371,1,127.50000128746
232,7,173427,2,0,B|190:47|190:47|189:132,1,127.50000128746
127,321,173650,1,0,0:0:0:0:
42,200,173761,1,0,0:0:0:0:
273,132,173872,6,0,B|198:145|198:145|138:145,1,127.50000128746
320,50,174094,2,0,B|362:20|362:20|470:21,1,127.50000128746
318,227,174316,2,0,B|279:247|279:247|180:246,1,127.50000128746
384,124,174538,2,0,P|443:225|353:338,1,255.000002574921
375,330,174872,1,0,0:0:0:0:
158,277,174983,2,0,B|195:261|195:262|195:262|300:252,1,127.50000128746
69,212,175205,1,0,0:0:0:0:
228,129,175427,5,0,0:0:0:0:
75,210,175538,2,0,B|120:166|120:166|239:168,1,127.50000128746
256,239,175761,1,0,0:0:0:0:
161,41,175872,1,0,0:0:0:0:
161,41,175983,2,0,B|200:71|200:71|307:72,1,127.50000128746
361,149,176205,1,0,0:0:0:0:
433,16,176316,1,0,0:0:0:0:
244,211,176538,5,0,0:0:0:0:
349,148,176650,1,0,0:0:0:0:
331,264,176761,1,0,0:0:0:0:
242,189,176872,1,0,0:0:0:0:
347,136,176983,6,0,B|277:111|277:111|209:116,1,127.50000128746
92,190,177205,1,0,0:0:0:0:
239,199,177316,1,0,0:0:0:0:
152,95,177427,1,0,0:0:0:0:
86,278,177538,1,0,0:0:0:0:
31,97,177650,1,0,0:0:0:0:
173,353,177872,5,0,0:0:0:0:
346,67,178094,5,0,0:0:0:0:
451,145,178205,1,0,0:0:0:0:
355,269,178316,5,0,0:0:0:0:
321,190,178427,1,0,0:0:0:0:
300,334,178538,1,0,0:0:0:0:
244,136,178650,5,0,0:0:0:0:
206,214,178761,1,0,0:0:0:0:
188,62,178872,1,0,0:0:0:0:
124,273,178983,5,0,0:0:0:0:
60,205,179094,1,0,0:0:0:0:
66,117,179205,5,0,0:0:0:0:
18,217,179316,1,0,0:0:0:0:
76,335,179427,2,0,B|71:294|87:241|87:241|64:274|23:288,1,127.50000128746
154,72,179650,2,0,P|122:129|53:158,1,127.50000128746
244,45,179872,1,0,0:0:0:0:
298,164,179983,1,0,0:0:0:0:
422,134,180094,5,0,0:0:0:0:
216,218,180316,2,0,B|215:232|215:232|222:271|195:245|151:233|151:233|119:207,1,127.50000128746
295,159,180538,2,0,P|314:211|291:309,1,127.50000128746
210,121,180761,1,0,0:0:0:0:
392,164,180872,1,0,0:0:0:0:
407,148,181094,5,0,0:0:0:0:
187,234,181205,1,0,0:0:0:0:
356,273,181316,1,0,0:0:0:0:
251,118,181427,2,0,B|229:81|229:81|124:54,1,127.50000128746
100,181,181650,2,0,B|59:205|59:205|29:324,1,127.50000128746
282,150,181872,5,0,0:0:0:0:
176,274,181983,1,0,0:0:0:0:
189,117,182094,1,0,0:0:0:0:
271,342,182205,1,0,0:0:0:0:
344,224,182316,1,0,0:0:0:0:
344,224,182538,5,0,0:0:0:0:
266,290,182650,1,0,0:0:0:0:
172,318,182761,1,0,0:0:0:0:
83,295,182872,1,0,0:0:0:0:
22,220,182983,2,0,B|41:261|41:261|12:363,1,127.50000128746
127,100,183205,2,0,B|165:58|165:58|247:32,1,127.50000128746
308,103,183427,1,0,0:0:0:0:
75,1,183538,1,0,0:0:0:0:
118,195,183650,5,0,0:0:0:0:
215,356,183761,1,0,0:0:0:0:
226,166,183872,2,0,B|213:238|213:238|172:273,1,127.50000128746
142,51,184094,6,0,B|208:34|208:34|344:108,1,127.50000128746
336,13,184316,1,0,0:0:0:0:
119,146,184427,1,0,0:0:0:0:
435,152,184538,5,0,0:0:0:0:
266,277,184650,1,0,0:0:0:0:
255,83,184761,2,0,P|209:128|220:221,1,127.50000128746
390,249,184983,2,0,B|359:194|359:194|281:173,1,127.50000128746
123,220,185205,1,0,0:0:0:0:
211,326,185316,1,0,0:0:0:0:
66,234,185427,5,0,0:0:0:0:
143,85,185538,1,0,0:0:0:0:
148,180,185650,1,0,0:0:0:0:
157,272,185761,1,0,0:0:0:0:
239,137,185872,5,0,0:0:0:0:
285,312,185983,1,0,0:0:0:0:
315,215,186094,1,0,0:0:0:0:
344,121,186205,1,0,0:0:0:0:
418,188,186316,5,0,0:0:0:0:
481,109,186427,1,0,0:0:0:0:
236,195,186538,1,0,0:0:0:0:
308,132,186650,1,0,0:0:0:0:
345,259,186761,5,0,0:0:0:0:
169,296,186872,1,0,0:0:0:0:
45,204,186983,1,0,0:0:0:0:
45,204,187094,1,0,0:0:0:0:
173,161,187205,6,0,P|141:213|138:261,1,84.9999976158143
217,359,187427,1,0,0:0:0:0:
294,141,187538,1,0,0:0:0:0:
294,141,187649,2,0,P|279:88|248:59,1,84.9999976158143
156,14,187872,1,0,0:0:0:0:
264,254,187983,1,0,0:0:0:0:
242,265,188205,5,0,0:0:0:0:
61,123,188316,1,0,0:0:0:0:
375,71,188538,5,0,0:0:0:0:
108,272,188760,5,0,0:0:0:0:
215,214,188872,1,0,0:0:0:0:
46,182,188983,1,0,0:0:0:0:
107,364,189094,1,0,0:0:0:0:
128,134,189205,2,0,P|147:179|148:250,1,84.9999976158143
293,384,189427,2,0,P|309:343|339:291,1,84.9999976158143
442,166,189649,1,0,0:0:0:0:
234,277,189872,6,0,P|233:242|212:184,1,84.9999976158143
372,88,190094,2,0,P|317:96|266:90,1,84.9999976158143
154,384,190316,2,0,P|159:329|144:284,1,84.9999976158143
502,0,190538,2,0,P|467:12|405:15,1,84.9999976158143
99,90,190760,6,0,P|199:52|301:70,1,169.999995231629
406,121,191094,1,0,0:0:0:0:
313,288,191205,2,0,P|302:241|309:153,1,84.9999976158143
358,33,191427,1,0,0:0:0:0:
202,160,191538,2,0,P|251:115|269:67,1,84.9999976158143
108,186,191760,1,0,0:0:0:0:
177,343,191872,1,0,0:0:0:0:
5,138,192094,5,0,0:0:0:0:
177,343,192316,5,0,0:0:0:0:
213,92,192427,2,0,L|253:269,1,169.999995231629
296,24,192760,1,0,0:0:0:0:
453,193,192983,5,0,0:0:0:0:
383,295,193094,1,0,0:0:0:0:
302,133,193205,2,0,L|360:224,1,84.9999976158143
200,171,193427,5,0,0:0:0:0:
213,286,193538,1,0,0:0:0:0:
101,219,193649,2,0,L|59:323,1,84.9999976158143
226,259,193872,2,0,L|277:362,1,84.9999976158143
362,190,194094,2,0,L|478:190,1,84.9999976158143
318,79,194316,6,0,P|236:54|185:57,1,84.9999976158143
86,112,194538,1,0,0:0:0:0:
86,112,194649,2,0,P|148:180|183:295,1,169.999995231629
120,355,194983,1,0,0:0:0:0:
283,236,195094,1,0,0:0:0:0:
98,230,195205,1,0,0:0:0:0:
216,333,195316,1,0,0:0:0:0:
255,146,195427,1,0,0:0:0:0:
420,308,195649,5,0,0:0:0:0:
61,202,195872,5,0,0:0:0:0:
269,137,195983,2,0,P|213:100|150:91,1,84.9999976158143
217,236,196205,1,0,0:0:0:0:
105,40,196316,1,0,0:0:0:0:
105,40,196538,5,0,0:0:0:0:
229,164,196649,1,0,0:0:0:0:
338,32,196760,1,0,0:0:0:0:
338,32,196983,6,0,P|310:83|304:142,1,84.9999976158143
228,344,197205,2,0,P|259:298|261:234,1,84.9999976158143
490,88,197427,2,0,P|433:96|382:123,1,84.9999976158143
352,315,197649,1,0,0:0:0:0:
434,217,197760,1,0,0:0:0:0:
70,261,197872,6,0,P|132:233|189:236,1,84.9999976158143
240,292,198094,1,0,0:0:0:0:
166,133,198205,1,0,0:0:0:0:
386,277,198316,2,0,P|341:249|308:187,1,84.9999976158143
277,106,198538,1,0,0:0:0:0:
277,106,198649,2,0,P|237:141|203:210,1,84.9999976158143
171,280,198872,1,0,0:0:0:0:
55,226,198983,1,0,0:0:0:0:
434,292,199205,5,0,0:0:0:0:
501,42,199427,5,0,0:0:0:0:
313,104,199538,1,0,0:0:0:0:
95,170,199649,2,0,P|169:158|275:186,1,169.999995231629
370,254,199983,1,0,0:0:0:0:
489,94,200094,2,0,P|433:85|363:96,1,84.9999976158143
306,156,200316,1,0,0:0:0:0:
218,64,200427,1,0,0:0:0:0:
45,278,200538,6,0,P|45:341|28:404,1,84.9999976158143
141,100,200760,2,0,P|158:47|160:-11,1,84.9999976158143
258,297,200983,1,0,0:0:0:0:
332,96,201094,1,0,0:0:0:0:
295,303,201205,1,0,0:0:0:0:
242,69,201316,1,0,0:0:0:0:
402,332,201427,6,0,P|439:289|501:272,1,84.9999976158143
203,266,201649,2,0,P|214:316|215:389,1,84.9999976158143
348,124,201872,2,0,P|319:75|303:31,1,84.9999976158143
319,261,202094,1,0,0:0:0:0:
202,148,202205,1,0,0:0:0:0:
400,193,202316,2,0,L|501:161,1,84.9999976158143
319,127,202538,5,0,0:0:0:0:
221,65,202649,1,0,0:0:0:0:
68,190,202760,6,0,P|124:164|169:104,1,84.9999976158143
377,72,202983,1,0,0:0:0:0:
270,39,203094,1,0,0:0:0:0:
455,229,203205,2,0,B|403:224|403:224|363:173,1,84.9999976158143
198,35,203427,2,0,P|237:124|227:238,1,169.999995231629
196,327,203760,1,0,0:0:0:0:
9,158,203872,2,0,P|97:154|193:97,1,169.999995231629
284,42,204205,1,0,0:0:0:0:
484,189,204316,6,0,P|427:195|353:202,1,84.9999976158143
321,339,204538,2,0,P|254:326|202:296,1,84.9999976158143
74,377,204760,2,0,P|47:350|1:290,1,84.9999976158143
162,35,204983,6,0,P|201:86|223:187,1,169.999995231629
164,279,205316,1,0,0:0:0:0:
351,207,205427,1,0,0:0:0:0:
351,207,205649,5,0,0:0:0:0:
212,141,205760,1,0,0:0:0:0:
441,86,205872,2,0,P|356:71|296:81,1,84.9999976158143
249,224,206094,1,0,0:0:0:0:
476,343,206316,5,0,0:0:0:0:
442,175,206538,5,0,0:0:0:0:
316,282,206649,1,0,0:0:0:0:
392,343,206760,5,0,0:0:0:0:
355,196,206872,1,0,0:0:0:0:
512,244,206983,1,0,0:0:0:0:
127,359,207205,5,0,0:0:0:0:
115,232,207317,1,0,0:0:0:0:
227,172,207428,1,0,0:0:0:0:
116,367,207538,2,0,P|162:325|210:306,1,84.9999976158143
312,328,207760,1,0,0:0:0:0:
105,201,207872,6,0,P|106:264|123:325,1,84.9999976158143
254,20,208094,2,0,P|206:45|174:73,1,84.9999976158143
462,159,208316,2,0,P|426:120|360:91,1,84.9999976158143
273,244,208538,6,0,B|353:288|350:229|470:271,1,169.999995231629
259,343,208872,2,0,P|214:336|162:251,1,84.9999976158143
151,192,209094,1,0,0:0:0:0:
328,47,209205,2,0,L|301:175,1,84.9999976158143
353,225,209427,1,0,0:0:0:0:
228,87,209538,1,0,0:0:0:0:
440,123,209649,1,0,0:0:0:0:
440,123,209872,5,0,0:0:0:0:
440,123,210094,5,0,0:0:0:0:
495,0,210205,1,0,0:0:0:0:
374,218,210316,1,0,0:0:0:0:
341,74,210427,1,0,0:0:0:0:
232,171,210538,1,0,0:0:0:0:
232,171,210760,5,0,0:0:0:0:
392,153,210872,1,0,0:0:0:0:
264,297,210983,2,0,P|306:250|366:223,1,84.9999976158143
134,207,211205,6,0,P|109:272|113:341,1,84.9999976158143
279,103,211427,2,0,P|242:56|193:30,1,84.9999976158143
341,325,211649,2,0,P|401:333|482:309,1,84.9999976158143
202,200,211872,1,0,0:0:0:0:
246,370,211983,1,0,0:0:0:0:
398,230,212094,6,0,P|395:154|351:52,1,169.999995231629
462,0,212427,1,0,0:0:0:0:
297,182,212538,2,0,P|262:138|269:86,1,84.9999976158143
153,70,212760,1,0,0:0:0:0:
217,272,212872,1,0,0:0:0:0:
301,234,212983,1,0,0:0:0:0:
142,209,213094,1,0,0:0:0:0:
332,353,213205,1,0,0:0:0:0:
19,270,213427,5,0,0:0:0:0:
144,147,213649,5,0,0:0:0:0:
215,354,213760,1,0,0:0:0:0:
229,47,213872,2,0,P|253:106|247:193,1,84.9999976158143
67,343,214094,2,0,P|126:300|172:289,1,84.9999976158143
438,239,214316,1,0,0:0:0:0:
323,282,214427,1,0,0:0:0:0:
223,196,214538,2,0,P|181:165|114:155,1,84.9999976158143
392,204,214760,5,0,0:0:0:0:
298,335,214872,1,0,0:0:0:0:
136,313,214983,2,0,P|127:277|104:225,1,84.9999976158143
129,59,215205,5,0,0:0:0:0:
342,133,215316,1,0,0:0:0:0:
200,203,215427,1,0,0:0:0:0:
401,284,215538,1,0,0:0:0:0:
133,347,215649,5,0,0:0:0:0:
133,347,215872,2,0,L|89:281,1,42.4999988079071
181,54,216316,1,0,0:0:0:0:
135,310,216538,5,0,0:0:0:0:
143,332,216650,1,0,0:0:0:0:
165,347,216983,1,0,0:0:0:0:
212,112,217205,5,0,0:0:0:0:
232,232,217316,1,0,0:0:0:0:
317,82,217427,2,0,P|266:65|208:70,1,84.9999976158143
148,104,217760,1,0,0:0:0:0:
198,310,218094,1,0,0:0:0:0:
425,149,218316,5,0,0:0:0:0:
325,114,218427,1,0,0:0:0:0:
241,139,218538,1,0,0:0:0:0:
197,211,218649,1,0,0:0:0:0:
236,279,218760,1,0,0:0:0:0:
284,292,218872,1,0,0:0:0:0:
319,279,218983,2,0,L|368:262,1,42.4999988079071
128,232,219205,5,0,0:0:0:0:
178,153,219427,2,0,L|143:181,2,42.4999988079071
317,222,219872,1,0,0:0:0:0:
401,101,220094,5,0,0:0:0:0:
229,248,220205,1,0,0:0:0:0:
415,322,220538,5,0,0:0:0:0:
308,39,220760,1,0,0:0:0:0:
88,158,220983,2,0,L|162:152,2,42.4999988079071
88,158,221427,1,0,0:0:0:0:
251,147,221649,1,0,0:0:0:0:
410,133,221872,5,0,0:0:0:0:
314,87,221983,1,0,0:0:0:0:
276,200,222094,1,0,0:0:0:0:
184,164,222205,1,0,0:0:0:0:
95,107,222316,5,0,0:0:0:0:
18,155,222427,1,0,0:0:0:0:
43,245,222538,1,0,0:0:0:0:
198,270,222760,5,0,0:0:0:0:
215,86,222872,1,0,0:0:0:0:
0,15,222983,1,0,0:0:0:0:
512,0,223205,5,0,0:0:0:0:
309,84,223316,1,0,0:0:0:0:
336,270,223427,1,0,0:0:0:0:
145,214,223649,5,0,0:0:0:0:
91,334,223760,1,0,0:0:0:0:
68,128,223872,2,0,P|123:110|176:113,1,63.7500006437302
280,193,224094,2,0,P|244:210|192:223,1,63.7500006437302
139,20,224316,2,0,P|191:28|236:51,1,63.7500006437302
369,257,224538,1,0,0:0:0:0:
55,58,224760,5,0,0:0:0:0:
369,257,224983,1,0,0:0:0:0:
299,326,225094,1,0,0:0:0:0:
237,211,225205,1,0,0:0:0:0:
166,323,225316,1,0,0:0:0:0:
81,239,225427,6,0,P|65:171|72:129,1,63.7500006437302
234,33,225649,2,0,P|203:39|173:51,1,63.7500006437302
370,118,225872,2,0,P|404:185|397:215,1,63.7500006437302
363,257,226094,1,0,0:0:0:0:
498,138,226205,1,0,0:0:0:0:
180,155,226316,6,0,P|237:183|311:110,1,169.999995231629
209,69,226538,2,0,P|159:43|93:130,1,169.999995231629
348,243,226760,1,0,0:0:0:0:
138,217,226983,6,0,L|19:222,1,84.9999976158143
248,116,227205,2,0,L|143:114,1,84.9999976158143
347,284,227427,2,0,L|214:319,1,84.9999976158143
454,78,227649,2,0,L|355:61,1,84.9999976158143
212,113,227872,5,0,0:0:0:0:
483,180,227983,1,0,0:0:0:0:
112,274,228094,2,0,L|227:274,1,84.9999976158143
394,102,228316,1,0,0:0:0:0:
394,102,228538,5,0,0:0:0:0:
253,277,228649,1,0,0:0:0:0:
294,31,228760,1,0,0:0:0:0:
343,329,228872,1,0,0:0:0:0:
187,197,228983,5,0,0:0:0:0:
87,154,229094,1,0,0:0:0:0:
267,124,229205,1,0,0:0:0:0:
200,296,229316,1,0,0:0:0:0:
323,265,229427,5,0,0:0:0:0:
341,33,229538,1,0,0:0:0:0:
413,348,229649,5,0,0:0:0:0:
476,136,229760,1,0,0:0:0:0:
497,121,229872,6,0,P|381:85|217:146,1,255.000002574921
211,221,230206,1,0,0:0:0:0:
93,52,230317,2,0,P|80:103|101:210,1,127.50000128746
33,350,230539,2,0,P|124:356|232:228,1,255.000002574921
334,300,230873,1,0,0:0:0:0:
383,181,230984,2,0,P|447:187|507:209,1,127.50000128746
268,127,231207,1,0,0:0:0:0:
268,127,231429,5,0,0:0:0:0:
312,2,231539,1,0,0:0:0:0:
196,240,231651,5,0,0:0:0:0:
155,64,231762,1,0,0:0:0:0:
45,268,231872,2,0,P|87:235|223:207,1,127.50000128746
313,289,232096,5,0,0:0:0:0:
189,370,232207,1,0,0:0:0:0:
272,183,232317,2,0,P|267:239|283:333,1,127.50000128746
280,77,232540,5,0,0:0:0:0:
382,249,232651,1,0,0:0:0:0:
189,150,232762,1,0,0:0:0:0:
424,156,232873,1,0,0:0:0:0:
424,156,233096,5,0,0:0:0:0:
246,112,233206,1,0,0:0:0:0:
482,50,233317,1,0,0:0:0:0:
169,158,233428,6,0,P|159:92|102:9,1,127.50000128746
84,187,233650,1,0,0:0:0:0:
244,84,233761,1,0,0:0:0:0:
271,351,233872,6,0,P|313:309|356:243,1,127.50000128746
277,199,234095,1,0,0:0:0:0:
380,362,234206,1,0,0:0:0:0:
369,368,234428,5,0,0:0:0:0:
438,99,234539,1,0,0:0:0:0:
32,259,234761,5,0,0:0:0:0:
265,66,234984,5,0,0:0:0:0:
359,124,235095,1,0,0:0:0:0:
210,161,235206,5,0,0:0:0:0:
153,260,235317,1,0,0:0:0:0:
218,344,235428,1,0,0:0:0:0:
336,265,235539,5,0,0:0:0:0:
396,177,235650,1,0,0:0:0:0:
331,91,235761,1,0,0:0:0:0:
226,54,235873,5,0,0:0:0:0:
346,0,235984,1,0,0:0:0:0:
212,146,236095,5,0,0:0:0:0:
105,107,236206,1,0,0:0:0:0:
62,208,236317,1,0,0:0:0:0:
167,252,236428,1,0,0:0:0:0:
95,326,236539,5,0,0:0:0:0:
201,363,236650,1,0,0:0:0:0:
307,348,236761,1,0,0:0:0:0:
398,293,236872,1,0,0:0:0:0:
465,185,236984,6,0,P|407:203|331:210,1,127.50000128746
256,165,237207,1,0,0:0:0:0:
409,73,237317,1,0,0:0:0:0:
95,59,237428,6,0,P|149:42|227:43,1,127.50000128746
300,95,237651,1,0,0:0:0:0:
130,196,237761,1,0,0:0:0:0:
313,240,237872,5,0,0:0:0:0:
235,90,237984,1,0,0:0:0:0:
194,302,238095,2,0,P|214:266|236:168,1,127.50000128746
120,53,238318,1,0,0:0:0:0:
406,144,238539,5,0,0:0:0:0:
319,224,238650,1,0,0:0:0:0:
313,99,238762,1,0,0:0:0:0:
400,282,238873,1,0,0:0:0:0:
476,70,238984,1,0,0:0:0:0:
172,102,239207,5,0,0:0:0:0:
105,188,239318,1,0,0:0:0:0:
0,162,239429,1,0,0:0:0:0:
278,177,239651,5,0,0:0:0:0:
278,177,239762,1,0,0:0:0:0:
371,139,239873,5,0,0:0:0:0:
279,281,239984,1,0,0:0:0:0:
238,75,240095,5,0,0:0:0:0:
379,311,240206,1,0,0:0:0:0:
345,221,240317,1,0,0:0:0:0:
251,206,240428,1,0,0:0:0:0:
281,42,240539,6,0,P|372:34|448:72,1,127.50000128746
171,139,240761,2,0,P|91:162|16:158,1,127.50000128746
297,213,240984,1,0,0:0:0:0:
148,253,241206,5,0,0:0:0:0:
451,200,241317,1,0,0:0:0:0:
96,161,241428,2,0,L|-25:234,1,127.50000128746
150,60,241650,1,0,0:0:0:0:
333,337,241873,5,0,0:0:0:0:
94,192,242095,5,0,0:0:0:0:
94,192,242206,1,0,0:0:0:0:
156,94,242317,5,0,0:0:0:0:
246,225,242428,1,0,0:0:0:0:
408,242,242539,1,0,0:0:0:0:
175,323,242761,5,0,0:0:0:0:
352,136,242984,5,0,0:0:0:0:
131,167,243095,1,0,0:0:0:0:
124,183,243317,5,0,0:0:0:0:
372,52,243428,1,0,0:0:0:0:
308,250,243650,5,0,0:0:0:0:
140,156,243761,1,0,0:0:0:0:
326,246,243873,1,0,0:0:0:0:
147,98,243984,1,0,0:0:0:0:
334,230,244095,6,0,P|392:219|475:218,1,127.50000128746
196,267,244317,2,0,P|169:309|152:385,1,127.50000128746
70,189,244539,2,0,P|57:150|-3:81,1,127.50000128746
103,29,244761,5,0,0:0:0:0:
322,144,244872,2,0,P|365:169|462:170,1,127.50000128746
274,45,245095,1,0,0:0:0:0:
216,270,245206,1,0,0:0:0:0:
470,80,245428,5,0,0:0:0:0:
158,52,245650,5,0,0:0:0:0:
134,306,245761,1,0,0:0:0:0:
116,296,245984,5,0,0:0:0:0:
26,39,246095,1,0,0:0:0:0:
239,139,246317,5,0,0:0:0:0:
69,204,246428,1,0,0:0:0:0:
339,228,246539,2,0,P|275:219|185:242,1,127.50000128746
364,79,246761,2,0,P|418:100|504:93,1,127.50000128746
485,198,246984,5,0,0:0:0:0:
276,123,247095,1,0,0:0:0:0:
254,118,247317,5,0,0:0:0:0:
367,195,247428,1,0,0:0:0:0:
311,18,247539,1,0,0:0:0:0:
195,233,247650,6,0,P|139:219|54:220,1,127.50000128746
31,141,247872,1,0,0:0:0:0:
114,306,247984,1,0,0:0:0:0:
296,123,248095,6,0,P|350:96|435:86,1,127.50000128746
497,35,248317,1,0,0:0:0:0:
419,174,248428,1,0,0:0:0:0:
207,187,248539,5,0,0:0:0:0:
270,348,248650,1,0,0:0:0:0:
117,250,248761,2,0,P|181:275|263:259,1,127.50000128746
88,129,248984,2,0,P|50:147|-5:232,1,127.50000128746
169,164,249206,1,0,0:0:0:0:
99,46,249317,1,0,0:0:0:0:
297,146,249428,6,0,L|424:61,1,127.50000128746
479,22,249650,1,0,0:0:0:0:
215,234,249761,6,0,L|105:324,1,127.50000128746
36,372,249984,1,0,0:0:0:0:
239,124,250095,5,0,0:0:0:0:
298,314,250206,1,0,0:0:0:0:
366,174,250317,6,0,L|510:198,1,127.50000128746
215,227,250539,1,0,0:0:0:0:
277,72,250650,1,0,0:0:0:0:
39,58,250761,6,0,P|98:76|191:63,1,127.50000128746
252,25,250984,1,0,0:0:0:0:
345,180,251095,1,0,0:0:0:0:
512,47,251206,6,0,P|412:57|268:157,1,255.000002574921
313,264,251539,1,0,0:0:0:0:
58,215,251650,2,0,L|190:197,1,127.50000128746
426,332,251872,2,0,L|288:305,1,127.50000128746
209,194,252095,1,0,0:0:0:0:
163,349,252206,1,0,0:0:0:0:
79,248,252317,2,0,P|91:186|157:125,1,127.50000128746
362,234,252539,2,0,P|320:225|236:166,1,127.50000128746
47,52,252761,6,0,P|141:49|277:150,1,255.000002574921
284,258,253095,1,0,0:0:0:0:
502,309,253206,2,0,P|457:315|358:292,1,127.50000128746
234,186,253428,2,0,P|193:195|117:254,1,127.50000128746
40,384,253650,1,0,0:0:0:0:
106,241,253872,5,0,0:0:0:0:
40,384,253984,1,0,0:0:0:0:
32,174,254095,5,0,0:0:0:0:
40,384,254206,1,0,0:0:0:0:
218,227,254317,1,0,0:0:0:0:
218,227,254539,5,0,0:0:0:0:
447,143,254650,1,0,0:0:0:0:
88,59,254761,2,0,P|115:140|94:58,2,255.000002574921
97,87,255428,5,0,0:0:0:0:
472,196,255539,1,0,0:0:0:0:
346,94,255650,1,0,0:0:0:0:
221,184,255761,1,0,0:0:0:0:
97,87,255872,1,0,0:0:0:0:
188,318,256095,5,0,0:0:0:0:
279,46,256317,5,0,0:0:0:0:
169,84,256428,1,0,0:0:0:0:
377,78,256539,5,0,0:0:0:0:
441,213,256650,1,0,0:0:0:0:
284,205,256761,1,0,0:0:0:0:
365,166,256872,1,0,0:0:0:0:
337,310,256984,5,0,0:0:0:0:
182,226,257095,1,0,0:0:0:0:
234,315,257206,1,0,0:0:0:0:
279,223,257317,1,0,0:0:0:0:
84,162,257428,5,0,0:0:0:0:
172,118,257539,1,0,0:0:0:0:
279,121,257650,1,0,0:0:0:0:
341,182,257761,1,0,0:0:0:0:
354,264,257872,5,0,0:0:0:0:
69,60,257984,1,0,0:0:0:0:
160,293,258095,1,0,0:0:0:0:
309,99,258206,1,0,0:0:0:0:
411,81,258316,6,0,P|419:141|413:202,2,84.9999976158143
312,5,258982,1,0,0:0:0:0:
485,285,259205,2,0,B|402:299|402:299|331:253|331:253|231:272,1,254.999992847443
128,299,260094,2,0,P|105:366|103:404,2,84.9999976158143
128,299,260760,1,0,0:0:0:0:
88,213,260871,1,0,0:0:0:0:
154,137,260982,2,0,P|205:155|272:148,1,84.9999976158143
402,103,261427,1,0,0:0:0:0:
222,30,261649,6,0,P|147:14|107:17,1,84.9999976158143
21,156,262094,2,0,L|91:154,2,42.4999988079071
150,250,262538,1,0,0:0:0:0:
366,84,262760,1,0,0:0:0:0:
150,250,262982,1,0,0:0:0:0:
490,368,263205,1,0,0:0:0:0:
39,107,263427,6,0,B|131:70|125:161|238:116,3,169.999995231629
202,126,264982,1,0,0:0:0:0:
74,252,265205,1,0,0:0:0:0:
292,119,265427,6,0,P|314:182|314:238,1,84.9999976158143
203,91,265760,2,0,L|359:63,1,127.499996423721
484,155,266316,1,0,0:0:0:0:
289,195,266538,1,0,0:0:0:0:
394,239,266760,1,0,0:0:0:0:
474,144,266982,1,0,0:0:0:0:
173,113,267427,5,0,0:0:0:0:
185,125,267649,1,0,0:0:0:0:
193,137,267871,5,0,0:0:0:0:
109,167,267982,1,0,0:0:0:0:
25,135,268094,1,0,0:0:0:0:
164,263,268316,2,0,P|213:305|223:333,2,84.9999976158143
389,64,269094,5,0,0:0:0:0:
352,44,269205,5,0,0:0:0:0:
420,164,269427,1,0,0:0:0:0:
497,3,269649,1,0,0:0:0:0:
171,100,269871,1,0,0:0:0:0:
244,257,270094,5,0,0:0:0:0:
40,34,270316,5,0,0:0:0:0:
382,149,270538,2,0,P|451:121|532:127,2,127.499996423721
189,238,271427,1,0,0:0:0:0:
250,296,271538,1,0,0:0:0:0:
337,297,271649,1,0,0:0:0:0:
117,338,271871,1,0,0:0:0:0:
105,330,272316,1,0,0:0:0:0:
459,208,272538,6,0,P|441:162|416:125,1,84.9999976158143
348,88,272871,1,0,0:0:0:0:
319,260,272982,1,0,0:0:0:0:
263,133,273205,1,0,0:0:0:0:
241,345,273427,5,0,0:0:0:0:
185,67,273649,1,0,0:0:0:0:
146,274,273871,1,0,0:0:0:0:
86,116,274094,1,0,0:0:0:0:
275,76,274316,6,0,P|210:37|174:35,2,84.9999976158143
439,139,274982,1,0,0:0:0:0:
377,205,275094,1,0,0:0:0:0:
293,199,275205,1,0,0:0:0:0:
439,296,275427,6,0,P|484:315|517:342,2,84.9999976158143
252,221,276094,1,0,0:0:0:0:
376,179,276316,2,0,L|410:151,1,42.4999988079071
193,230,276760,1,0,0:0:0:0:
52,94,276982,2,0,P|116:118|159:150,2,84.9999976158143
199,225,277649,2,0,P|239:167|245:107,1,127.499996423721
246,111,278094,1,0,0:0:0:0:
272,311,278316,1,0,0:0:0:0:
337,62,278649,2,0,L|291:41,1,42.4999988079071
485,203,278982,5,0,0:0:0:0:
38,249,279205,1,0,0:0:0:0:
38,249,279427,2,0,L|87:272,1,42.4999988079071
65,152,279649,6,0,P|130:139|168:150,1,84.9999976158143
214,210,279982,1,0,0:0:0:0:
294,160,280094,1,0,0:0:0:0:
427,227,280316,1,0,0:0:0:0:
151,70,280538,6,0,P|200:64|257:79,1,84.9999976158143
426,263,280982,1,0,0:0:0:0:
246,166,281205,1,0,0:0:0:0:
88,250,281427,2,0,B|106:296|106:296|184:338|230:240|323:308,1,254.999992847443
393,344,282205,1,0,0:0:0:0:
361,230,282316,1,0,0:0:0:0:
405,74,282538,6,0,P|309:69|278:110,1,127.499996423721
321,229,282982,2,0,B|345:194|349:155|349:155|376:175|392:204,1,127.499996423721
432,265,283427,1,0,0:0:0:0:
429,270,283538,2,0,L|279:265,1,127.499996423721
175,123,284094,1,0,0:0:0:0:
390,365,284316,1,0,0:0:0:0:
269,39,284538,1,0,0:0:0:0:
70,258,284760,6,0,P|148:268|182:263,1,84.9999976158143
239,239,285094,1,0,0:0:0:0:
355,293,285427,1,0,0:0:0:0:
192,352,285760,1,0,0:0:0:0:
109,288,285871,5,0,0:0:0:0:
277,308,285982,1,0,0:0:0:0:
62,195,286094,6,0,L|16:183,1,42.4999988079071
342,151,286316,1,0,0:0:0:0:
342,151,286538,5,0,0:0:0:0:
212,114,286649,1,0,0:0:0:0:
246,242,286761,1,0,0:0:0:0:
391,80,290761,6,0,P|446:56|545:50,1,127.50000128746
295,173,290983,2,0,P|231:171|174:143,1,127.50000128746
2,31,291205,2,0,P|65:24|128:37,1,127.50000128746
233,73,291427,1,0,0:0:0:0:
77,320,291538,2,0,P|90:269|76:175,1,127.50000128746
11,124,291761,1,0,0:0:0:0:
179,260,291872,2,0,P|238:276|337:277,2,127.50000128746
396,184,292316,5,0,0:0:0:0:
282,365,292427,1,0,0:0:0:0:
200,194,292538,1,0,0:0:0:0:
358,313,292649,1,0,0:0:0:0:
292,124,292761,2,0,P|249:198|172:288,1,127.50000128746
256,44,292983,1,0,0:0:0:0:
328,244,293094,1,0,0:0:0:0:
367,28,293205,1,0,0:0:0:0:
480,149,293316,1,0,0:0:0:0:
231,137,293427,6,0,L|358:133,1,127.50000128746
422,51,293649,1,0,0:0:0:0:
312,228,293761,1,0,0:0:0:0:
145,39,293872,2,0,L|290:45,1,127.50000128746
52,244,294094,2,0,L|198:243,1,127.50000128746
27,103,294316,5,0,0:0:0:0:
273,366,294538,1,0,0:0:0:0:
470,20,294761,1,0,0:0:0:0:
80,45,294983,5,0,0:0:0:0:
351,121,295094,1,0,0:0:0:0:
73,159,295205,1,0,0:0:0:0:
207,85,295316,1,0,0:0:0:0:
341,17,295427,2,0,P|398:43|464:91,1,127.50000128746
443,313,295649,2,0,P|397:288|342:234,1,127.50000128746
160,39,295872,2,0,P|62:92|20:152,1,127.50000128746
254,84,296094,5,0,0:0:0:0:
360,130,296205,1,0,0:0:0:0:
336,16,296316,1,0,0:0:0:0:
207,144,296427,5,0,0:0:0:0:
336,136,296538,1,0,0:0:0:0:
249,23,296649,1,0,0:0:0:0:
161,194,296761,5,0,0:0:0:0:
273,114,296872,1,0,0:0:0:0:
140,75,296983,5,0,0:0:0:0:
76,187,297094,1,0,0:0:0:0:
127,292,297205,1,0,0:0:0:0:
63,376,297316,1,0,0:0:0:0:
252,293,297427,6,0,P|177:296|105:320,1,127.50000128746
319,233,297649,1,0,0:0:0:0:
233,384,297761,1,0,0:0:0:0:
466,51,297872,6,0,B|416:71|416:71|364:146,1,127.50000128746
65,335,298094,2,0,B|111:308|111:308|165:227,1,127.50000128746
477,160,298316,2,0,B|431:150|431:150|317:185,1,127.50000128746
248,290,298538,1,0,0:0:0:0:
159,135,298649,2,0,L|211:320,1,127.50000128746
158,347,298872,1,0,0:0:0:0:
251,102,298983,2,0,P|308:52|409:47,1,127.50000128746
489,107,299205,2,0,P|425:137|331:145,1,127.50000128746
191,17,299427,5,0,0:0:0:0:
242,200,299538,1,0,0:0:0:0:
122,85,299649,2,0,B|102:130|102:130|111:256,1,127.50000128746
4,144,299872,1,0,0:0:0:0:
171,298,299983,1,0,0:0:0:0:
171,298,300094,2,0,B|116:316|116:316|4:307,1,127.50000128746
207,204,300316,1,0,0:0:0:0:
288,268,300427,1,0,0:0:0:0:
387,238,300538,1,0,0:0:0:0:
421,334,300649,1,0,0:0:0:0:
480,247,300761,6,0,L|513:376,1,127.50000128746
62,132,300983,2,0,L|-14:276,1,127.50000128746
428,25,301205,1,0,0:0:0:0:
198,84,301427,6,0,B|252:54|252:54|357:52,1,127.50000128746
286,290,301649,2,0,B|268:248|268:248|270:156,1,127.50000128746
96,31,301872,2,0,B|91:134|91:134|144:174,1,127.50000128746
364,134,302094,1,0,0:0:0:0:
170,234,302205,1,0,0:0:0:0:
377,30,302316,5,0,0:0:0:0:
324,265,302427,1,0,0:0:0:0:
265,57,302538,2,0,P|286:103|296:210,1,127.50000128746
43,84,302761,2,0,P|97:44|189:26,1,127.50000128746
195,237,302983,1,0,0:0:0:0:
95,183,303094,1,0,0:0:0:0:
304,282,303205,5,0,0:0:0:0:
229,337,303316,1,0,0:0:0:0:
143,315,303427,2,0,B|89:303|89:303|20:333,1,127.50000128746
315,200,303649,5,0,0:0:0:0:
219,217,303761,1,0,0:0:0:0:
395,231,303872,2,0,B|449:221|449:221|515:250,1,127.50000128746
233,128,304094,5,0,0:0:0:0:
67,125,304205,2,0,B|111:105|111:105|198:105,2,127.50000128746
229,10,304538,5,0,0:0:0:0:
200,196,304649,1,0,0:0:0:0:
288,102,304761,1,0,0:0:0:0:
286,271,304872,1,0,0:0:0:0:
375,147,304983,5,0,0:0:0:0:
477,89,305094,1,0,0:0:0:0:
307,54,305205,2,0,P|238:48|179:66,1,127.50000128746
375,147,305428,6,0,P|413:150|512:121,1,127.50000128746
306,223,305650,5,0,0:0:0:0:
463,272,305761,2,0,P|425:318|352:339,1,127.50000128746
286,289,305983,5,0,0:0:0:0:
382,112,306094,2,0,P|385:161|362:261,1,127.50000128746
210,378,306317,2,0,P|195:320|200:236,1,127.50000128746
238,84,306539,5,0,0:0:0:0:
302,261,306650,1,0,0:0:0:0:
174,164,306761,5,0,0:0:0:0:
126,317,306872,1,0,0:0:0:0:
63,243,306983,2,0,P|29:280|11:381,1,127.50000128746
295,192,307206,5,0,0:0:0:0:
372,236,307317,1,0,0:0:0:0:
205,198,307428,1,0,0:0:0:0:
388,271,307539,2,0,P|437:287|524:270,1,127.50000128746
205,98,307872,5,0,0:0:0:0:
288,334,307983,1,0,0:0:0:0:
253,304,308206,5,0,0:0:0:0:
308,38,308317,1,0,0:0:0:0:
158,279,308539,6,0,P|103:296|19:282,1,127.50000128746
404,120,308761,2,0,P|450:107|536:116,1,127.50000128746
81,182,308983,2,0,P|24:168|-24:118,1,127.50000128746
225,159,309206,5,0,0:0:0:0:
54,45,309317,2,0,P|94:42|187:72,1,127.50000128746
263,28,309539,5,0,0:0:0:0:
318,199,309650,1,0,0:0:0:0:
512,0,309872,5,0,0:0:0:0:
276,42,310094,5,0,0:0:0:0:
148,95,310206,1,0,0:0:0:0:
327,116,310317,5,0,0:0:0:0:
237,129,310428,1,0,0:0:0:0:
400,161,310539,1,0,0:0:0:0:
225,204,310650,5,0,0:0:0:0:
310,227,310761,1,0,0:0:0:0:
156,260,310872,1,0,0:0:0:0:
340,321,310983,5,0,0:0:0:0:
256,295,311094,1,0,0:0:0:0:
182,354,311206,5,0,0:0:0:0:
93,384,311317,1,0,0:0:0:0:
21,334,311428,1,0,0:0:0:0:
374,70,311650,1,0,0:0:0:0:
209,52,311761,1,0,0:0:0:0:
296,28,311872,1,0,0:0:0:0:
496,240,312094,6,0,P|438:258|359:252,1,127.50000128746
90,115,312317,2,0,P|152:89|237:91,1,127.50000128746
336,360,312539,2,0,P|294:323|273:212,1,127.50000128746
258,26,312761,5,0,0:0:0:0:
162,221,312872,2,0,P|163:163|198:91,1,127.50000128746
472,212,313094,5,0,0:0:0:0:
254,236,313205,2,0,P|296:210|376:194,1,127.50000128746
415,382,313428,6,0,P|356:359|309:306,1,127.50000128746
402,0,313650,2,0,P|430:51|445:136,1,127.50000128746
343,240,313872,1,0,0:0:0:0:
242,199,313983,1,0,0:0:0:0:
386,145,314094,2,0,P|439:137|517:148,1,127.50000128746
174,133,314317,5,0,0:0:0:0:
266,80,314428,1,0,0:0:0:0:
104,65,314539,2,0,P|59:40|-17:19,1,127.50000128746
131,232,314761,1,0,0:0:0:0:
379,365,314983,5,0,0:0:0:0:
26,111,315205,1,0,0:0:0:0:
492,15,315428,1,0,0:0:0:0:
185,236,315649,5,0,0:0:0:0:
256,48,315761,1,0,0:0:0:0:
290,187,315872,1,0,0:0:0:0:
76,126,315983,1,0,0:0:0:0:
332,116,316094,5,0,0:0:0:0:
107,260,316205,1,0,0:0:0:0:
175,64,316316,1,0,0:0:0:0:
183,340,316427,1,0,0:0:0:0:
291,33,316538,6,0,B|256:103|256:103|242:194,1,127.50000128746
282,300,316761,1,0,0:0:0:0:
282,300,316872,2,0,B|299:238|299:238|280:111,2,127.50000128746
193,355,317205,5,0,0:0:0:0:
390,179,317316,1,0,0:0:0:0:
95,134,317427,2,0,L|255:82,1,127.50000128746
290,23,317649,1,0,0:0:0:0:
183,204,317761,1,0,0:0:0:0:
363,269,317872,1,0,0:0:0:0:
305,160,317983,1,0,0:0:0:0:
297,344,318094,1,0,0:0:0:0:
448,226,318205,1,0,0:0:0:0:
204,29,318316,6,0,B|170:97|170:97|166:219,1,127.50000128746
179,344,318538,1,0,0:0:0:0:
278,139,318649,2,0,B|270:235|270:235|235:281,1,127.50000128746
314,31,318872,5,0,0:0:0:0:
77,188,318983,1,0,0:0:0:0:
324,319,319094,1,0,0:0:0:0:
