osu file format v14

[General]
AudioFilename: audio.mp3
AudioLeadIn: 0
PreviewTime: -1
Countdown: 1
SampleSet: None
StackLeniency: 0.7
Mode: 0
LetterboxInBreaks: 0
WidescreenStoryboard: 1

[Editor]
Bookmarks: 44983
DistanceSpacing: 1
BeatDivisor: 4
GridSize: 4
TimelineZoom: 1.7

[Metadata]
Title:Remind
TitleUnicode:Remind
Artist:Chata
ArtistUnicode:Chata
Creator:Epikem
Version:epidrum
Source:
Tags:touhou
BeatmapID:1436957
BeatmapSetID:679528

[Difficulty]
HPDrainRate:4
CircleSize:3
OverallDifficulty:8
ApproachRate:9.7
SliderMultiplier:3.39999990463257
SliderTickRate:2

[Events]
//Background and Video events
//Break Periods
//Storyboard Layer 0 (Background)
//Storyboard Layer 1 (Fail)
//Storyboard Layer 2 (Pass)
//Storyboard Layer 3 (Foreground)
//Storyboard Sound Samples

[TimingPoints]
539,444.444444444444,4,1,0,100,1,0

[HitObjects]
86,202,539,5,0,0:0:0:0:
292,246,761,1,0,0:0:0:0:
176,283,872,1,0,0:0:0:0:
304,258,983,6,0,P|233:303|127:322,1,169.999995231628
142,66,1427,5,0,0:0:0:0:
194,145,1538,1,0,0:0:0:0:
212,237,1650,1,0,0:0:0:0:
173,326,1761,1,0,0:0:0:0:
302,271,1872,2,0,P|376:309|445:392,1,169.999995231628
93,113,2316,5,0,0:0:0:0:
93,113,2427,1,0,0:0:0:0:
181,88,2539,1,0,0:0:0:0:
147,272,2761,5,0,0:0:0:0:
380,227,2983,5,0,0:0:0:0:
177,302,3094,1,0,0:0:0:0:
199,326,3316,5,0,0:0:0:0:
413,277,3427,1,0,0:0:0:0:
233,367,3650,5,0,0:0:0:0:
420,34,3872,5,0,0:0:0:0:
278,146,3983,1,0,0:0:0:0:
456,183,4094,5,0,0:0:0:0:
456,183,4205,1,0,0:0:0:0:
349,241,4316,1,0,0:0:0:0:
151,134,4539,1,0,0:0:0:0:
151,134,4650,1,0,0:0:0:0:
266,80,4761,1,0,0:0:0:0:
151,134,4872,1,0,0:0:0:0:
460,146,5205,5,0,0:0:0:0:
324,242,5316,1,0,0:0:0:0:
337,261,5539,5,0,0:0:0:0:
347,66,5650,1,0,0:0:0:0:
422,344,5872,5,0,0:0:0:0:
150,384,6094,1,0,0:0:0:0:
449,62,6316,1,0,0:0:0:0:
101,94,6539,5,0,0:0:0:0:
323,70,6650,1,0,0:0:0:0:
335,93,6872,5,0,0:0:0:0:
119,207,6983,1,0,0:0:0:0:
335,118,7205,5,0,0:0:0:0:
121,177,7427,5,0,0:0:0:0:
121,177,7539,1,0,0:0:0:0:
213,155,7650,5,0,0:0:0:0:
228,224,7761,1,0,0:0:0:0:
186,278,7872,1,0,0:0:0:0:
336,203,7983,5,0,0:0:0:0:
311,262,8094,1,0,0:0:0:0:
332,331,8205,1,0,0:0:0:0:
436,223,8316,5,0,0:0:0:0:
445,288,8427,1,0,0:0:0:0:
362,315,8539,5,0,0:0:0:0:
286,349,8650,1,0,0:0:0:0:
215,305,8761,1,0,0:0:0:0:
165,69,8983,1,0,0:0:0:0:
240,32,9094,1,0,0:0:0:0:
309,74,9205,1,0,0:0:0:0:
101,221,9427,6,0,P|159:239|215:246,1,84.9999976158142
451,36,9650,1,0,0:0:0:0:
43,323,9872,1,0,0:0:0:0:
447,62,10094,1,0,0:0:0:0:
116,356,10205,1,0,0:0:0:0:
258,351,10427,1,0,0:0:0:0:
20,29,10539,1,0,0:0:0:0:
411,335,10761,1,0,0:0:0:0:
95,47,10983,1,0,0:0:0:0:
422,212,11205,1,0,0:0:0:0:
268,301,11316,1,0,0:0:0:0:
73,76,11427,1,0,0:0:0:0:
87,108,11650,1,0,0:0:0:0:
177,280,11761,1,0,0:0:0:0:
465,56,11872,1,0,0:0:0:0:
359,320,12094,1,0,0:0:0:0:
214,290,12205,1,0,0:0:0:0:
342,30,12316,1,0,0:0:0:0:
330,335,12427,1,0,0:0:0:0:
56,319,12650,1,0,0:0:0:0:
428,63,12761,1,0,0:0:0:0:
314,287,12983,5,0,0:0:0:0:
65,45,13205,1,0,0:0:0:0:
145,320,13427,1,0,0:0:0:0:
275,327,13539,1,0,0:0:0:0:
394,72,13650,1,0,0:0:0:0:
391,302,13761,1,0,0:0:0:0:
224,214,13872,1,0,0:0:0:0:
134,292,13983,1,0,0:0:0:0:
45,56,14094,1,0,0:0:0:0:
247,300,14316,1,0,0:0:0:0:
62,96,14539,1,0,0:0:0:0:
451,85,14650,1,0,0:0:0:0:
71,39,14761,1,0,0:0:0:0:
386,284,14983,5,0,0:0:0:0:
16,204,15205,1,0,0:0:0:0:
78,303,15316,1,0,0:0:0:0:
397,112,15427,1,0,0:0:0:0:
36,112,15539,1,0,0:0:0:0:
106,206,15761,1,0,0:0:0:0:
460,187,15872,1,0,0:0:0:0:
247,258,15983,1,0,0:0:0:0:
363,234,16094,1,0,0:0:0:0:
315,302,16205,1,0,0:0:0:0:
357,333,16316,1,0,0:0:0:0:
432,332,16427,1,0,0:0:0:0:
101,221,16539,6,0,P|159:239|215:246,1,84.9999976158142
451,36,16762,1,0,0:0:0:0:
43,323,16984,1,0,0:0:0:0:
447,62,17206,1,0,0:0:0:0:
116,356,17317,1,0,0:0:0:0:
258,351,17539,1,0,0:0:0:0:
20,29,17651,1,0,0:0:0:0:
411,335,17873,1,0,0:0:0:0:
95,47,18095,1,0,0:0:0:0:
422,212,18317,1,0,0:0:0:0:
268,301,18428,1,0,0:0:0:0:
73,76,18539,1,0,0:0:0:0:
87,108,18762,1,0,0:0:0:0:
177,280,18873,1,0,0:0:0:0:
465,56,18984,1,0,0:0:0:0:
359,320,19206,1,0,0:0:0:0:
214,290,19317,1,0,0:0:0:0:
342,30,19428,1,0,0:0:0:0:
330,335,19539,1,0,0:0:0:0:
56,319,19762,1,0,0:0:0:0:
428,63,19873,1,0,0:0:0:0:
419,263,20094,5,0,0:0:0:0:
294,320,20205,1,0,0:0:0:0:
68,75,20316,1,0,0:0:0:0:
110,283,20539,1,0,0:0:0:0:
419,49,20761,1,0,0:0:0:0:
267,305,20872,1,0,0:0:0:0:
157,322,21094,1,0,0:0:0:0:
364,67,21205,1,0,0:0:0:0:
407,338,21427,1,0,0:0:0:0:
154,67,21650,1,0,0:0:0:0:
348,59,21761,1,0,0:0:0:0:
40,92,21872,5,0,0:0:0:0:
189,90,21983,1,0,0:0:0:0:
316,72,22094,1,0,0:0:0:0:
425,187,22205,1,0,0:0:0:0:
274,163,22316,1,0,0:0:0:0:
121,143,22427,1,0,0:0:0:0:
50,247,22539,1,0,0:0:0:0:
194,230,22650,1,0,0:0:0:0:
404,276,22761,5,0,0:0:0:0:
243,350,22872,1,0,0:0:0:0:
383,19,22983,1,0,0:0:0:0:
440,79,23094,1,0,0:0:0:0:
84,235,23205,1,0,0:0:0:0:
202,310,23316,1,0,0:0:0:0:
393,190,23427,1,0,0:0:0:0:
101,221,23650,6,0,P|159:239|215:246,1,84.9999976158142
451,36,23873,1,0,0:0:0:0:
43,323,24095,1,0,0:0:0:0:
447,62,24317,1,0,0:0:0:0:
116,356,24428,1,0,0:0:0:0:
258,351,24650,1,0,0:0:0:0:
20,29,24762,1,0,0:0:0:0:
411,335,24984,1,0,0:0:0:0:
95,47,25206,1,0,0:0:0:0:
422,212,25428,1,0,0:0:0:0:
268,301,25539,1,0,0:0:0:0:
73,76,25650,1,0,0:0:0:0:
87,108,25873,1,0,0:0:0:0:
177,280,25984,1,0,0:0:0:0:
465,56,26095,1,0,0:0:0:0:
359,320,26317,1,0,0:0:0:0:
214,290,26428,1,0,0:0:0:0:
342,30,26539,1,0,0:0:0:0:
149,330,26650,1,0,0:0:0:0:
473,63,26761,1,0,0:0:0:0:
352,159,26872,1,0,0:0:0:0:
269,212,26983,1,0,0:0:0:0:
185,239,27094,1,0,0:0:0:0:
79,100,27205,5,0,0:0:0:0:
458,136,27427,1,0,0:0:0:0:
35,225,27650,1,0,0:0:0:0:
346,93,27872,5,0,0:0:0:0:
346,93,27983,1,0,0:0:0:0:
89,187,28094,1,0,0:0:0:0:
167,265,28205,1,0,0:0:0:0:
463,189,28316,1,0,0:0:0:0:
49,331,28539,1,0,0:0:0:0:
418,192,28761,1,0,0:0:0:0:
418,192,28872,1,0,0:0:0:0:
236,181,28983,5,0,0:0:0:0:
289,267,29094,1,0,0:0:0:0:
398,321,29205,1,0,0:0:0:0:
51,298,29427,1,0,0:0:0:0:
349,120,29650,1,0,0:0:0:0:
93,263,29761,1,0,0:0:0:0:
135,322,29983,1,0,0:0:0:0:
397,228,30094,1,0,0:0:0:0:
267,314,30316,5,0,0:0:0:0:
82,70,30427,1,0,0:0:0:0:
390,364,30539,1,0,0:0:0:0:
202,134,30650,1,0,0:0:0:0:
101,221,30761,6,0,P|159:239|215:246,1,84.9999976158142
451,36,30984,1,0,0:0:0:0:
43,323,31206,1,0,0:0:0:0:
447,62,31428,1,0,0:0:0:0:
116,356,31539,1,0,0:0:0:0:
258,351,31761,1,0,0:0:0:0:
20,29,31873,1,0,0:0:0:0:
411,335,32095,1,0,0:0:0:0:
95,47,32317,1,0,0:0:0:0:
422,212,32539,1,0,0:0:0:0:
268,301,32650,1,0,0:0:0:0:
73,76,32761,1,0,0:0:0:0:
87,108,32984,1,0,0:0:0:0:
177,280,33095,1,0,0:0:0:0:
465,56,33206,1,0,0:0:0:0:
359,320,33428,1,0,0:0:0:0:
214,290,33539,1,0,0:0:0:0:
342,30,33650,1,0,0:0:0:0:
330,335,33761,1,0,0:0:0:0:
56,319,33984,1,0,0:0:0:0:
428,63,34095,1,0,0:0:0:0:
419,263,34316,5,0,0:0:0:0:
294,320,34427,1,0,0:0:0:0:
68,75,34538,1,0,0:0:0:0:
110,283,34761,1,0,0:0:0:0:
419,49,34983,1,0,0:0:0:0:
267,305,35094,1,0,0:0:0:0:
157,322,35316,1,0,0:0:0:0:
364,67,35427,1,0,0:0:0:0:
407,338,35649,1,0,0:0:0:0:
154,67,35872,1,0,0:0:0:0:
348,59,35983,1,0,0:0:0:0:
40,92,36094,5,0,0:0:0:0:
189,90,36205,1,0,0:0:0:0:
316,72,36316,1,0,0:0:0:0:
425,187,36427,1,0,0:0:0:0:
274,163,36538,1,0,0:0:0:0:
121,143,36649,1,0,0:0:0:0:
50,247,36761,1,0,0:0:0:0:
194,230,36872,1,0,0:0:0:0:
404,276,36983,5,0,0:0:0:0:
243,350,37094,1,0,0:0:0:0:
383,19,37205,1,0,0:0:0:0:
440,79,37316,1,0,0:0:0:0:
84,235,37427,1,0,0:0:0:0:
202,310,37538,1,0,0:0:0:0:
393,190,37649,1,0,0:0:0:0:
101,221,37872,6,0,P|159:239|215:246,1,84.9999976158142
451,36,38095,1,0,0:0:0:0:
43,323,38317,1,0,0:0:0:0:
447,62,38539,1,0,0:0:0:0:
116,356,38650,1,0,0:0:0:0:
258,351,38872,1,0,0:0:0:0:
20,29,38984,1,0,0:0:0:0:
411,335,39206,1,0,0:0:0:0:
95,47,39428,1,0,0:0:0:0:
422,212,39650,1,0,0:0:0:0:
268,301,39761,1,0,0:0:0:0:
73,76,39872,1,0,0:0:0:0:
87,108,40095,1,0,0:0:0:0:
177,280,40206,1,0,0:0:0:0:
465,56,40317,1,0,0:0:0:0:
359,320,40539,1,0,0:0:0:0:
214,290,40650,1,0,0:0:0:0:
342,30,40761,1,0,0:0:0:0:
149,330,40872,1,0,0:0:0:0:
473,63,40983,1,0,0:0:0:0:
352,159,41094,1,0,0:0:0:0:
269,212,41205,1,0,0:0:0:0:
185,239,41316,1,0,0:0:0:0:
79,100,41427,5,0,0:0:0:0:
458,136,41649,1,0,0:0:0:0:
35,225,41872,1,0,0:0:0:0:
346,93,42094,5,0,0:0:0:0:
346,93,42205,1,0,0:0:0:0:
89,187,42316,1,0,0:0:0:0:
167,265,42427,1,0,0:0:0:0:
463,189,42538,1,0,0:0:0:0:
49,331,42761,1,0,0:0:0:0:
418,192,42983,1,0,0:0:0:0:
418,192,43094,1,0,0:0:0:0:
193,94,43205,5,0,0:0:0:0:
249,276,43316,1,0,0:0:0:0:
273,158,43427,1,0,0:0:0:0:
131,238,43539,1,0,0:0:0:0:
356,310,43650,5,0,0:0:0:0:
388,87,43761,1,0,0:0:0:0:
466,45,43872,1,0,0:0:0:0:
458,161,43983,1,0,0:0:0:0:
149,89,44094,5,0,0:0:0:0:
210,168,44205,1,0,0:0:0:0:
292,234,44316,1,0,0:0:0:0:
175,243,44427,1,0,0:0:0:0:
289,132,44539,5,0,0:0:0:0:
77,39,44650,1,0,0:0:0:0:
204,43,44761,1,0,0:0:0:0:
336,53,44872,1,0,0:0:0:0:
