osu file format v14

[General]
AudioFilename: audio.mp3
AudioLeadIn: 0
PreviewTime: -1
Countdown: 1
SampleSet: Normal
StackLeniency: 0.7
Mode: 0
LetterboxInBreaks: 0
WidescreenStoryboard: 1

[Editor]
Bookmarks: 16538,44983,59205,73427,80538,87650,101872,130316,158761,172983,187205,215650
DistanceSpacing: 1
BeatDivisor: 4
GridSize: 4
TimelineZoom: 1.7

[Metadata]
Title:Remind
TitleUnicode:Remind
Artist:Chata
ArtistUnicode:Chata
Creator:Epikem
Version:epi
Source:
Tags:touhou
BeatmapID:1436956
BeatmapSetID:679528

[Difficulty]
HPDrainRate:4
CircleSize:3
OverallDifficulty:8
ApproachRate:9.7
SliderMultiplier:3.39999990463257
SliderTickRate:2

[Events]
//Background and Video events
//Break Periods
//Storyboard Layer 0 (Background)
//Storyboard Layer 1 (Fail)
//Storyboard Layer 2 (Pass)
//Storyboard Layer 3 (Foreground)
//Storyboard Sound Samples

[TimingPoints]
539,444.444444444444,4,1,0,100,1,0
73427,-200,4,1,0,100,0,0
80538,-133.333333333333,4,1,0,100,0,0
84094,-50,4,1,0,100,0,0
84538,-100,4,1,0,100,0,0

[HitObjects]
60,143,539,5,0,0:0:0:0:
370,266,761,1,0,0:0:0:0:
441,192,872,1,0,0:0:0:0:
270,250,983,6,0,P|199:295|93:314,1,169.999995231628
145,75,1427,5,0,0:0:0:0:
103,181,1538,1,0,0:0:0:0:
210,162,1650,1,0,0:0:0:0:
322,140,1761,1,0,0:0:0:0:
363,249,1872,2,0,P|437:287|506:370,1,169.999995231628
134,124,2316,5,0,0:0:0:0:
35,89,2427,1,0,0:0:0:0:
205,54,2538,2,0,P|274:48|315:62,1,84.9999976158143
137,147,2761,6,0,P|99:150|42:138,1,84.9999976158143
206,223,2983,5,0,0:0:0:0:
49,272,3094,2,0,P|87:318|137:329,1,84.9999976158143
209,287,3316,5,0,0:0:0:0:
122,126,3427,2,0,P|119:175|130:241,1,84.9999976158143
299,348,3650,2,0,P|314:290|315:238,1,84.9999976158143
264,87,3872,5,0,0:0:0:0:
199,260,3983,1,0,0:0:0:0:
329,177,4094,5,0,0:0:0:0:
375,322,4205,1,0,0:0:0:0:
435,246,4316,2,0,P|469:283|487:348,1,84.9999976158143
217,192,4539,5,0,0:0:0:0:
140,236,4650,1,0,0:0:0:0:
307,198,4761,1,0,0:0:0:0:
124,271,4872,2,0,P|75:287|7:279,1,84.9999976158143
307,98,5205,5,0,0:0:0:0:
224,334,5316,1,0,0:0:0:0:
259,304,5539,5,0,0:0:0:0:
204,38,5650,1,0,0:0:0:0:
354,279,5872,6,0,P|409:296|475:285,1,84.9999976158143
108,120,6094,2,0,P|62:107|6:110,1,84.9999976158143
431,183,6316,2,0,P|488:169|533:148,1,84.9999976158143
300,151,6539,5,0,0:0:0:0:
458,45,6650,2,0,P|418:42|354:60,1,84.9999976158143
261,30,6872,5,0,0:0:0:0:
204,198,6983,1,0,0:0:0:0:
0,0,7205,5,0,0:0:0:0:
236,42,7427,5,0,0:0:0:0:
364,95,7539,1,0,0:0:0:0:
185,116,7650,5,0,0:0:0:0:
275,129,7761,1,0,0:0:0:0:
112,161,7872,1,0,0:0:0:0:
287,204,7983,5,0,0:0:0:0:
202,227,8094,1,0,0:0:0:0:
356,260,8205,1,0,0:0:0:0:
172,321,8316,5,0,0:0:0:0:
256,295,8427,1,0,0:0:0:0:
330,354,8539,5,0,0:0:0:0:
419,384,8650,1,0,0:0:0:0:
491,334,8761,1,0,0:0:0:0:
138,70,8983,1,0,0:0:0:0:
303,52,9094,1,0,0:0:0:0:
216,28,9205,1,0,0:0:0:0:
16,240,9427,6,0,P|74:258|130:265,1,84.9999976158142
422,115,9650,2,0,P|360:89|307:90,1,84.9999976158143
169,363,9872,2,0,P|211:326|222:265,1,84.9999976158143
254,26,10094,5,0,0:0:0:0:
354,204,10205,2,0,P|353:146|332:99,1,84.9999976158143
62,204,10427,5,0,0:0:0:0:
258,236,10538,2,0,P|216:210|157:197,1,84.9999976158143
96,354,10761,6,0,P|155:331|185:303,1,84.9999976158143
213,30,10983,2,0,P|185:81|169:148,1,84.9999976158143
116,251,11205,1,0,0:0:0:0:
239,222,11316,1,0,0:0:0:0:
84,147,11427,2,0,P|31:139|-12:139,1,84.9999976158143
309,170,11650,5,0,0:0:0:0:
189,105,11761,1,0,0:0:0:0:
380,83,11872,2,0,P|425:58|482:42,1,84.9999976158143
381,232,12094,5,0,0:0:0:0:
294,289,12205,1,0,0:0:0:0:
194,275,12316,1,0,0:0:0:0:
373,210,12427,2,0,P|422:211|493:237,1,84.9999976158143
287,166,12650,1,0,0:0:0:0:
396,335,12761,1,0,0:0:0:0:
264,46,12983,6,0,P|328:40|377:50,1,84.9999976158143
123,219,13205,2,0,P|74:219|17:194,1,84.9999976158143
411,146,13427,2,0,P|469:152|511:182,1,84.9999976158143
302,296,13650,1,0,0:0:0:0:
435,244,13761,1,0,0:0:0:0:
244,187,13872,5,0,0:0:0:0:
271,198,13983,1,0,0:0:0:0:
297,195,14094,1,0,0:0:0:0:
435,103,14316,5,0,0:0:0:0:
230,52,14539,5,0,0:0:0:0:
435,103,14650,1,0,0:0:0:0:
161,180,14761,2,0,L|32:182,1,84.9999976158143
422,271,14983,6,0,L|555:271,1,84.9999976158143
335,207,15205,1,0,0:0:0:0:
364,366,15316,1,0,0:0:0:0:
451,111,15427,1,0,0:0:0:0:
208,160,15539,1,0,0:0:0:0:
208,160,15761,5,0,0:0:0:0:
334,122,15872,1,0,0:0:0:0:
447,197,15983,1,0,0:0:0:0:
373,301,16094,5,0,0:0:0:0:
281,337,16205,1,0,0:0:0:0:
184,311,16316,1,0,0:0:0:0:
87,340,16427,1,0,0:0:0:0:
56,120,16538,6,0,P|183:105|280:128,1,169.999995231629
285,200,16872,1,0,0:0:0:0:
412,94,16983,2,0,P|425:145|423:197,1,84.9999976158143
480,351,17205,2,0,P|389:357|318:299,1,169.999995231629
220,314,17539,1,0,0:0:0:0:
38,168,17650,2,0,P|77:152|119:149,1,84.9999976158143
253,184,17873,1,0,0:0:0:0:
253,184,18095,5,0,0:0:0:0:
219,31,18205,1,0,0:0:0:0:
350,288,18317,5,0,0:0:0:0:
387,115,18428,1,0,0:0:0:0:
472,288,18538,2,0,P|430:255|337:231,1,84.9999976158143
199,289,18762,5,0,0:0:0:0:
323,370,18873,1,0,0:0:0:0:
234,201,18983,2,0,P|239:257|227:324,1,84.9999976158143
232,77,19206,5,0,0:0:0:0:
104,250,19317,1,0,0:0:0:0:
306,159,19428,1,0,0:0:0:0:
88,156,19539,1,0,0:0:0:0:
88,156,19762,5,0,0:0:0:0:
266,112,19872,1,0,0:0:0:0:
30,50,19983,1,0,0:0:0:0:
361,143,20094,6,0,P|371:77|427:25,1,84.9999976158143
407,218,20316,1,0,0:0:0:0:
290,29,20427,1,0,0:0:0:0:
242,352,20538,6,0,P|200:310|189:268,1,84.9999976158143
205,184,20761,1,0,0:0:0:0:
108,352,20872,1,0,0:0:0:0:
143,368,21094,5,0,0:0:0:0:
74,99,21205,1,0,0:0:0:0:
480,259,21427,5,0,0:0:0:0:
247,66,21650,5,0,0:0:0:0:
153,124,21761,1,0,0:0:0:0:
302,161,21872,5,0,0:0:0:0:
359,260,21983,1,0,0:0:0:0:
294,344,22094,1,0,0:0:0:0:
176,265,22205,5,0,0:0:0:0:
116,177,22316,1,0,0:0:0:0:
181,91,22427,1,0,0:0:0:0:
286,54,22539,5,0,0:0:0:0:
166,0,22650,1,0,0:0:0:0:
266,148,22761,5,0,0:0:0:0:
351,123,22872,1,0,0:0:0:0:
232,246,22983,1,0,0:0:0:0:
318,224,23094,1,0,0:0:0:0:
439,244,23205,5,0,0:0:0:0:
367,324,23316,1,0,0:0:0:0:
250,335,23427,1,0,0:0:0:0:
145,288,23538,1,0,0:0:0:0:
47,185,23650,6,0,P|105:203|161:210,1,84.9999976158142
229,193,23873,1,0,0:0:0:0:
103,84,23983,1,0,0:0:0:0:
406,68,24094,6,0,P|352:51|286:51,1,84.9999976158143
232,93,24317,1,0,0:0:0:0:
410,191,24427,1,0,0:0:0:0:
196,236,24538,5,0,0:0:0:0:
277,90,24650,1,0,0:0:0:0:
318,302,24761,2,0,P|298:266|279:209,1,84.9999976158143
353,153,24984,1,0,0:0:0:0:
106,144,25205,5,0,0:0:0:0:
193,224,25316,1,0,0:0:0:0:
199,99,25428,1,0,0:0:0:0:
112,282,25539,1,0,0:0:0:0:
36,70,25650,1,0,0:0:0:0:
340,102,25873,5,0,0:0:0:0:
407,188,25984,1,0,0:0:0:0:
512,162,26095,1,0,0:0:0:0:
234,177,26317,5,0,0:0:0:0:
234,177,26428,1,0,0:0:0:0:
141,139,26539,5,0,0:0:0:0:
233,281,26650,1,0,0:0:0:0:
274,75,26761,5,0,0:0:0:0:
133,311,26872,1,0,0:0:0:0:
167,221,26983,1,0,0:0:0:0:
261,206,27094,1,0,0:0:0:0:
232,42,27205,6,0,P|141:34|73:66,1,127.499996423721
341,139,27427,2,0,P|421:162|492:157,1,127.499996423721
215,213,27650,1,0,0:0:0:0:
364,253,27872,5,0,0:0:0:0:
61,200,27983,1,0,0:0:0:0:
416,161,28094,2,0,L|506:203,1,84.9999976158143
362,60,28316,1,0,0:0:0:0:
179,337,28539,5,0,0:0:0:0:
418,192,28761,5,0,0:0:0:0:
418,192,28872,1,0,0:0:0:0:
356,94,28983,5,0,0:0:0:0:
266,225,29094,1,0,0:0:0:0:
104,242,29205,1,0,0:0:0:0:
337,323,29427,5,0,0:0:0:0:
160,136,29650,5,0,0:0:0:0:
381,167,29761,1,0,0:0:0:0:
388,183,29983,5,0,0:0:0:0:
140,52,30094,1,0,0:0:0:0:
204,250,30316,5,0,0:0:0:0:
372,156,30427,1,0,0:0:0:0:
186,246,30539,1,0,0:0:0:0:
365,98,30650,1,0,0:0:0:0:
178,230,30761,6,0,P|120:219|69:214,1,84.9999976158143
317,270,30983,2,0,P|344:312|360:356,1,84.9999976158143
454,200,31205,2,0,P|467:161|504:121,1,84.9999976158143
409,29,31427,5,0,0:0:0:0:
190,144,31538,2,0,P|147:169|84:178,1,84.9999976158143
238,45,31761,1,0,0:0:0:0:
296,270,31872,1,0,0:0:0:0:
42,80,32094,5,0,0:0:0:0:
354,52,32316,5,0,0:0:0:0:
378,306,32427,1,0,0:0:0:0:
396,296,32650,5,0,0:0:0:0:
486,39,32761,1,0,0:0:0:0:
273,139,32983,5,0,0:0:0:0:
443,204,33094,1,0,0:0:0:0:
173,228,33205,2,0,P|237:219|301:231,1,84.9999976158143
148,79,33427,2,0,P|94:100|31:96,1,84.9999976158143
27,198,33650,5,0,0:0:0:0:
236,123,33761,1,0,0:0:0:0:
258,118,33983,5,0,0:0:0:0:
145,195,34094,1,0,0:0:0:0:
201,18,34205,1,0,0:0:0:0:
317,233,34316,6,0,P|373:219|431:216,1,84.9999976158143
475,154,34538,1,0,0:0:0:0:
398,306,34650,1,0,0:0:0:0:
216,123,34761,6,0,P|162:96|120:90,1,84.9999976158143
66,43,34983,1,0,0:0:0:0:
115,177,35094,1,0,0:0:0:0:
335,179,35205,5,0,0:0:0:0:
266,346,35316,1,0,0:0:0:0:
395,250,35427,2,0,P|331:275|270:281,1,84.9999976158143
460,132,35650,2,0,P|498:150|549:209,1,84.9999976158143
360,160,35872,1,0,0:0:0:0:
430,42,35983,1,0,0:0:0:0:
215,146,36094,6,0,L|128:99,1,84.9999976158143
66,25,36316,1,0,0:0:0:0:
297,233,36427,6,0,L|389:285,1,84.9999976158143
451,367,36650,1,0,0:0:0:0:
285,114,36761,5,0,0:0:0:0:
228,295,36872,1,0,0:0:0:0:
62,185,36983,6,0,L|158:173,1,84.9999976158143
304,203,37205,1,0,0:0:0:0:
235,72,37316,1,0,0:0:0:0:
473,58,37427,6,0,P|414:76|338:65,1,84.9999976158143
284,37,37650,1,0,0:0:0:0:
202,193,37761,1,0,0:0:0:0:
0,48,37872,6,0,P|100:58|191:110,1,169.999995231629
203,203,38205,1,0,0:0:0:0:
447,150,38316,2,0,L|356:137,1,84.9999976158143
143,326,38538,2,0,L|227:309,1,84.9999976158143
303,194,38761,1,0,0:0:0:0:
349,349,38872,1,0,0:0:0:0:
434,249,38983,2,0,P|422:187|375:138,1,84.9999976158143
150,234,39205,2,0,P|192:225|261:181,1,84.9999976158143
465,52,39427,6,0,P|371:49|267:90,1,169.999995231629
206,166,39761,1,0,0:0:0:0:
33,301,39872,2,0,P|78:307|144:300,1,84.9999976158143
280,254,40094,2,0,P|321:263|360:280,1,84.9999976158143
472,384,40316,1,0,0:0:0:0:
406,241,40538,5,0,0:0:0:0:
472,384,40650,1,0,0:0:0:0:
480,174,40761,5,0,0:0:0:0:
472,384,40872,1,0,0:0:0:0:
294,227,40983,1,0,0:0:0:0:
294,227,41205,5,0,0:0:0:0:
65,143,41316,1,0,0:0:0:0:
424,59,41427,2,0,P|404:116|418:58,2,169.999995231629
415,87,42094,5,0,0:0:0:0:
40,196,42205,1,0,0:0:0:0:
166,94,42316,1,0,0:0:0:0:
291,184,42427,1,0,0:0:0:0:
415,87,42538,1,0,0:0:0:0:
324,318,42761,5,0,0:0:0:0:
233,46,42983,5,0,0:0:0:0:
343,84,43094,1,0,0:0:0:0:
135,78,43205,5,0,0:0:0:0:
71,213,43316,1,0,0:0:0:0:
228,205,43427,1,0,0:0:0:0:
147,166,43538,1,0,0:0:0:0:
175,310,43650,5,0,0:0:0:0:
330,226,43761,1,0,0:0:0:0:
278,315,43872,1,0,0:0:0:0:
233,223,43983,1,0,0:0:0:0:
428,162,44094,5,0,0:0:0:0:
340,118,44205,1,0,0:0:0:0:
233,121,44316,1,0,0:0:0:0:
171,182,44427,1,0,0:0:0:0:
158,264,44538,5,0,0:0:0:0:
443,60,44650,1,0,0:0:0:0:
352,293,44761,1,0,0:0:0:0:
203,99,44872,1,0,0:0:0:0:
338,136,44983,6,0,P|370:188|375:234,1,84.9999976158143
302,334,45205,1,0,0:0:0:0:
218,141,45316,1,0,0:0:0:0:
218,141,45427,2,0,P|233:88|264:59,1,84.9999976158143
356,14,45650,1,0,0:0:0:0:
248,254,45761,1,0,0:0:0:0:
270,265,45983,5,0,0:0:0:0:
451,123,46094,1,0,0:0:0:0:
137,71,46316,5,0,0:0:0:0:
404,272,46538,5,0,0:0:0:0:
297,214,46650,1,0,0:0:0:0:
466,182,46761,1,0,0:0:0:0:
405,364,46872,1,0,0:0:0:0:
384,134,46983,2,0,P|365:179|364:250,1,84.9999976158143
219,384,47205,2,0,P|203:343|173:291,1,84.9999976158143
70,166,47427,1,0,0:0:0:0:
278,277,47650,6,0,P|279:242|300:184,1,84.9999976158143
140,88,47872,2,0,P|195:96|246:90,1,84.9999976158143
358,384,48094,2,0,P|353:329|368:284,1,84.9999976158143
10,0,48316,2,0,P|45:12|107:15,1,84.9999976158143
413,90,48538,6,0,P|313:52|211:70,1,169.999995231629
106,121,48872,1,0,0:0:0:0:
199,288,48983,2,0,P|210:241|203:153,1,84.9999976158143
154,33,49205,1,0,0:0:0:0:
310,160,49316,2,0,P|261:115|243:67,1,84.9999976158143
404,186,49538,1,0,0:0:0:0:
335,343,49650,1,0,0:0:0:0:
507,138,49872,5,0,0:0:0:0:
335,343,50094,5,0,0:0:0:0:
299,92,50205,2,0,L|259:269,1,169.999995231629
216,24,50538,1,0,0:0:0:0:
59,193,50761,5,0,0:0:0:0:
129,295,50872,1,0,0:0:0:0:
210,133,50983,2,0,L|152:224,1,84.9999976158143
312,171,51205,5,0,0:0:0:0:
299,286,51316,1,0,0:0:0:0:
411,219,51427,2,0,L|453:323,1,84.9999976158143
286,259,51650,2,0,L|235:362,1,84.9999976158143
150,190,51872,2,0,L|34:190,1,84.9999976158143
194,79,52094,6,0,P|276:54|327:57,1,84.9999976158143
426,112,52316,1,0,0:0:0:0:
426,112,52427,2,0,P|364:180|329:295,1,169.999995231629
392,355,52761,1,0,0:0:0:0:
229,236,52872,1,0,0:0:0:0:
414,230,52983,1,0,0:0:0:0:
296,333,53094,1,0,0:0:0:0:
257,146,53205,1,0,0:0:0:0:
92,308,53427,5,0,0:0:0:0:
451,202,53650,5,0,0:0:0:0:
243,137,53761,2,0,P|299:100|362:91,1,84.9999976158143
295,236,53983,1,0,0:0:0:0:
407,40,54094,1,0,0:0:0:0:
407,40,54316,5,0,0:0:0:0:
283,164,54427,1,0,0:0:0:0:
174,32,54538,1,0,0:0:0:0:
174,32,54761,6,0,P|202:83|208:142,1,84.9999976158143
284,344,54983,2,0,P|253:298|251:234,1,84.9999976158143
22,88,55205,2,0,P|79:96|130:123,1,84.9999976158143
160,315,55427,1,0,0:0:0:0:
78,217,55538,1,0,0:0:0:0:
442,261,55650,6,0,P|380:233|323:236,1,84.9999976158143
272,292,55872,1,0,0:0:0:0:
346,133,55983,1,0,0:0:0:0:
126,277,56094,2,0,P|171:249|204:187,1,84.9999976158143
235,106,56316,1,0,0:0:0:0:
235,106,56427,2,0,P|275:141|309:210,1,84.9999976158143
341,280,56650,1,0,0:0:0:0:
457,226,56761,1,0,0:0:0:0:
78,292,56983,5,0,0:0:0:0:
11,42,57205,5,0,0:0:0:0:
199,104,57316,1,0,0:0:0:0:
417,170,57427,2,0,P|343:158|237:186,1,169.999995231629
142,254,57761,1,0,0:0:0:0:
23,94,57872,2,0,P|79:85|149:96,1,84.9999976158143
206,156,58094,1,0,0:0:0:0:
294,64,58205,1,0,0:0:0:0:
467,278,58316,6,0,P|467:341|484:404,1,84.9999976158143
371,100,58538,2,0,P|354:47|352:-11,1,84.9999976158143
254,297,58761,1,0,0:0:0:0:
180,96,58872,1,0,0:0:0:0:
217,303,58983,1,0,0:0:0:0:
270,69,59094,1,0,0:0:0:0:
110,332,59205,6,0,P|73:289|11:272,1,84.9999976158143
309,266,59427,2,0,P|298:316|297:389,1,84.9999976158143
164,124,59650,2,0,P|193:75|209:31,1,84.9999976158143
193,261,59872,1,0,0:0:0:0:
310,148,59983,1,0,0:0:0:0:
112,194,60094,2,0,L|11:162,1,84.9999976158143
193,127,60316,5,0,0:0:0:0:
291,65,60427,1,0,0:0:0:0:
444,190,60538,6,0,P|388:164|343:104,1,84.9999976158143
135,72,60761,1,0,0:0:0:0:
242,39,60872,1,0,0:0:0:0:
57,229,60983,2,0,B|109:224|109:224|149:173,1,84.9999976158143
314,35,61205,2,0,P|275:124|285:238,1,169.999995231629
316,327,61538,1,0,0:0:0:0:
503,158,61650,2,0,P|415:154|319:97,1,169.999995231629
228,42,61983,1,0,0:0:0:0:
28,189,62094,6,0,P|85:195|159:202,1,84.9999976158143
191,339,62316,2,0,P|258:326|310:296,1,84.9999976158143
438,377,62538,2,0,P|465:350|511:290,1,84.9999976158143
350,35,62761,6,0,P|311:86|289:187,1,169.999995231629
348,279,63094,1,0,0:0:0:0:
161,207,63205,1,0,0:0:0:0:
161,207,63427,5,0,0:0:0:0:
300,141,63538,1,0,0:0:0:0:
71,86,63650,2,0,P|156:71|216:81,1,84.9999976158143
263,224,63872,1,0,0:0:0:0:
36,343,64094,5,0,0:0:0:0:
70,175,64316,5,0,0:0:0:0:
196,282,64427,1,0,0:0:0:0:
120,343,64538,5,0,0:0:0:0:
157,196,64650,1,0,0:0:0:0:
0,244,64761,1,0,0:0:0:0:
385,359,64983,5,0,0:0:0:0:
397,232,65095,1,0,0:0:0:0:
285,172,65206,1,0,0:0:0:0:
396,367,65316,2,0,P|350:325|302:306,1,84.9999976158143
200,328,65538,1,0,0:0:0:0:
407,201,65650,6,0,P|406:264|389:325,1,84.9999976158143
258,20,65872,2,0,P|306:45|338:73,1,84.9999976158143
50,159,66094,2,0,P|86:120|152:91,1,84.9999976158143
239,244,66316,6,0,B|159:288|162:229|42:271,1,169.999995231629
253,343,66650,2,0,P|298:336|350:251,1,84.9999976158143
361,192,66872,1,0,0:0:0:0:
184,47,66983,2,0,L|211:175,1,84.9999976158143
159,225,67205,1,0,0:0:0:0:
284,87,67316,1,0,0:0:0:0:
72,123,67427,1,0,0:0:0:0:
72,123,67650,5,0,0:0:0:0:
72,123,67872,5,0,0:0:0:0:
17,0,67983,1,0,0:0:0:0:
138,218,68094,1,0,0:0:0:0:
171,74,68205,1,0,0:0:0:0:
280,171,68316,1,0,0:0:0:0:
280,171,68538,5,0,0:0:0:0:
120,153,68650,1,0,0:0:0:0:
248,297,68761,2,0,P|206:250|146:223,1,84.9999976158143
378,207,68983,6,0,P|403:272|399:341,1,84.9999976158143
233,103,69205,2,0,P|270:56|319:30,1,84.9999976158143
171,325,69427,2,0,P|111:333|30:309,1,84.9999976158143
310,200,69650,1,0,0:0:0:0:
266,370,69761,1,0,0:0:0:0:
114,230,69872,6,0,P|117:154|161:52,1,169.999995231629
50,0,70205,1,0,0:0:0:0:
215,182,70316,2,0,P|250:138|243:86,1,84.9999976158143
359,70,70538,1,0,0:0:0:0:
295,272,70650,1,0,0:0:0:0:
211,234,70761,1,0,0:0:0:0:
370,209,70872,1,0,0:0:0:0:
180,353,70983,1,0,0:0:0:0:
493,270,71205,5,0,0:0:0:0:
368,147,71427,5,0,0:0:0:0:
297,354,71538,1,0,0:0:0:0:
283,47,71650,2,0,P|259:106|265:193,1,84.9999976158143
445,343,71872,2,0,P|386:300|340:289,1,84.9999976158143
74,239,72094,1,0,0:0:0:0:
189,282,72205,1,0,0:0:0:0:
289,196,72316,2,0,P|331:165|398:155,1,84.9999976158143
120,204,72538,5,0,0:0:0:0:
214,335,72650,1,0,0:0:0:0:
376,313,72761,2,0,P|385:277|408:225,1,84.9999976158143
383,59,72983,5,0,0:0:0:0:
170,133,73094,1,0,0:0:0:0:
312,203,73205,1,0,0:0:0:0:
111,284,73316,1,0,0:0:0:0:
379,347,73427,5,0,0:0:0:0:
379,347,73650,2,0,L|423:281,1,42.4999988079071
331,54,74094,1,0,0:0:0:0:
377,310,74316,5,0,0:0:0:0:
347,347,74761,1,0,0:0:0:0:
300,112,74983,5,0,0:0:0:0:
280,232,75094,1,0,0:0:0:0:
195,82,75205,2,0,P|246:65|304:70,1,84.9999976158143
364,104,75538,1,0,0:0:0:0:
314,310,75872,1,0,0:0:0:0:
87,149,76094,5,0,0:0:0:0:
187,114,76205,1,0,0:0:0:0:
271,139,76316,1,0,0:0:0:0:
315,211,76427,1,0,0:0:0:0:
276,279,76538,1,0,0:0:0:0:
228,292,76650,1,0,0:0:0:0:
193,279,76761,2,0,L|144:262,1,42.4999988079071
384,232,76983,5,0,0:0:0:0:
334,153,77205,2,0,L|369:181,2,42.4999988079071
195,222,77650,1,0,0:0:0:0:
111,101,77872,5,0,0:0:0:0:
283,248,77983,1,0,0:0:0:0:
97,322,78316,5,0,0:0:0:0:
204,39,78538,1,0,0:0:0:0:
424,158,78761,2,0,L|350:152,2,42.4999988079071
424,158,79205,1,0,0:0:0:0:
261,147,79427,1,0,0:0:0:0:
102,133,79650,5,0,0:0:0:0:
198,87,79761,1,0,0:0:0:0:
236,200,79872,1,0,0:0:0:0:
328,164,79983,1,0,0:0:0:0:
417,107,80094,5,0,0:0:0:0:
494,155,80205,1,0,0:0:0:0:
469,245,80316,1,0,0:0:0:0:
314,270,80538,5,0,0:0:0:0:
297,86,80650,1,0,0:0:0:0:
512,15,80761,1,0,0:0:0:0:
0,0,80983,5,0,0:0:0:0:
203,84,81094,1,0,0:0:0:0:
176,270,81205,1,0,0:0:0:0:
367,214,81427,5,0,0:0:0:0:
421,334,81538,1,0,0:0:0:0:
444,128,81650,2,0,P|389:110|336:113,1,63.7500006437302
232,193,81872,2,0,P|268:210|320:223,1,63.7500006437302
373,20,82094,2,0,P|321:28|276:51,1,63.7500006437302
143,257,82316,1,0,0:0:0:0:
457,58,82538,5,0,0:0:0:0:
143,257,82761,1,0,0:0:0:0:
213,326,82872,1,0,0:0:0:0:
275,211,82983,1,0,0:0:0:0:
346,323,83094,1,0,0:0:0:0:
431,239,83205,6,0,P|447:171|440:129,1,63.7500006437302
278,33,83427,2,0,P|309:39|339:51,1,63.7500006437302
142,118,83650,2,0,P|108:185|115:215,1,63.7500006437302
149,257,83872,1,0,0:0:0:0:
14,138,83983,1,0,0:0:0:0:
332,155,84094,6,0,P|275:183|201:110,1,169.999995231629
303,69,84316,2,0,P|353:43|419:130,1,169.999995231629
164,243,84538,1,0,0:0:0:0:
374,217,84761,6,0,L|493:222,1,84.9999976158143
264,116,84983,2,0,L|369:114,1,84.9999976158143
165,284,85205,2,0,L|298:319,1,84.9999976158143
58,78,85427,2,0,L|157:61,1,84.9999976158143
300,113,85650,5,0,0:0:0:0:
29,180,85761,1,0,0:0:0:0:
400,274,85872,2,0,L|285:274,1,84.9999976158143
118,102,86094,1,0,0:0:0:0:
118,102,86316,5,0,0:0:0:0:
259,277,86427,1,0,0:0:0:0:
218,31,86538,1,0,0:0:0:0:
169,329,86650,1,0,0:0:0:0:
325,197,86761,5,0,0:0:0:0:
425,154,86872,1,0,0:0:0:0:
245,124,86983,1,0,0:0:0:0:
312,296,87094,1,0,0:0:0:0:
189,265,87205,5,0,0:0:0:0:
171,33,87316,1,0,0:0:0:0:
99,348,87427,5,0,0:0:0:0:
36,136,87538,1,0,0:0:0:0:
299,182,87650,6,0,P|357:171|408:166,1,84.9999976158143
182,302,87872,2,0,P|155:344|139:388,1,84.9999976158143
69,178,88094,2,0,P|45:161|8:121,1,84.9999976158143
45,16,88316,5,0,0:0:0:0:
259,168,88427,2,0,P|302:193|365:202,1,84.9999976158143
239,71,88650,1,0,0:0:0:0:
176,249,88761,1,0,0:0:0:0:
491,110,88983,5,0,0:0:0:0:
158,52,89205,5,0,0:0:0:0:
134,306,89316,1,0,0:0:0:0:
116,296,89539,5,0,0:0:0:0:
26,39,89650,1,0,0:0:0:0:
205,141,89872,5,0,0:0:0:0:
59,220,89983,1,0,0:0:0:0:
280,259,90094,2,0,P|216:250|152:262,1,84.9999976158143
392,104,90316,2,0,P|446:125|509:121,1,84.9999976158143
484,235,90539,5,0,0:0:0:0:
298,85,90650,1,0,0:0:0:0:
298,85,90872,5,0,0:0:0:0:
364,187,90983,1,0,0:0:0:0:
343,0,91094,1,0,0:0:0:0:
195,192,91205,6,0,P|139:178|81:175,1,84.9999976158143
1,130,91427,1,0,0:0:0:0:
87,271,91539,1,0,0:0:0:0:
321,148,91650,6,0,P|375:121|417:115,1,84.9999976158143
488,55,91872,1,0,0:0:0:0:
409,212,91983,1,0,0:0:0:0:
196,170,92094,5,0,0:0:0:0:
245,353,92205,1,0,0:0:0:0:
112,251,92316,2,0,P|176:276|237:282,1,84.9999976158143
74,156,92539,2,0,P|36:174|-15:233,1,84.9999976158143
173,130,92761,1,0,0:0:0:0:
41,54,92872,1,0,0:0:0:0:
335,166,92983,6,0,L|422:119,1,84.9999976158143
466,27,93205,1,0,0:0:0:0:
183,229,93316,6,0,L|91:281,1,84.9999976158143
38,367,93539,1,0,0:0:0:0:
242,110,93650,5,0,0:0:0:0:
280,310,93761,1,0,0:0:0:0:
365,174,93872,6,0,L|450:185,1,84.9999976158143
167,220,94094,1,0,0:0:0:0:
328,80,94205,1,0,0:0:0:0:
39,58,94316,6,0,P|98:76|174:65,1,84.9999976158143
244,34,94539,1,0,0:0:0:0:
185,194,94650,1,0,0:0:0:0:
512,36,94761,6,0,P|412:46|321:98,1,169.999995231629
296,182,95094,1,0,0:0:0:0:
70,143,95205,2,0,L|161:130,1,84.9999976158143
360,321,95427,2,0,L|276:304,1,84.9999976158143
211,133,95650,1,0,0:0:0:0:
156,342,95761,1,0,0:0:0:0:
80,247,95872,2,0,P|92:185|139:136,1,84.9999976158143
297,210,96094,2,0,P|335:228|376:237,1,84.9999976158143
47,52,96316,6,0,P|141:49|245:90,1,169.999995231629
306,166,96650,1,0,0:0:0:0:
464,301,96761,2,0,P|419:307|353:300,1,84.9999976158143
227,269,96983,2,0,P|186:278|147:295,1,84.9999976158143
40,384,97205,1,0,0:0:0:0:
106,241,97427,5,0,0:0:0:0:
40,384,97539,1,0,0:0:0:0:
32,174,97650,5,0,0:0:0:0:
40,384,97761,1,0,0:0:0:0:
218,227,97872,1,0,0:0:0:0:
218,227,98094,5,0,0:0:0:0:
447,143,98205,1,0,0:0:0:0:
88,59,98316,2,0,P|108:116|94:58,2,169.999995231629
97,87,98983,5,0,0:0:0:0:
472,196,99094,1,0,0:0:0:0:
346,94,99205,1,0,0:0:0:0:
221,184,99316,1,0,0:0:0:0:
97,87,99427,1,0,0:0:0:0:
188,318,99650,5,0,0:0:0:0:
279,46,99872,5,0,0:0:0:0:
169,84,99983,1,0,0:0:0:0:
377,78,100094,5,0,0:0:0:0:
441,213,100205,1,0,0:0:0:0:
284,205,100316,1,0,0:0:0:0:
365,166,100427,1,0,0:0:0:0:
337,310,100539,5,0,0:0:0:0:
182,226,100650,1,0,0:0:0:0:
234,315,100761,1,0,0:0:0:0:
279,223,100872,1,0,0:0:0:0:
84,162,100983,5,0,0:0:0:0:
172,118,101094,1,0,0:0:0:0:
279,121,101205,1,0,0:0:0:0:
341,182,101316,1,0,0:0:0:0:
354,264,101427,5,0,0:0:0:0:
147,211,101539,1,0,0:0:0:0:
415,73,101650,1,0,0:0:0:0:
77,114,101761,1,0,0:0:0:0:
303,170,101872,5,0,0:0:0:0:
