osu file format v14

[General]
AudioFilename: audio.mp3
AudioLeadIn: 0
PreviewTime: 52261
Countdown: 0
SampleSet: Soft
StackLeniency: 0.4
Mode: 0
LetterboxInBreaks: 0
WidescreenStoryboard: 0

[Editor]
Bookmarks: 9285,15175,26954,41678,50097,53273,94684,121140,127030,132735
DistanceSpacing: 1.8
BeatDivisor: 4
GridSize: 16
TimelineZoom: 2.5

[Metadata]
Title:Present
TitleUnicode:プレゼント
Artist:Chata
ArtistUnicode:茶太
Creator:Cappu
Version:Rinne best girl
Source:
Tags:
BeatmapID:1518129
BeatmapSetID:718828

[Difficulty]
HPDrainRate:6
CircleSize:3.8
OverallDifficulty:8
ApproachRate:9
SliderMultiplier:1.7
SliderTickRate:1

[Events]
//Background and Video events
0,0,"BG.jpg",0,0
//Break Periods
//Storyboard Layer 0 (Background)
//Storyboard Layer 1 (Fail)
//Storyboard Layer 2 (Pass)
//Storyboard Layer 3 (Foreground)
//Storyboard Sound Samples

[TimingPoints]
451,368.098159509202,4,2,0,65,1,0
451,-200,4,2,0,65,0,0
6340,-166.666666666667,4,2,0,65,0,0
9285,-100,4,2,0,65,0,0
15175,-142.857142857143,4,2,0,65,0,0
26954,-111.111111111111,4,2,0,65,0,0
53089,-142.857142857143,4,2,0,65,0,0
53273,-83.3333333333333,4,2,0,65,0,1
81432,-142.857142857143,4,2,0,65,0,1
82905,-100,4,2,0,65,0,0
94684,-142.857142857143,4,2,0,65,0,0
98733,428.571428571429,4,2,0,100,1,0
99141,428.571428571429,4,2,0,100,1,0
99575,472.44094488189,4,2,0,100,1,0
100093,368.098159509202,4,2,0,100,1,0
100461,521.739130434783,4,2,0,100,1,0
100982,645.161290322581,4,2,0,100,1,0
101627,1034.48275862069,4,2,0,100,1,0
102661,-81.3008130081301,4,2,0,100,0,0

[Colours]
Combo1 : 145,145,145
Combo2 : 255,141,28
Combo3 : 55,90,253
Combo4 : 17,164,185

[HitObjects]
304,96,451,6,0,P|228:121|168:72,1,148.75
244,40,1187,1,0,0:0:0:0:
244,40,1739,5,0,0:0:0:0:
235,144,1923,1,0,0:0:0:0:
226,248,2107,1,0,0:0:0:0:
244,40,2475,5,0,0:0:0:0:
226,248,2844,1,0,0:0:0:0:
226,248,3396,6,0,L|77:267,1,148.75
0,284,4132,1,0,0:0:0:0:
0,284,4684,6,0,L|4:229,2,42.5
10,154,5420,5,0,0:0:0:0:
35,365,5788,2,0,P|86:354|152:355,1,106.25
168,365,6340,6,0,P|182:330|194:267,1,101.999996887207
154,195,6893,1,0,0:0:0:0:
244,95,7077,2,0,P|258:130|270:193,1,101.999996887207
102,109,7813,2,0,L|0:96,1,101.999996887207
53,206,8365,2,0,P|103:198|155:196,1,101.999996887207
305,334,9101,2,0,L|303:373,1,25.4999992218018
305,334,9285,6,0,P|291:288|285:251,1,85
422,151,9653,2,0,P|414:192|402:233,1,85
162,161,10021,2,0,B|244:185|244:138|329:161,1,170
329,161,10574,1,0,0:0:0:0:
206,71,10758,5,0,0:0:0:0:
331,41,10942,1,0,0:0:0:0:
193,65,11126,1,0,0:0:0:0:
329,161,11310,1,0,0:0:0:0:
243,255,11494,2,0,P|193:251|141:233,1,85
146,233,11770,1,0,0:0:0:0:
135,221,11862,1,0,0:0:0:0:
193,65,12046,1,0,0:0:0:0:
220,60,12138,1,0,0:0:0:0:
247,62,12230,6,0,P|331:78|416:80,1,170
416,80,12782,1,0,0:0:0:0:
177,148,12966,2,0,P|253:185|334:208,1,170
334,208,13518,1,0,0:0:0:0:
179,272,13702,2,0,P|171:317|175:374,1,85
59,295,14071,2,0,P|67:250|63:193,1,85
64,198,14347,1,0,0:0:0:0:
60,185,14439,5,0,0:0:0:0:
177,148,14623,1,0,0:0:0:0:
162,47,14807,5,0,0:0:0:0:
255,76,14991,1,0,0:0:0:0:
272,182,15175,5,0,0:0:0:0:
272,182,15543,5,0,0:0:0:0:
355,150,15727,2,0,L|363:15,2,118.999996368408
409,242,16647,6,0,P|349:247|290:278,1,118.999996368408
372,327,17199,2,0,P|317:301|250:298,1,118.999996368408
297,382,17752,1,0,0:0:0:0:
409,242,18120,1,0,0:0:0:0:
409,242,18488,5,0,0:0:0:0:
380,157,18672,2,0,P|437:161|503:156,2,118.999996368408
308,78,19592,6,0,L|294:198,1,118.999996368408
222,249,20144,2,0,L|208:130,1,118.999996368408
136,78,20696,1,0,0:0:0:0:
136,78,21064,6,0,P|92:96|73:101,1,59.4999981842042
0,61,21432,1,0,0:0:0:0:
35,175,21617,2,0,P|45:232|45:288,1,89.2499972763062
46,281,21985,1,0,0:0:0:0:
155,198,22169,2,0,P|151:235|150:273,1,59.4999981842042
205,363,22537,5,0,0:0:0:0:
205,363,22905,6,0,P|240:346|262:321,1,59.4999981842042
362,297,23273,2,0,P|334:269|322:238,1,59.4999981842042
233,178,23641,2,0,P|248:142|249:109,1,59.4999981842042
163,25,24009,6,0,P|215:30|293:24,1,118.999996368408
356,4,24561,1,0,0:0:0:0:
425,61,24745,1,0,0:0:0:0:
405,160,24929,1,0,0:0:0:0:
431,50,25113,1,0,0:0:0:0:
399,171,25298,1,0,0:0:0:0:
399,171,25666,5,0,0:0:0:0:
169,111,26034,1,0,0:0:0:0:
399,171,26402,5,0,0:0:0:0:
288,213,26586,2,0,L|277:255,3,29.7499990921021
271,274,26954,6,0,P|226:260|179:254,1,76.4999976654053
118,302,27322,1,0,0:0:0:0:
77,195,27506,2,0,L|75:116,2,76.4999976654053
202,105,28058,2,0,L|204:26,1,76.4999976654053
329,86,28426,6,0,P|316:161|328:244,1,152.999995330811
406,303,28978,2,0,P|334:277|250:274,1,152.999995330811
118,335,29531,1,0,0:0:0:0:
179,229,29715,1,0,0:0:0:0:
50,271,29899,6,0,P|40:233|33:177,1,76.4999976654053
65,110,30267,1,0,0:0:0:0:
176,139,30451,2,0,P|181:101|191:64,2,76.4999976654053
273,257,31003,2,0,P|301:229|332:205,1,76.4999976654053
461,249,31371,6,0,P|434:185|440:88,1,152.999995330811
509,25,31923,2,0,P|447:57|350:59,1,152.999995330811
222,26,32475,1,0,0:0:0:0:
222,26,32659,1,0,0:0:0:0:
82,158,32844,5,0,0:0:0:0:
171,202,33028,1,0,0:0:0:0:
89,258,33212,1,0,0:0:0:0:
186,197,33396,2,0,L|193:120,1,76.4999976654053
134,51,33764,1,0,0:0:0:0:
282,96,33948,2,0,L|289:172,1,76.4999976654053
340,300,34316,6,0,P|398:318|462:291,1,114.749996498108
461,294,34684,1,0,0:0:0:0:
454,171,34868,2,0,P|423:194|396:220,2,76.4999976654053
392,33,35420,2,0,P|387:70|378:108,1,76.4999976654053
252,162,35788,6,0,P|176:184|98:169,1,152.999995330811
33,93,36340,2,0,P|66:164|64:244,1,152.999995330811
0,378,36893,1,0,0:0:0:0:
0,378,37077,1,0,0:0:0:0:
132,339,37261,6,0,P|208:323|301:336,1,152.999995330811
385,382,37813,6,0,L|385:340,1,38.2499988327027
347,200,38181,6,0,L|347:238,1,38.2499988327027
457,257,38365,2,0,B|448:201|448:201|454:143,1,114.749996498108
468,116,38733,5,0,0:0:0:0:
369,106,38917,2,0,P|325:107|284:98,1,76.4999976654053
190,22,39285,2,0,L|184:98,1,76.4999976654053
136,194,39653,1,0,0:0:0:0:
88,49,39837,1,0,0:0:0:0:
183,113,40021,1,0,0:0:0:0:
72,270,40205,5,0,0:0:0:0:
179,284,40390,1,0,0:0:0:0:
223,382,40574,1,0,0:0:0:0:
276,238,40758,2,0,P|315:230|363:229,1,76.4999976654053
443,239,41126,5,0,0:0:0:0:
435,186,41310,1,0,0:0:0:0:
444,154,41494,1,0,0:0:0:0:
444,154,41586,1,0,0:0:0:0:
444,154,41678,6,0,P|362:145|291:111,1,152.999995330811
201,30,42230,2,0,L|192:127,1,76.4999976654053
106,202,42598,1,0,0:0:0:0:
218,225,42782,1,0,0:0:0:0:
93,339,42966,1,0,0:0:0:0:
106,202,43150,6,0,L|104:117,2,76.4999976654053
203,300,43702,2,0,P|208:261|221:211,1,76.4999976654053
317,109,44071,1,0,0:0:0:0:
317,109,44163,1,0,0:0:0:0:
317,109,44255,2,0,P|349:135|388:157,1,76.4999976654053
495,77,44623,5,0,0:0:0:0:
495,77,44807,1,0,0:0:0:0:
499,192,44991,1,0,0:0:0:0:
432,331,45175,2,0,P|419:287|404:256,1,76.4999976654053
290,201,45543,1,0,0:0:0:0:
275,315,45727,1,0,0:0:0:0:
199,165,45911,1,0,0:0:0:0:
323,106,46095,6,0,L|411:97,2,76.4999976654053
219,15,46647,2,0,P|220:91|198:164,1,152.999995330811
190,177,47107,1,0,0:0:0:0:
182,190,47199,1,0,0:0:0:0:
317,269,47383,1,0,0:0:0:0:
325,282,47474,1,0,0:0:0:0:
333,295,47567,6,0,B|255:276|255:318|183:295,1,152.999995330811
182,294,48120,1,0,0:0:0:0:
299,174,48304,2,0,P|341:175|385:202,1,76.4999976654053
439,283,48672,1,0,0:0:0:0:
512,148,48856,2,0,P|470:147|426:120,1,76.4999976654053
361,19,49224,6,0,L|348:103,1,76.4999976654053
374,207,49592,1,0,0:0:0:0:
242,103,49776,1,0,0:0:0:0:
254,225,49960,1,0,0:0:0:0:
123,330,50144,1,0,0:0:0:0:
135,208,50328,1,0,0:0:0:0:
336,319,50512,5,0,0:0:0:0:
123,330,50696,1,0,0:0:0:0:
348,197,50880,5,0,0:0:0:0:
135,208,51064,1,0,0:0:0:0:
360,75,51248,5,0,0:0:0:0:
147,86,51432,1,0,0:0:0:0:
336,319,51617,5,0,0:0:0:0:
251,33,51801,1,0,0:0:0:0:
313,105,53089,6,0,L|341:112,1,29.7499990921021
430,146,53273,6,0,B|330:118|330:180|231:152,1,203.999993774414
54,101,53825,1,0,0:0:0:0:
222,26,54009,1,0,0:0:0:0:
99,198,54193,1,0,0:0:0:0:
119,16,54377,1,0,0:0:0:0:
80,216,54561,1,0,0:0:0:0:
246,135,54745,6,0,B|282:130|312:93|312:93|290:170|312:235,1,203.999993774414
452,360,55298,1,0,0:0:0:0:
393,216,55482,2,0,P|388:146|401:103,1,101.999996887207
480,244,55850,1,0,0:0:0:0:
301,146,56034,1,0,0:0:0:0:
353,364,56218,6,0,B|275:375|213:321|213:321|230:348|232:379,1,203.999993774414
125,196,56770,1,0,0:0:0:0:
55,332,56954,1,0,0:0:0:0:
208,231,57138,1,0,0:0:0:0:
55,246,57322,1,0,0:0:0:0:
231,142,57506,1,0,0:0:0:0:
360,320,57690,6,0,B|356:357|318:366|318:366|265:302|325:215,1,203.999993774414
440,80,58242,1,0,0:0:0:0:
453,240,58426,1,0,0:0:0:0:
453,240,58518,1,0,0:0:0:0:
453,240,58610,1,0,0:0:0:0:
308,97,58794,1,0,0:0:0:0:
280,89,58886,1,0,0:0:0:0:
252,85,58978,1,0,0:0:0:0:
223,86,59070,1,0,0:0:0:0:
195,90,59162,1,0,0:0:0:0:
167,98,59254,1,0,0:0:0:0:
141,109,59347,6,0,B|174:150|174:204|174:204|136:261|150:324,1,203.999993774414
278,379,59899,2,0,P|267:333|270:276,1,101.999996887207
343,122,60267,1,0,0:0:0:0:
410,314,60451,1,0,0:0:0:0:
279,185,60635,1,0,0:0:0:0:
397,40,60819,6,0,P|432:83|439:137,1,101.999996887207
400,328,61187,1,0,0:0:0:0:
279,185,61371,1,0,0:0:0:0:
424,234,61555,1,0,0:0:0:0:
245,275,61739,1,0,0:0:0:0:
271,76,61923,1,0,0:0:0:0:
271,76,62107,1,0,0:0:0:0:
92,116,62291,6,0,L|77:16,1,101.999996887207
173,195,62659,2,0,L|158:295,2,101.999996887207
354,158,63212,1,0,0:0:0:0:
178,58,63396,1,0,0:0:0:0:
265,184,63580,1,0,0:0:0:0:
402,33,63764,6,0,P|351:38|303:56,1,101.999996887207
165,206,64132,1,0,0:0:0:0:
367,254,64316,2,0,B|422:202|394:119|394:119|360:117|322:148,1,203.999993774414
302,339,64868,1,0,0:0:0:0:
302,339,65052,1,0,0:0:0:0:
174,202,65236,6,0,L|168:308,1,101.999996887207
168,303,65604,1,0,0:0:0:0:
239,128,65788,2,0,P|188:104|125:115,1,101.999996887207
50,228,66156,1,0,0:0:0:0:
255,267,66340,1,0,0:0:0:0:
255,267,66525,1,0,0:0:0:0:
368,107,66709,6,0,P|317:105|273:128,1,101.999996887207
272,128,67077,1,0,0:0:0:0:
343,303,67261,2,0,L|338:202,2,101.999996887207
463,138,67813,2,0,L|468:36,1,101.999996887207
468,36,68089,1,0,0:0:0:0:
468,36,68181,5,0,0:0:0:0:
432,274,68365,1,0,0:0:0:0:
325,49,68549,5,0,0:0:0:0:
330,289,68733,1,0,0:0:0:0:
176,88,68917,5,0,0:0:0:0:
229,330,69101,1,0,0:0:0:0:
229,330,69193,1,0,0:0:0:0:
229,330,69285,5,0,0:0:0:0:
47,174,69469,1,0,0:0:0:0:
322,184,69653,5,0,0:0:0:0:
129,379,69837,1,0,0:0:0:0:
141,176,70205,5,0,0:0:0:0:
423,127,70574,5,0,0:0:0:0:
271,25,70758,1,0,0:0:0:0:
261,55,70850,1,0,0:0:0:0:
256,86,70942,1,0,0:0:0:0:
253,117,71034,1,0,0:0:0:0:
255,149,71126,6,0,B|209:147|184:125|184:125|157:145|111:146,1,152.999995330811
94,143,71494,1,0,0:0:0:0:
181,267,71678,2,0,P|194:326|194:372,1,101.999996887207
66,235,72046,1,0,0:0:0:0:
273,238,72230,1,0,0:0:0:0:
109,325,72414,1,0,0:0:0:0:
292,341,72598,6,0,L|411:360,1,101.999996887207
399,152,72966,2,0,P|371:197|364:248,1,101.999996887207
502,124,73334,1,0,0:0:0:0:
370,45,73518,1,0,0:0:0:0:
476,219,73702,1,0,0:0:0:0:
297,166,73886,1,0,0:0:0:0:
294,354,74071,5,0,0:0:0:0:
294,354,74255,1,0,0:0:0:0:
166,195,74439,1,0,0:0:0:0:
40,328,74623,2,0,L|146:356,1,101.999996887207
294,256,74991,1,0,0:0:0:0:
193,80,75175,2,0,P|175:134|165:186,1,101.999996887207
350,183,75543,5,0,0:0:0:0:
417,23,75727,1,0,0:0:0:0:
458,223,75911,1,0,0:0:0:0:
331,90,76095,2,0,P|299:43|267:7,2,101.999996887207
291,270,76647,1,0,0:0:0:0:
464,208,76831,1,0,0:0:0:0:
241,181,77015,6,0,B|141:150|141:213|42:181,1,203.999993774414
188,283,77567,2,0,P|187:342|171:380,2,101.999996887207
196,78,78120,2,0,P|149:80|96:97,1,101.999996887207
256,188,78488,6,0,B|319:150|320:71|320:71|323:120|356:149,1,203.999993774414
457,322,79040,2,0,B|384:275|322:322|322:322|341:351|379:354,1,203.999993774414
511,237,79592,2,0,P|463:212|393:195,1,101.999996887207
400,197,79868,1,0,0:0:0:0:
382,198,79960,5,0,0:0:0:0:
314,22,80144,1,0,0:0:0:0:
501,52,80328,1,0,0:0:0:0:
335,304,80512,5,0,0:0:0:0:
364,117,80696,1,0,0:0:0:0:
511,237,80880,1,0,0:0:0:0:
259,196,81064,5,0,0:0:0:0:
151,86,81432,6,0,L|162:213,1,118.999996368408
53,94,82169,6,0,L|64:221,1,118.999996368408
314,37,82905,6,0,P|298:99|288:225,1,170
287,204,83457,1,0,0:0:0:0:
419,98,83641,2,0,P|407:149|403:201,1,85
460,360,84009,1,0,0:0:0:0:
506,240,84193,1,0,0:0:0:0:
356,300,84377,6,0,L|364:384,2,85
239,202,84929,2,0,L|231:286,1,85
162,384,85298,1,0,0:0:0:0:
115,203,85482,2,0,L|106:118,1,85
256,35,85850,6,0,B|224:114|272:119|238:201,1,170
238,201,86402,1,0,0:0:0:0:
401,145,86586,2,0,P|372:114|339:89,1,85
313,269,86954,2,0,P|354:258|392:240,1,85
495,116,87322,5,0,0:0:0:0:
495,116,87506,2,0,P|502:162|506:223,1,85
412,322,87874,2,0,P|403:280|392:239,1,85
322,144,88242,1,0,0:0:0:0:
171,254,88426,2,0,P|121:246|46:248,1,85
57,43,88794,6,0,B|43:60|17:73|17:73|87:62|158:68,1,170
136,66,89347,1,0,0:0:0:0:
300,12,89531,2,0,P|283:67|277:122,1,85
421,215,89899,1,0,0:0:0:0:
394,91,90083,1,0,0:0:0:0:
315,232,90267,6,0,P|319:281|327:328,2,85
163,239,90819,2,0,P|174:198|189:158,1,85
284,86,91187,1,0,0:0:0:0:
103,38,91371,2,0,P|73:68|46:101,1,85
42,116,91647,1,0,0:0:0:0:
38,131,91739,6,0,P|50:207|50:317,1,170
51,299,92291,1,0,0:0:0:0:
182,234,92475,1,0,0:0:0:0:
202,360,92659,1,0,0:0:0:0:
321,193,92844,1,0,0:0:0:0:
299,329,93028,1,0,0:0:0:0:
226,125,93212,6,0,L|220:36,1,85
220,40,93580,1,0,0:0:0:0:
429,80,93764,2,0,B|369:51|310:80|310:80|346:80|377:99,1,170
471,213,94316,2,0,P|426:193|379:184,1,85
309,220,94684,5,0,0:0:0:0:
313,244,94868,1,0,0:0:0:0:
203,325,95052,5,0,0:0:0:0:
217,237,95236,1,0,0:0:0:0:
84,172,95420,5,0,0:0:0:0:
104,298,95604,1,0,0:0:0:0:
104,298,96156,6,0,P|65:294|28:292,2,59.4999981842042
110,321,96708,1,0,0:0:0:0:
252,203,96892,5,0,0:0:0:0:
230,290,97076,1,0,0:0:0:0:
316,266,97260,2,0,P|361:266|395:268,1,59.4999981842042
399,271,97628,5,0,0:0:0:0:
413,293,97812,1,0,0:0:0:0:
349,186,97997,5,0,0:0:0:0:
258,190,98181,1,0,0:0:0:0:
449,185,98365,5,0,0:0:0:0:
506,73,98549,1,0,0:0:0:0:
404,71,98733,6,0,B|405:72|372:80|317:70,1,85
235,25,99141,2,0,B|236:24|203:16|148:26,1,85
75,78,99575,2,0,L|82:167,1,85
93,293,100093,5,0,0:0:0:0:
175,250,100461,5,0,0:0:0:0:
270,254,100982,5,0,0:0:0:0:
352,211,101627,5,0,0:0:0:0:
128,83,102661,6,0,B|68:79|52:144|104:161|104:161|152:178|157:233|84:251|84:251|98:228|170:236|170:236|306:244|339:190|331:75|269:18|184:87|168:157|215:211|241:233|241:233|319:275|367:167|367:167|367:87|445:89|445:89|393:92|378:144|429:170|429:170|476:187|486:253|396:263,1,1359.15002073898
