osu file format v14

[General]
AudioFilename: audio.mp3
AudioLeadIn: 0
PreviewTime: 52193
Countdown: 0
SampleSet: Soft
StackLeniency: 0.7
Mode: 2
LetterboxInBreaks: 0
WidescreenStoryboard: 1

[Editor]
DistanceSpacing: 0.8
BeatDivisor: 4
GridSize: 8
TimelineZoom: 1.7

[Metadata]
Title:Present
TitleUnicode:プレゼント
Artist:Chata
ArtistUnicode:茶太
Creator:-Luminate
Version:Sparkling
Source:ISLAND
Tags:frontwing アイランド visual novel ending dapuluous
BeatmapID:1962102
BeatmapSetID:939367

[Difficulty]
HPDrainRate:6
CircleSize:4.2
OverallDifficulty:9.2
ApproachRate:9.2
SliderMultiplier:1.95
SliderTickRate:2

[Events]
//Background and Video events
0,0,"island.jpg",0,0
//Break Periods
2,152002,156769
//Storyboard Layer 0 (Background)
//Storyboard Layer 1 (Fail)
//Storyboard Layer 2 (Pass)
//Storyboard Layer 3 (Foreground)
//Storyboard Layer 4 (Overlay)
//Storyboard Sound Samples

[TimingPoints]
346,368.098159509202,4,2,1,30,1,0
346,-125,4,2,1,30,0,0
9180,-100,4,2,1,50,0,0
11665,-100,4,2,2,50,0,0
12125,-100,4,2,1,50,0,0
15069,-100,4,2,1,40,0,0
15437,-100,4,2,1,40,0,0
25376,-100,4,2,1,55,0,0
41572,-100,4,2,1,55,0,0
47462,-100,4,2,1,65,0,0
50406,-100,4,2,1,65,0,0
52247,-100,4,2,1,40,0,0
53168,-100,4,2,1,80,0,1
58321,-100,4,2,1,70,0,0
59241,-100,4,2,1,80,0,1
69732,-100,4,2,1,70,0,0
71020,-100,4,2,1,80,0,1
79855,-100,4,2,1,60,0,0
94578,-100,4,2,1,50,0,0
106357,-100,4,2,1,55,0,0
112247,-100,4,2,1,60,0,0
121081,-100,4,2,1,65,0,0
126971,-100,4,2,1,70,0,0
129916,-100,4,2,1,75,0,0
131756,-100,4,2,1,50,0,0
132677,-100,4,2,1,80,0,1
138382,-100,4,2,1,80,0,0
138566,-100,4,2,1,80,0,1
151082,-100,4,2,1,60,0,0
157339,-100,4,2,1,40,0,0
158811,-100,4,2,1,45,0,0
160928,-100,4,2,1,50,0,0
162308,-100,4,2,1,60,0,0
163965,-100,4,2,1,70,0,0
165253,-100,4,2,1,80,0,1
176112,-100,4,2,1,70,0,0
177033,-100,4,2,1,80,0,1
185867,-100,4,2,1,60,0,0
200591,-100,4,2,1,50,0,0
204640,402.684563758389,4,2,1,30,1,0
205042,468.75,4,2,1,30,1,0
205510,447.761194029851,4,2,1,30,1,0
205733,545.454545454546,4,2,1,30,1,0
206005,745.341614906832,4,2,1,30,1,0
206377,1071.42857142857,4,2,1,30,1,0
206912,1090.90909090909,4,2,1,30,1,0
208957,1600,4,2,1,30,1,0
209057,3129.40071976217,4,2,1,30,1,0
209448,-100,4,2,1,20,0,0

[Colours]
Combo1 : 184,201,226
Combo2 : 100,126,220

[HitObjects]
120,216,346,6,2,L|432:216,1,312,0|2,0:0|0:0,0:0:0:0:
192,208,1634,1,0,0:0:0:0:
360,176,1818,2,2,L|368:80,1,78,2|0,0:0|0:0,0:0:0:0:
192,96,2370,1,0,0:0:0:0:
440,96,2738,1,2,0:0:0:0:
168,256,3290,6,2,L|512:256,1,312,0|2,0:0|0:0,0:0:0:0:
240,208,4579,1,0,0:0:0:0:
352,160,4763,1,2,0:0:0:0:
240,112,4947,1,0,0:0:0:0:
456,96,5315,1,0,0:0:0:0:
192,96,5683,1,2,0:0:0:0:
440,304,6235,6,2,L|96:304,1,312,0|2,0:0|0:0,0:0:0:0:
368,208,7523,1,0,0:0:0:0:
200,176,7707,2,2,L|192:80,1,78,2|0,0:0|0:0,0:0:0:0:
408,96,8259,1,0,0:0:0:0:
152,104,8628,2,0,P|80:136|40:216,1,156,2|0,0:0|0:0,0:0:0:0:
352,208,9180,6,0,L|456:208,1,97.5,12|0,0:0|0:0,0:0:0:0:
304,344,9548,2,0,L|288:216,1,97.5,2|0,0:0|0:0,0:0:0:0:
472,208,9916,2,0,L|248:192,1,195,2|8,0:0|0:0,0:0:0:0:
400,168,10468,1,2,0:0:0:0:
144,288,10651,6,0,L|128:160,1,97.5,6|0,0:0|0:0,0:0:0:0:
272,160,11019,1,8,0:0:0:0:
128,136,11203,1,2,0:0:0:0:
272,240,11387,2,0,L|384:240,1,97.5,8|0,0:0|0:0,0:0:0:0:
312,208,11664,1,10,0:0:0:0:
128,152,11756,2,0,L|16:152,1,97.5,8|8,0:0|0:0,0:0:0:0:
88,120,12032,1,8,0:0:0:0:
312,112,12124,6,0,L|432:112,1,97.5,12|0,0:0|0:0,0:0:0:0:
280,232,12492,2,0,L|168:232,1,97.5,2|0,0:0|0:0,0:0:0:0:
344,336,12860,2,0,P|400:280|320:216,1,195,2|8,0:0|0:0,0:0:0:0:
184,208,13413,1,0,0:0:0:0:
440,112,13597,6,0,L|448:224,1,97.5,6|0,0:0|0:0,0:0:0:0:
320,248,13965,1,2,0:0:0:0:
448,288,14149,2,0,L|376:288,1,48.75,8|8,0:0|0:0,0:0:0:0:
184,296,14333,2,0,L|320:296,1,97.5,8|8,0:0|0:3,0:0:0:0:
136,200,14701,1,8,0:3:0:0:
280,144,14885,1,4,0:3:0:0:
32,136,15069,5,2,0:0:0:0:
272,272,15437,2,0,L|280:160,1,97.5,0|2,0:0|0:0,0:0:0:0:
136,144,15989,2,0,L|368:136,1,195,0|0,0:0|0:0,0:0:0:0:
168,304,16541,6,0,P|80:304|40:192,1,195,2|0,0:0|0:0,0:0:0:0:
216,208,17094,2,0,P|272:160|128:96,1,292.5,2|0,0:0|0:0,0:0:0:0:
384,48,18014,6,0,P|472:56|496:176,1,195,2|0,0:0|0:0,0:0:0:0:
368,320,18566,2,0,P|272:288|272:184,1,195,2|0,0:0|0:0,0:0:0:0:
416,184,19302,1,0,0:0:0:0:
264,176,19486,6,0,P|216:112|296:56,1,195,2|0,0:0|0:0,0:0:0:0:
408,296,20038,2,0,L|200:304,1,195,2|0,0:0|0:0,0:0:0:0:
320,272,20591,1,0,0:0:0:0:
96,176,20959,6,0,L|16:104,2,97.5,2|0|0,0:0|0:0|0:0,0:0:0:0:
256,304,21511,2,0,P|280:216|168:192,1,195,2|0,0:0|0:0,0:0:0:0:
48,168,22063,1,0,0:0:0:0:
352,128,22431,5,2,0:0:0:0:
136,72,22799,1,0,0:0:0:0:
352,40,23167,2,0,L|240:40,2,97.5,2|0|0,0:0|0:0|0:0,0:0:0:0:
64,312,23903,6,0,P|88:248|224:208,1,195,2|0,0:0|0:0,0:0:0:0:
384,304,24456,1,2,0:0:0:0:
488,272,24640,1,0,0:0:0:0:
488,184,24824,1,0,0:0:0:0:
344,160,25008,1,2,0:0:0:0:
456,96,25192,1,0,0:0:0:0:
320,64,25376,5,8,0:0:0:0:
56,216,25560,2,0,L|176:216,1,97.5,8|0,0:3|0:0,0:0:0:0:
416,296,25928,2,0,L|192:296,1,195,12|8,0:2|0:3,0:0:0:0:
360,256,26480,2,0,L|368:144,1,97.5,8|0,0:1|0:0,0:0:0:0:
88,224,26848,6,0,P|40:160|128:112,1,195,14|8,0:0|0:1,0:0:0:0:
256,256,27400,2,0,P|296:208|208:144,1,195,10|8,0:0|0:0,0:0:0:0:
344,80,27953,2,0,L|448:80,1,97.5,8|0,0:1|0:0,0:0:0:0:
184,312,28321,6,0,P|128:304|64:192,1,195,8|8,0:0|0:1,0:0:0:0:
224,240,28873,2,0,P|304:224|352:112,1,195,10|8,0:0|0:0,0:0:0:0:
200,96,29425,2,0,L|96:96,1,97.5,8|0,0:1|0:0,0:0:0:0:
408,312,29793,6,0,P|464:256|392:184,1,195,8|8,0:0|0:1,0:0:0:0:
256,136,30345,2,0,L|480:128,1,195,10|8,0:0|0:0,0:0:0:0:
336,64,30897,2,0,L|464:64,1,97.5,8|0,0:1|0:0,0:0:0:0:
184,320,31265,6,0,P|136:264|224:192,1,195,10|8,0:0|0:1,0:0:0:0:
344,192,31818,2,0,L|128:192,1,195,10|8,0:0|0:0,0:0:0:0:
264,120,32370,2,0,L|376:120,1,97.5,8|0,0:1|0:0,0:0:0:0:
64,288,32738,6,0,L|192:288,2,97.5,14|0|8,0:0|0:0|0:1,0:0:0:0:
224,272,33290,2,0,P|264:240|200:136,1,195,10|8,0:0|0:0,0:0:0:0:
40,72,33842,2,0,L|152:72,1,97.5,8|0,0:1|0:0,0:0:0:0:
440,72,34210,6,0,P|376:160|288:176,1,195,10|8,0:0|0:1,0:0:0:0:
168,256,34762,2,0,L|376:256,1,195,10|8,0:0|0:0,0:0:0:0:
240,312,35314,2,0,L|128:312,1,97.5,8|0,0:1|0:0,0:0:0:0:
448,248,35683,6,0,P|480:208|384:112,1,195,14|8,0:0|0:1,0:0:0:0:
272,184,36235,2,0,P|200:168|128:72,1,195,10|8,0:0|0:0,0:0:0:0:
272,56,36787,2,0,L|376:56,1,97.5,8|0,0:1|0:0,0:0:0:0:
96,288,37155,6,0,P|72:232|176:168,1,195,10|8,0:0|0:1,0:0:0:0:
288,120,37707,2,0,L|160:120,1,97.5,10|0,0:0|0:0,0:0:0:0:
464,40,38075,2,0,L|360:40,2,97.5,10|8|8,0:0|0:1|0:0,0:0:0:0:
192,312,38627,6,0,P|136:272|208:192,1,195,14|8,0:0|0:1,0:0:0:0:
352,152,39179,2,0,L|152:152,1,195,10|8,0:0|0:0,0:0:0:0:
24,88,39732,2,0,L|136:88,1,97.5,8|0,0:1|0:0,0:0:0:0:
392,88,40100,6,0,L|496:88,2,97.5,14|8|8,0:0|0:0|0:1,0:0:0:0:
248,88,40652,2,0,P|160:112|104:224,1,195,8|8,0:3|0:3,0:0:0:0:
232,240,41204,1,8,0:0:0:0:
104,280,41388,1,4,0:3:0:0:
432,288,41572,6,0,L|440:160,1,97.5,6|0,0:0|0:0,0:0:0:0:
304,176,41940,1,8,0:3:0:0:
440,168,42124,2,0,L|328:168,1,97.5,6|0,0:3|0:0,0:0:0:0:
216,144,42492,1,8,0:3:0:0:
344,104,42676,1,10,0:0:0:0:
168,56,42860,1,8,0:3:0:0:
440,56,43045,5,8,0:3:0:0:
312,56,43229,2,0,L|304:168,1,97.5,8|8,0:0|0:0,0:0:0:0:
432,216,43597,2,0,L|224:216,1,195,12|0,0:3|0:0,0:0:0:0:
352,168,44149,2,0,L|456:168,1,97.5,8|8,0:3|0:0,0:0:0:0:
152,336,44517,5,10,0:0:0:0:
280,320,44701,2,0,L|288:208,1,97.5,8|8,0:0|0:3,0:0:0:0:
136,216,45069,2,0,P|64:192|32:72,1,195,6|0,0:3|0:0,0:0:0:0:
152,88,45621,1,10,0:0:0:0:
432,88,45805,1,8,0:3:0:0:
296,312,45989,6,0,P|248:256|336:192,1,195,8|8,0:0|0:3,0:0:0:0:
456,152,46541,2,0,L|240:144,1,195,6|8,0:3|0:0,0:0:0:0:
336,136,47002,1,8,0:0:0:0:
408,128,47094,1,8,0:0:0:0:
224,80,47278,2,0,L|160:72,1,48.75,8|8,0:0|0:0,0:0:0:0:
408,336,47462,6,0,P|464:264|392:208,1,195,14|8,0:0|0:0,0:0:0:0:
272,208,48014,1,2,0:0:0:0:
32,128,48198,2,0,L|264:128,1,195,12|0,0:1|0:0,0:0:0:0:
56,296,48750,6,0,L|40:168,1,97.5,8|0,0:1|0:0,0:0:0:0:
240,144,49118,2,0,L|112:144,1,97.5,8|0,0:1|0:0,0:0:0:0:
280,56,49486,1,2,0:0:0:0:
144,32,49670,1,8,0:1:0:0:
448,240,49854,2,0,L|350:240,2,97.5,8|8|0,0:0|0:1|0:0,0:0:0:0:
152,280,50406,6,0,L|32:280,1,97.5,14|0,0:1|0:0,0:0:0:0:
320,160,50775,1,8,0:1:0:0:
176,136,50959,1,8,0:0:0:0:
464,96,51143,1,8,0:1:0:0:
328,48,51327,1,8,0:0:0:0:
480,24,51511,1,8,0:1:0:0:
176,32,51695,1,10,0:0:0:0:
472,208,52247,5,0,0:0:0:0:
288,120,52431,2,0,L|496:112,1,195,2|0,0:0|0:0,0:0:0:0:
32,312,53167,6,0,P|32:264|168:176,1,195,14|8,0:0|0:0,0:0:0:0:
288,320,53719,1,8,0:1:0:0:
160,272,53903,1,2,0:0:0:0:
448,200,54087,1,10,0:0:0:0:
328,128,54272,1,10,0:0:0:0:
480,104,54456,1,8,0:1:0:0:
216,184,54640,6,0,L|16:104,1,195,10|8,0:0|0:0,0:0:0:0:
168,88,55192,1,8,0:1:0:0:
32,232,55376,2,0,L|144:232,1,97.5,2|0,0:0|0:0,0:0:0:0:
312,304,55744,2,0,L|200:304,1,97.5,8|8,0:0|0:1,0:0:0:0:
464,248,56112,6,0,P|496:192|392:120,1,195,14|8,0:0|0:0,0:0:0:0:
264,304,56664,1,8,0:1:0:0:
400,264,56848,1,10,0:0:0:0:
120,200,57032,1,10,0:0:0:0:
248,136,57217,1,2,0:0:0:0:
64,104,57401,1,8,0:1:0:0:
400,200,57584,6,0,L|408:80,1,97.5,6|0,0:0|0:0,0:0:0:0:
248,80,57953,2,0,L|384:80,1,97.5,10|8,0:3|0:1,0:0:0:0:
88,176,58321,1,10,0:3:0:0:
376,168,58689,1,14,0:0:0:0:
136,264,58873,2,8,L|64:264,1,48.75,8|8,0:1|0:1,0:0:0:0:
328,312,59057,2,8,L|424:312,1,48.75,8|8,0:1|0:1,0:0:0:0:
112,312,59241,6,0,P|72:256|176:192,1,195,14|8,0:0|0:1,0:0:0:0:
304,144,59793,2,0,L|96:136,1,195,10|8,0:0|0:0,0:0:0:0:
408,72,60345,1,8,0:1:0:0:
112,144,60529,6,0,L|104:24,1,97.5,2|8,0:0|0:0,0:0:0:0:
240,48,60897,1,8,0:0:0:0:
104,192,61081,1,8,0:1:0:0:
368,232,61265,1,10,0:0:0:0:
240,176,61449,1,2,0:0:0:0:
376,136,61633,1,8,0:0:0:0:
104,122,61818,1,10,0:1:0:0:
368,328,62002,6,0,L|480:312,2,97.5,2|8|8,0:0|0:0|0:0,0:0:0:0:
232,280,62554,1,8,0:1:0:0:
376,232,62738,2,0,L|504:224,1,97.5,2|8,0:0|0:0,0:0:0:0:
328,152,63106,2,0,L|216:144,1,97.5,8|8,0:0|0:1,0:0:0:0:
360,64,63474,1,2,0:0:0:0:
80,264,63658,6,0,L|200:264,2,97.5,8|8|8,0:0|0:0|0:1,0:0:0:0:
368,240,64210,2,0,P|416:200|328:120,1,195,10|8,0:0|0:0,0:0:0:0:
200,120,64762,1,8,0:1:0:0:
472,304,64946,6,0,L|480:176,1,97.5,2|8,0:0|0:0,0:0:0:0:
336,176,65315,1,8,0:0:0:0:
480,160,65499,1,8,0:1:0:0:
200,200,65683,2,0,P|160:144|256:72,1,195,2|8,0:0|0:0,0:0:0:0:
352,64,66235,1,8,0:1:0:0:
72,320,66419,6,0,L|64:192,1,97.5,2|8,0:0|0:0,0:0:0:0:
200,200,66788,1,8,0:0:0:0:
64,176,66972,1,8,0:1:0:0:
336,192,67156,2,0,P|384:160|288:88,1,195,10|8,0:0|0:0,0:0:0:0:
176,80,67707,2,0,L|64:80,1,97.5,8|0,0:1|0:0,0:0:0:0:
472,320,68075,5,14,0:1:0:0:
344,280,68259,1,8,0:0:0:0:
32,240,68443,1,10,0:1:0:0:
160,208,68627,1,8,0:0:0:0:
464,160,68811,1,10,0:1:0:0:
160,112,68995,2,2,L|224:112,1,48.75,8|8,0:0|0:0,0:0:0:0:
464,232,69179,2,0,L|320:232,1,97.5,8|8,0:1|0:0,0:0:0:0:
64,232,69548,5,12,0:1:0:0:
368,176,69732,1,10,0:3:0:0:
48,288,70100,2,0,P|32:200|144:160,1,195,8|8,0:1|0:1,0:0:0:0:
416,160,70652,2,0,L|344:160,1,48.75,8|8,0:1|0:1,0:0:0:0:
160,160,70836,2,8,L|104:160,1,48.75,8|4,0:3|0:3,0:0:0:0:
400,312,71020,6,0,P|464:264|400:192,1,195,14|8,0:0|0:1,0:0:0:0:
232,144,71572,2,0,L|440:136,1,195,10|8,0:0|0:0,0:0:0:0:
104,72,72124,1,8,0:1:0:0:
424,144,72308,6,0,L|432:24,1,97.5,2|8,0:0|0:0,0:0:0:0:
288,48,72676,1,8,0:0:0:0:
424,192,72860,1,8,0:1:0:0:
144,232,73044,1,10,0:0:0:0:
272,176,73228,1,2,0:0:0:0:
136,136,73412,1,8,0:0:0:0:
424,112,73597,1,10,0:1:0:0:
144,328,73781,6,0,L|32:312,2,97.5,2|8|8,0:0|0:0|0:0,0:0:0:0:
280,280,74333,1,8,0:1:0:0:
136,232,74517,2,0,L|256:224,1,97.5,2|8,0:0|0:0,0:0:0:0:
376,168,74885,2,0,L|256:168,1,97.5,8|8,0:0|0:1,0:0:0:0:
432,88,75253,1,2,0:0:0:0:
152,208,75437,6,0,L|32:208,2,97.5,8|8|8,0:0|0:0|0:1,0:0:0:0:
328,200,75989,2,0,P|376:160|288:80,1,195,8|8,0:0|0:0,0:0:0:0:
176,72,76541,1,8,0:1:0:0:
464,280,76726,6,0,L|328:280,1,97.5,2|12,0:0|0:0,0:0:0:0:
232,280,77094,1,8,0:0:0:0:
384,216,77278,1,8,0:1:0:0:
72,208,77462,2,0,P|40:152|144:80,1,195,10|8,0:0|0:0,0:0:0:0:
264,72,78014,1,8,0:1:0:0:
24,288,78198,6,0,L|128:224,2,97.5,2|8|8,0:0|0:0|0:0,0:0:0:0:
200,248,78750,1,8,0:1:0:0:
464,232,78934,2,0,P|432:144|320:128,1,195,14|8,0:0|0:0,0:0:0:0:
208,88,79486,2,0,L|336:88,1,97.5,8|8,0:1|0:0,0:0:0:0:
368,88,79762,1,8,0:0:0:0:
152,216,79854,6,0,L|24:216,2,97.5,10|8|4,0:3|0:0|0:3,0:0:0:0:
448,176,80406,2,0,L|232:176,1,195,10|8,0:3|0:0,0:0:0:0:
376,304,80959,2,0,L|496:304,1,97.5,4|8,0:3|0:0,0:0:0:0:
176,232,81327,5,6,0:0:0:0:
344,216,81695,1,2,0:0:0:0:
80,160,82063,1,8,0:3:0:0:
240,88,82431,2,0,L|136:88,1,97.5,4|0,0:3|0:0,0:0:0:0:
432,304,82799,6,0,P|472:272|376:168,1,195,14|8,0:0|0:1,0:0:0:0:
304,160,83351,1,8,0:0:0:0:
56,248,83535,2,0,L|48:136,1,97.5,10|0,0:0|0:0,0:0:0:0:
200,128,83903,2,0,L|304:128,1,97.5,8|0,0:1|0:0,0:0:0:0:
48,312,84272,5,8,0:3:0:0:
200,296,84456,2,0,L|208:176,1,97.5,8|8,0:0|0:1,0:0:0:0:
48,192,84824,2,0,L|40:88,1,97.5,2|0,0:0|0:0,0:0:0:0:
280,80,85192,1,8,0:0:0:0:
152,40,85376,2,0,L|296:40,1,97.5,8|0,0:1|0:0,0:0:0:0:
496,264,85744,6,0,L|296:264,1,195,8|8,0:0|0:1,0:0:0:0:
432,232,86296,1,8,0:0:0:0:
168,240,86480,2,0,L|160:136,1,97.5,10|0,0:0|0:0,0:0:0:0:
336,176,86848,2,0,L|344:64,1,97.5,8|2,0:1|0:0,0:0:0:0:
72,72,87216,5,8,0:3:0:0:
208,104,87400,2,0,L|224:208,1,97.5,8|8,0:0|0:1,0:0:0:0:
48,288,87768,2,0,L|248:288,1,195,10|8,0:0|0:0,0:0:0:0:
128,232,88321,1,8,0:1:0:0:
24,160,88505,2,0,L|96:160,1,48.75,8|8,0:0|0:1,0:0:0:0:
264,112,88689,6,0,L|392:112,1,97.5,14|0,0:0|0:0,0:0:0:0:
216,240,89057,2,0,L|328:240,1,97.5,8|8,0:1|0:0,0:0:0:0:
72,328,89425,2,0,P|16:256|80:192,1,195,10|8,0:0|0:1,0:0:0:0:
200,192,89977,1,8,0:0:0:0:
456,96,90161,6,0,L|328:96,2,97.5,10|0|8,0:3|0:0|0:1,0:0:0:0:
304,312,90713,2,0,P|248:240|336:176,1,195,10|8,0:0|0:0,0:0:0:0:
480,136,91265,2,0,L|360:136,1,97.5,8|0,0:1|0:0,0:0:0:0:
72,256,91633,6,0,L|64:144,1,97.5,10|0,0:0|0:0,0:0:0:0:
248,152,92002,1,8,0:1:0:0:
360,104,92186,2,0,L|224:104,1,97.5,10|0,0:0|0:0,0:0:0:0:
88,224,92554,1,8,0:0:0:0:
232,176,92738,1,8,0:1:0:0:
56,136,92922,1,8,0:3:0:0:
416,296,93106,6,0,L|424:184,1,97.5,14|0,0:0|0:0,0:0:0:0:
280,200,93474,1,8,0:1:0:0:
456,136,93658,2,0,L|344:136,1,97.5,12|0,0:0|0:0,0:0:0:0:
216,96,94026,1,8,0:0:0:0:
360,48,94210,2,0,L|480:48,1,97.5,8|0,0:1|0:0,0:0:0:0:
200,216,94578,5,10,0:3:0:0:
336,216,94762,1,8,0:0:0:0:
72,136,94946,1,8,0:1:0:0:
336,104,95130,1,2,0:0:0:0:
80,296,95683,2,0,L|72:184,1,97.5,0|0,0:0|0:0,0:0:0:0:
360,200,96051,5,8,0:3:0:0:
224,200,96235,1,8,0:0:0:0:
488,120,96419,1,8,0:1:0:0:
224,88,96603,1,2,0:0:0:0:
480,216,97339,2,0,L|392:216,1,48.75,8|8,0:0|0:0,0:0:0:0:
176,216,97523,5,8,0:1:0:0:
328,176,97707,1,8,0:0:0:0:
72,120,97891,1,8,0:1:0:0:
328,88,98075,1,10,0:0:0:0:
72,264,98627,2,0,L|208:264,1,97.5,8|0,0:3|0:0,0:0:0:0:
432,216,98995,6,0,L|304:216,2,97.5,10|8|8,0:0|0:0|0:1,0:0:0:0:
176,208,99548,2,0,P|128:152|216:72,1,195,10|8,0:0|0:3,0:0:0:0:
64,40,100100,2,0,L|184:40,1,97.5,4|0,0:3|0:0,0:0:0:0:
408,232,100468,6,0,L|512:168,2,97.5,14|0|0,0:0|0:0|0:0,0:0:0:0:
232,232,101020,2,0,P|128:200|80:104,1,195,10|8,0:0|0:0,0:0:0:0:
240,104,101572,2,0,L|344:104,1,97.5,8|0,0:1|0:0,0:0:0:0:
88,304,101940,6,0,P|48:240|136:176,1,195,8|0,0:0|0:0,0:0:0:0:
272,208,102492,2,0,P|312:144|224:80,1,195,8|0,0:0|0:0,0:0:0:0:
56,80,103045,2,0,L|160:80,1,97.5,8|0,0:1|0:0,0:0:0:0:
400,88,103413,6,0,P|464:152|392:216,1,195,10|0,0:0|0:0,0:0:0:0:
256,224,103965,2,0,P|168:256|136:352,1,195,10|8,0:0|0:0,0:0:0:0:
264,344,104517,1,8,0:1:0:0:
136,344,104701,2,0,L|48:344,1,48.75,8|8,0:0|0:0,0:0:0:0:
328,216,104885,6,0,L|440:216,2,97.5,10|8|0,0:0|0:3|0:0,0:0:0:0:
72,216,105437,2,0,P|24:168|120:104,1,195,14|8,0:0|0:0,0:0:0:0:
224,88,105989,2,0,L|104:88,1,97.5,8|8,0:1|0:0,0:0:0:0:
184,72,106265,1,8,0:1:0:0:
408,296,106357,6,0,P|464:240|384:168,1,195,10|8,0:0|0:0,0:0:0:0:
208,224,106910,2,0,L|200:112,1,97.5,2|8,0:0|0:0,0:0:0:0:
328,144,107278,2,0,L|336:0,1,97.5,2|8,0:0|0:1,0:0:0:0:
200,48,107646,1,0,0:0:0:0:
448,56,107830,6,0,L|456:168,1,97.5,10|0,0:0|0:0,0:0:0:0:
312,152,108198,1,8,0:0:0:0:
184,208,108382,2,0,L|312:208,2,97.5,2|8|0,0:0|0:0|0:0,0:0:0:0:
344,288,108934,2,0,L|464:288,1,97.5,10|0,0:1|0:0,0:0:0:0:
200,264,109302,6,0,L|88:264,1,97.5,10|0,0:0|0:0,0:0:0:0:
232,168,109670,1,8,0:0:0:0:
88,152,109854,2,0,L|80:32,1,97.5,2|8,0:0|0:0,0:0:0:0:
224,32,110222,2,0,L|112:32,2,97.5,2|8|0,0:0|0:1|0:0,0:0:0:0:
480,128,110775,6,0,L|256:128,1,195,10|8,0:0|0:0,0:0:0:0:
392,184,111327,1,2,0:0:0:0:
240,304,111511,2,0,L|232:176,1,97.5,8|0,0:0|0:0,0:0:0:0:
392,136,111879,2,0,L|280:136,1,97.5,10|0,0:1|0:0,0:0:0:0:
24,128,112247,6,0,L|128:128,2,97.5,14|0|8,0:0|0:0|0:1,0:0:0:0:
280,336,112799,2,0,P|336:272|256:208,1,195,10|8,0:0|0:0,0:0:0:0:
136,200,113351,2,0,L|16:200,1,97.5,8|0,0:1|0:0,0:0:0:0:
296,160,113719,6,0,P|408:128|448:48,1,195,10|8,0:0|0:1,0:0:0:0:
288,304,114272,2,0,P|240:248|352:192,1,195,10|8,0:0|0:0,0:0:0:0:
464,120,114824,2,0,L|352:120,1,97.5,8|0,0:1|0:0,0:0:0:0:
88,288,115192,6,0,P|32:232|104:160,1,195,14|8,0:0|0:1,0:0:0:0:
240,328,115744,2,0,P|336:288|376:192,1,195,8|8,0:0|0:0,0:0:0:0:
224,176,116296,2,0,L|88:176,1,97.5,8|8,0:1|0:0,0:0:0:0:
376,144,116664,6,0,L|384:32,1,97.5,10|0,0:0|0:0,0:0:0:0:
496,48,117032,1,8,0:1:0:0:
240,224,117216,2,0,L|368:224,1,97.5,2|8,0:0|0:0,0:0:0:0:
80,64,117584,2,0,L|200:88,2,97.5,2|8|8,0:0|0:1|0:3,0:0:0:0:
328,312,118137,6,0,P|384:272|312:192,1,195,14|8,0:0|0:1,0:0:0:0:
168,152,118689,2,0,L|368:152,1,195,10|8,0:0|0:0,0:0:0:0:
496,88,119242,2,0,L|384:88,1,97.5,8|0,0:1|0:0,0:0:0:0:
128,88,119610,6,0,L|24:88,2,97.5,14|8|8,0:0|0:0|0:1,0:0:0:0:
288,88,120162,2,0,P|376:112|432:224,1,195,10|8,0:3|0:0,0:0:0:0:
288,240,120714,1,4,0:3:0:0:
416,280,120898,1,8,0:0:0:0:
80,312,121081,6,0,L|72:184,1,97.5,14|0,0:0|0:0,0:0:0:0:
208,200,121449,1,8,0:3:0:0:
72,192,121633,2,0,L|184:192,1,97.5,4|0,0:3|0:0,0:0:0:0:
296,168,122001,1,8,0:3:0:0:
168,128,122185,1,6,0:3:0:0:
344,80,122369,1,8,0:3:0:0:
72,80,122554,5,8,0:3:0:0:
200,80,122738,2,0,L|208:192,1,97.5,2|8,0:0|0:3,0:0:0:0:
344,232,123106,2,0,L|136:232,1,195,4|8,0:3|0:0,0:0:0:0:
24,280,123658,2,0,L|128:280,1,97.5,8|0,0:3|0:0,0:0:0:0:
400,280,124026,5,8,0:3:0:0:
272,264,124210,2,0,L|280:144,1,97.5,2|8,0:0|0:0,0:0:0:0:
128,144,124578,2,0,L|336:144,1,195,10|0,0:3|0:0,0:0:0:0:
200,88,125130,1,8,0:0:0:0:
328,64,125314,1,8,0:3:0:0:
168,320,125498,6,0,P|120:264|208:200,1,195,10|0,0:0|0:0,0:0:0:0:
344,184,126050,2,0,P|390:111|302:63,1,195,10|8,0:3|0:0,0:0:0:0:
240,56,126511,1,8,0:0:0:0:
168,48,126603,1,8,0:0:0:0:
320,216,126787,2,0,L|384:208,1,48.75,8|8,0:0|0:0,0:0:0:0:
152,360,126971,6,0,P|96:288|168:232,1,195,14|0,0:0|0:0,0:0:0:0:
48,232,127523,1,8,0:0:0:0:
320,216,127707,2,0,P|360:184|280:88,1,195,14|8,0:1|0:0,0:0:0:0:
56,320,128259,6,0,L|40:192,1,97.5,8|8,0:1|0:0,0:0:0:0:
288,168,128627,2,0,L|416:168,1,97.5,8|8,0:1|0:0,0:0:0:0:
240,72,128995,1,2,0:0:0:0:
384,32,129179,1,8,0:1:0:0:
120,256,129364,1,8,0:0:0:0:
248,248,129548,2,0,L|312:160,1,97.5,8|0,0:1|0:0,0:0:0:0:
32,144,129916,6,0,L|144:144,1,97.5,14|0,0:1|0:0,0:0:0:0:
464,232,130284,2,0,L|320:232,1,97.5,8|0,0:1|0:0,0:0:0:0:
112,312,130652,1,8,0:1:0:0:
256,248,130836,1,8,0:0:0:0:
88,200,131020,1,8,0:1:0:0:
408,184,131204,1,10,0:0:0:0:
88,200,131756,5,0,0:0:0:0:
216,128,131940,2,0,L|8:128,1,195,2|0,0:0|0:0,0:0:0:0:
448,328,132676,6,0,P|488:256|384:192,1,195,14|0,0:0|0:0,0:0:0:0:
264,176,133229,1,8,0:1:0:0:
136,144,133413,1,8,0:0:0:0:
448,112,133597,1,2,0:0:0:0:
320,48,133781,1,2,0:0:0:0:
472,24,133965,1,8,0:1:0:0:
224,304,134149,6,0,P|176:272|264:192,1,195,10|8,0:0|0:0,0:0:0:0:
384,184,134701,1,8,0:1:0:0:
240,128,134885,2,0,L|128:128,1,97.5,2|0,0:0|0:0,0:0:0:0:
304,40,135253,2,0,L|416:40,1,97.5,8|8,0:0|0:1,0:0:0:0:
96,336,135621,6,0,P|56:264|160:200,1,195,14|8,0:0|0:0,0:0:0:0:
256,184,136174,1,8,0:1:0:0:
120,160,136358,1,8,0:0:0:0:
360,136,136542,1,14,0:0:0:0:
216,120,136726,1,10,0:0:0:0:
472,120,136910,1,8,0:1:0:0:
208,296,137094,6,0,P|128:288|56:176,1,195,14|8,0:0|0:0,0:0:0:0:
208,160,137646,1,8,0:1:0:0:
56,96,137830,2,0,L|176:88,1,97.5,2|8,0:0|0:3,0:0:0:0:
416,256,138198,2,0,L|352:256,1,48.75,8|8,0:1|0:1,0:0:0:0:
144,200,138382,2,0,L|232:200,1,48.75,8|8,0:1|0:1,0:0:0:0:
416,192,138566,6,0,P|464:144|376:64,1,195,14|8,0:0|0:0,0:0:0:0:
144,56,139118,1,8,0:1:0:0:
304,128,139302,2,0,L|192:128,1,97.5,2|8,0:0|0:0,0:0:0:0:
352,224,139670,2,0,L|472:224,1,97.5,10|8,0:0|0:1,0:0:0:0:
152,320,140038,6,0,L|48:320,1,97.5,2|0,0:0|0:0,0:0:0:0:
320,208,140406,1,8,0:0:0:0:
200,192,140591,1,8,0:1:0:0:
448,160,140775,2,0,L|464:32,1,97.5,2|8,0:0|0:0,0:0:0:0:
200,56,141143,2,0,L|80:56,1,97.5,10|8,0:0|0:1,0:0:0:0:
384,296,141511,6,0,L|144:296,1,195,10|8,0:0|0:0,0:0:0:0:
312,264,142063,1,8,0:1:0:0:
72,240,142247,2,0,L|64:128,1,97.5,2|8,0:0|0:0,0:0:0:0:
232,144,142615,2,0,L|120:144,1,97.5,2|8,0:0|0:1,0:0:0:0:
472,64,142983,6,0,L|240:64,1,195,10|10,0:0|0:0,0:0:0:0:
136,64,143535,1,8,0:1:0:0:
288,128,143719,2,0,L|296:240,1,97.5,2|8,0:0|0:0,0:0:0:0:
152,288,144087,2,0,L|32:288,1,97.5,10|8,0:0|0:1,0:0:0:0:
336,320,144456,6,0,P|384:280|288:208,1,195,14|8,0:0|0:0,0:0:0:0:
176,192,145008,1,8,0:1:0:0:
296,160,145192,1,8,0:3:0:0:
424,136,145376,1,8,0:0:0:0:
280,64,145560,1,10,0:0:0:0:
424,32,145744,1,8,0:1:0:0:
152,288,145928,6,0,P|88:256|168:168,1,195,14|8,0:0|0:0,0:0:0:0:
384,152,146480,1,8,0:1:0:0:
264,88,146664,2,0,L|376:96,1,97.5,2|0,0:0|0:0,0:0:0:0:
496,56,147032,2,0,L|376:56,1,97.5,8|8,0:0|0:1,0:0:0:0:
88,272,147400,6,0,L|328:272,1,195,14|8,0:0|0:0,0:0:0:0:
432,272,147953,1,8,0:1:0:0:
272,216,148137,2,0,P|224:160|320:96,1,195,10|8,0:0|0:0,0:0:0:0:
448,88,148689,1,8,0:1:0:0:
176,320,148873,6,0,P|72:296|16:192,1,195,14|8,0:0|0:0,0:0:0:0:
296,144,149425,2,0,L|432:144,1,97.5,8|0,0:1|0:0,0:0:0:0:
144,216,149793,1,10,0:3:0:0:
296,176,149977,2,4,L|304:112,1,48.75,8|8,0:0|0:0,0:0:0:0:
136,88,150161,2,0,L|128:32,1,48.75,4|4,0:3|0:3,0:0:0:0:
352,272,150345,6,0,L|472:272,1,97.5,14|0,0:1|0:0,0:0:0:0:
312,216,150713,1,8,0:3:0:0:
56,200,150897,1,8,0:1:0:0:
448,128,151081,1,10,0:0:0:0:
184,256,157339,5,0,0:0:0:0:
328,224,157523,1,0,0:0:0:0:
184,184,157707,2,0,P|144:112|232:64,1,195,2|0,0:0|0:0,0:0:0:0:
368,56,158259,1,8,0:0:0:0:
224,40,158443,1,10,0:3:0:0:
448,192,158811,6,0,L|456:320,1,97.5,10|8,0:3|0:0,0:0:0:0:
288,312,159179,2,0,L|496:304,1,195,4|0,0:3|0:0,0:0:0:0:
368,272,159732,1,8,0:3:0:0:
480,232,159916,1,10,0:0:0:0:
264,184,160284,1,8,0:0:0:0:
392,160,160468,2,0,L|400:40,1,97.5,4|0,0:3|0:0,0:0:0:0:
108,136,160836,6,0,L|100:264,1,97.5,14|0,0:0|0:0,0:0:0:0:
232,304,161204,2,0,L|120:304,1,97.5,8|8,0:3|0:0,0:0:0:0:
440,216,161572,2,0,L|448:96,1,97.5,8|8,0:0|0:0,0:0:0:0:
264,80,161940,2,0,L|400:80,1,97.5,4|4,0:3|0:3,0:0:0:0:
112,312,162308,6,0,P|56:280|128:192,1,195,14|8,0:0|0:0,0:0:0:0:
240,176,162860,1,8,0:0:0:0:
112,128,163045,1,8,0:0:0:0:
400,136,163229,1,8,0:0:0:0:
256,112,163413,1,8,0:0:0:0:
112,96,163597,1,8,0:0:0:0:
400,304,163781,5,8,0:1:0:0:
112,240,163965,1,8,0:3:0:0:
400,192,164149,1,8,0:1:0:0:
112,112,164333,1,8,0:1:0:0:
256,240,164517,2,0,L|336:240,1,48.75,8|8,0:0|0:0,0:0:0:0:
224,176,164701,2,0,L|152:176,1,48.75,8|8,0:1|0:1,0:0:0:0:
344,104,164885,2,0,L|400:104,1,48.75,8|8,0:1|0:1,0:0:0:0:
160,64,165069,2,0,L|96:64,1,48.75,8|8,0:1|0:1,0:0:0:0:
408,312,165253,6,0,P|456:256|376:200,1,195,14|8,0:0|0:1,0:0:0:0:
224,144,165805,2,0,L|432:136,1,195,10|8,0:0|0:0,0:0:0:0:
120,72,166357,1,8,0:1:0:0:
416,144,166541,6,0,L|424:24,1,97.5,2|8,0:0|0:0,0:0:0:0:
288,48,166909,1,8,0:0:0:0:
424,192,167093,1,8,0:1:0:0:
160,232,167277,1,2,0:0:0:0:
288,176,167461,1,2,0:0:0:0:
152,136,167645,1,8,0:0:0:0:
448,120,167830,1,8,0:1:0:0:
160,328,168014,6,0,L|48:312,2,97.5,2|8|8,0:0|0:0|0:0,0:0:0:0:
296,280,168566,1,8,0:1:0:0:
152,232,168750,2,0,L|24:224,1,97.5,2|8,0:0|0:0,0:0:0:0:
200,152,169118,2,0,L|312:144,1,97.5,2|8,0:0|0:1,0:0:0:0:
168,64,169486,1,2,0:0:0:0:
448,264,169670,6,0,L|328:264,2,97.5,8|8|8,0:0|0:0|0:1,0:0:0:0:
160,240,170222,2,0,P|112:200|200:120,1,195,10|8,0:0|0:0,0:0:0:0:
328,120,170774,1,8,0:1:0:0:
56,304,170958,6,0,L|48:176,1,97.5,2|8,0:0|0:0,0:0:0:0:
192,176,171327,1,8,0:0:0:0:
48,160,171511,1,8,0:1:0:0:
328,200,171695,2,0,P|368:144|272:72,1,195,10|10,0:0|0:0,0:0:0:0:
176,64,172247,1,8,0:1:0:0:
456,320,172431,6,0,L|464:192,1,97.5,2|8,0:0|0:0,0:0:0:0:
328,200,172800,1,8,0:0:0:0:
464,176,172984,1,8,0:1:0:0:
192,192,173168,2,0,P|96:160|72:48,1,195,10|8,0:0|0:0,0:0:0:0:
176,40,173719,2,0,L|48:40,1,97.5,8|0,0:1|0:0,0:0:0:0:
328,224,174087,5,14,0:1:0:0:
200,184,174271,1,8,0:0:0:0:
496,240,174455,1,8,0:1:0:0:
368,208,174639,1,8,0:0:0:0:
64,160,174823,1,8,0:1:0:0:
368,112,175007,2,2,L|432:112,1,48.75,8|8,0:0|0:0,0:0:0:0:
176,240,175191,2,0,L|32:240,1,97.5,8|8,0:1|0:0,0:0:0:0:
368,176,175560,5,14,0:1:0:0:
216,176,175744,1,8,0:1:0:0:
184,128,175836,1,8,0:3:0:0:
280,128,175928,1,8,0:3:0:0:
312,72,176020,1,8,0:0:0:0:
80,288,176112,2,0,P|32:216|144:176,1,195,8|8,0:1|0:1,0:0:0:0:
368,248,176664,2,0,L|440:248,1,48.75,8|8,0:1|0:1,0:0:0:0:
104,120,176848,2,8,L|160:120,1,48.75,8|4,0:3|0:3,0:0:0:0:
384,312,177032,6,0,P|448:264|384:192,1,195,14|8,0:0|0:1,0:0:0:0:
104,312,177584,2,0,L|320:304,1,195,14|8,0:0|0:0,0:0:0:0:
48,104,178136,1,8,0:1:0:0:
408,144,178320,6,0,L|288:136,1,97.5,2|8,0:0|0:0,0:0:0:0:
168,96,178688,1,8,0:0:0:0:
320,56,178872,1,8,0:1:0:0:
72,232,179056,1,10,0:0:0:0:
224,200,179240,1,2,0:0:0:0:
376,168,179424,1,8,0:0:0:0:
88,112,179609,1,8,0:1:0:0:
384,328,179793,6,0,L|496:312,2,97.5,2|8|8,0:0|0:0|0:0,0:0:0:0:
248,280,180345,1,8,0:1:0:0:
392,232,180529,2,0,L|272:224,1,97.5,2|8,0:0|0:0,0:0:0:0:
152,168,180897,2,0,L|272:168,1,97.5,10|8,0:0|0:1,0:0:0:0:
96,88,181265,1,2,0:0:0:0:
376,208,181449,6,0,L|496:208,2,97.5,8|8|8,0:0|0:0|0:1,0:0:0:0:
200,200,182001,2,0,P|152:160|240:80,1,195,10|8,0:0|0:0,0:0:0:0:
352,72,182553,1,8,0:1:0:0:
64,280,182738,6,0,L|200:280,1,97.5,2|12,0:0|0:0,0:0:0:0:
288,280,183106,1,8,0:0:0:0:
136,216,183290,1,8,0:1:0:0:
448,208,183474,2,0,L|208:184,1,195,10|8,0:0|0:0,0:0:0:0:
376,128,184026,1,8,0:1:0:0:
96,288,184210,6,0,L|88:176,1,97.5,2|8,0:0|0:0,0:0:0:0:
224,128,184578,1,8,0:0:0:0:
80,96,184762,1,8,0:1:0:0:
344,224,184946,2,0,L|136:208,1,195,14|8,0:0|0:0,0:0:0:0:
296,88,185498,2,0,L|168:88,1,97.5,8|8,0:1|0:0,0:0:0:0:
136,88,185774,1,8,0:0:0:0:
368,216,185866,6,0,L|496:216,2,97.5,8|8|8,0:3|0:3|0:0,0:0:0:0:
72,176,186418,2,0,L|288:176,1,195,10|8,0:3|0:0,0:0:0:0:
128,304,186971,2,0,L|8:304,1,97.5,8|4,0:0|0:3,0:0:0:0:
344,232,187339,5,14,0:0:0:0:
176,216,187707,1,8,0:0:0:0:
416,160,188075,1,10,0:0:0:0:
276,146,188259,2,0,L|348:146,1,48.75,8|8,3:2|3:2,0:0:0:0:
432,326,188443,1,8,0:3:0:0:
480,304,188535,1,8,0:3:0:0:
480,256,188627,1,4,0:3:0:0:
432,224,188719,1,4,0:3:0:0:
240,224,188811,6,0,P|176:152|256:104,1,195,14|8,0:0|0:1,0:0:0:0:
368,96,189363,1,0,0:0:0:0:
56,256,189547,2,0,L|48:144,1,97.5,10|0,0:0|0:0,0:0:0:0:
208,104,189915,2,0,L|104:104,1,97.5,8|0,0:1|0:0,0:0:0:0:
376,264,190284,5,10,0:3:0:0:
216,184,190468,2,0,L|320:184,1,97.5,8|8,0:0|0:1,0:0:0:0:
472,176,190836,2,0,L|480:72,1,97.5,10|0,0:0|0:0,0:0:0:0:
232,64,191204,1,8,0:0:0:0:
360,24,191388,2,0,L|216:24,1,97.5,8|0,0:1|0:0,0:0:0:0:
16,248,191756,6,0,L|216:248,1,195,10|8,0:3|0:1,0:0:0:0:
80,216,192308,1,0,0:0:0:0:
344,224,192492,2,0,L|352:120,1,97.5,10|0,0:0|0:0,0:0:0:0:
176,160,192860,2,0,L|168:48,1,97.5,8|8,0:1|0:0,0:0:0:0:
440,56,193228,5,10,0:3:0:0:
304,88,193412,2,0,L|424:88,1,97.5,0|8,0:0|0:1,0:0:0:0:
232,248,193780,2,0,P|176:184|256:112,1,195,10|8,0:0|0:0,0:0:0:0:
384,216,194333,1,8,0:1:0:0:
232,296,194517,2,0,L|160:296,1,48.75,8|8,0:0|0:1,0:0:0:0:
368,88,194701,6,0,L|496:88,1,97.5,14|0,0:0|0:0,0:0:0:0:
288,224,195069,2,0,L|176:224,1,97.5,8|0,0:1|0:0,0:0:0:0:
440,312,195437,2,0,P|496:240|432:176,1,195,10|8,0:0|0:1,0:0:0:0:
312,176,195989,1,2,0:0:0:0:
56,80,196173,6,0,L|184:80,2,97.5,8|8|8,0:3|0:0|0:1,0:0:0:0:
208,296,196725,2,0,P|264:224|176:160,1,195,10|8,0:0|0:0,0:0:0:0:
32,120,197277,2,0,L|152:120,1,97.5,8|0,0:1|0:0,0:0:0:0:
440,240,197645,6,0,L|448:128,1,97.5,10|0,0:0|0:0,0:0:0:0:
264,136,198014,1,8,0:1:0:0:
152,88,198198,2,0,L|288:88,1,97.5,2|0,0:0|0:0,0:0:0:0:
424,208,198566,1,8,0:0:0:0:
280,160,198750,1,8,0:1:0:0:
456,120,198934,1,2,0:0:0:0:
152,304,199118,6,0,L|144:192,1,97.5,14|8,0:0|0:0,0:0:0:0:
320,208,199486,1,8,0:3:0:0:
440,144,199670,2,0,L|328:144,1,97.5,10|0,0:0|0:0,0:0:0:0:
168,112,200038,1,8,0:0:0:0:
296,48,200222,2,0,L|176:48,1,97.5,10|0,0:0|0:0,0:0:0:0:
56,120,200591,6,0,L|64:232,1,97.5,2|0,0:0|0:0,0:0:0:0:
208,232,200959,2,0,L|200:344,1,97.5,0|0,0:0|0:0,0:0:0:0:
352,336,201327,2,0,P|408:296|344:208,1,195,2|0,0:0|0:0,0:0:0:0:
232,200,201879,1,0,0:0:0:0:
88,128,202063,6,0,L|296:112,1,195,2|0,0:0|0:0,0:0:0:0:
408,96,202615,1,0,0:0:0:0:
240,256,202799,2,0,P|168:232|104:120,1,195,2|0,0:0|0:0,0:0:0:0:
416,216,203535,6,0,P|464:152|384:104,1,195,2|0,0:0|0:0,0:0:0:0:
248,112,204087,1,0,0:0:0:0:
128,304,204272,2,0,L|338:282,1,195,2|0,0:0|0:0,0:0:0:0:
72,192,205042,6,0,L|64:80,1,97.5,2|0,0:0|0:0,0:0:0:0:
280,80,205510,1,0,0:0:0:0:
136,48,205733,1,0,0:0:0:0:
368,128,206005,6,0,L|376:240,1,97.5,2|0,0:0|0:0,0:0:0:0:
96,280,206912,1,0,0:0:0:0:
376,216,208821,2,0,L|352:208,1,24.375,0|0,0:0|0:0,0:0:0:0:
256,184,209057,5,2,0:0:0:0:
256,192,209448,12,0,215315,0:0:0:0:
