osu file format v14

[General]
AudioFilename: audio.mp3
AudioLeadIn: 0
PreviewTime: 52193
Countdown: 0
SampleSet: Soft
StackLeniency: 0.7
Mode: 2
LetterboxInBreaks: 0
WidescreenStoryboard: 1

[Editor]
DistanceSpacing: 0.8
BeatDivisor: 4
GridSize: 8
TimelineZoom: 1.7

[Metadata]
Title:Present
TitleUnicode:プレゼント
Artist:Chata
ArtistUnicode:茶太
Creator:-Luminate
Version:Cup
Source:ISLAND
Tags:frontwing アイランド visual novel ending video game japanese
BeatmapID:1962098
BeatmapSetID:939367

[Difficulty]
HPDrainRate:3
CircleSize:2.7
OverallDifficulty:6
ApproachRate:6
SliderMultiplier:1.3
SliderTickRate:1

[Events]
//Background and Video events
0,0,"island.jpg",0,0
//Break Periods
2,152040,156289
//Storyboard Layer 0 (Background)
//Storyboard Layer 1 (Fail)
//Storyboard Layer 2 (Pass)
//Storyboard Layer 3 (Foreground)
//Storyboard Layer 4 (Overlay)
//Storyboard Sound Samples

[TimingPoints]
346,368.098159509202,4,2,1,30,1,0
346,-125,4,2,1,30,0,0
9180,-100,4,2,1,50,0,0
11665,-100,4,2,2,50,0,0
12125,-100,4,2,1,50,0,0
15069,-100,4,2,1,40,0,0
15437,-100,4,2,1,40,0,0
25376,-100,4,2,1,55,0,0
41572,-100,4,2,1,55,0,0
47462,-100,4,2,1,65,0,0
50406,-100,4,2,1,65,0,0
52247,-100,4,2,1,40,0,0
53168,-100,4,2,1,80,0,1
58321,-100,4,2,1,70,0,0
59241,-100,4,2,1,80,0,1
69732,-100,4,2,1,70,0,0
71020,-100,4,2,1,80,0,1
79855,-100,4,2,1,60,0,0
94578,-100,4,2,1,50,0,0
106357,-100,4,2,1,55,0,0
112247,-100,4,2,1,60,0,0
121081,-100,4,2,1,65,0,0
126971,-100,4,2,1,70,0,0
129916,-100,4,2,1,75,0,0
131756,-100,4,2,1,50,0,0
132677,-100,4,2,1,80,0,1
138382,-100,4,2,1,80,0,0
138566,-100,4,2,1,80,0,1
151082,-100,4,2,1,60,0,0
157339,-100,4,2,1,40,0,0
158811,-100,4,2,1,45,0,0
160928,-100,4,2,1,50,0,0
162308,-100,4,2,1,60,0,0
163965,-100,4,2,1,70,0,0
165253,-100,4,2,1,80,0,1
176112,-100,4,2,1,70,0,0
177033,-100,4,2,1,80,0,1
185867,-100,4,2,1,60,0,0
200591,-100,4,2,1,50,0,0
204640,402.684563758389,4,2,1,30,1,0
205042,468.75,4,2,1,30,1,0
205510,447.761194029851,4,2,1,30,1,0
205733,545.454545454546,4,2,1,30,1,0
206005,745.341614906832,4,2,1,30,1,0
206377,1071.42857142857,4,2,1,30,1,0
206912,1090.90909090909,4,2,1,30,1,0
208957,1600,4,2,1,30,1,0
209057,3129.40071976217,4,2,1,30,1,0
209448,-100,4,2,1,20,0,0

[Colours]
Combo1 : 184,201,226
Combo2 : 100,126,220

[HitObjects]
136,208,346,5,0,0:0:0:0:
368,200,1082,1,2,0:0:0:0:
144,200,1818,6,0,L|136:128,1,52,2|0,0:0|0:0,0:0:0:0:
240,144,2370,1,0,0:0:0:0:
344,144,2738,1,2,0:0:0:0:
376,208,3290,5,0,0:0:0:0:
144,200,4026,1,2,0:0:0:0:
368,200,4762,6,0,L|376:128,1,52,2|0,0:0|0:0,0:0:0:0:
272,144,5314,1,0,0:0:0:0:
168,144,5682,1,2,0:0:0:0:
392,304,6235,6,0,P|440:256|368:152,1,208,0|2,0:0|0:0,0:0:0:0:
176,152,7707,2,0,L|168:80,1,52,2|0,0:0|0:0,0:0:0:0:
272,96,8260,1,0,0:0:0:0:
368,88,8628,1,2,0:0:0:0:
152,304,9180,6,0,L|136:144,1,130,12|2,0:0|0:0,0:0:0:0:
296,248,9916,2,0,L|304:96,1,130,2|8,0:0|0:0,0:0:0:0:
136,120,10652,6,0,L|16:56,2,130,6|8|8,0:0|0:0|0:0,0:0:0:0:
264,120,11756,1,8,0:0:0:0:
416,176,12124,6,0,L|280:256,1,130,12|2,0:0|0:0,0:0:0:0:
160,272,12860,2,0,L|288:208,1,130,2|8,0:0|0:0,0:0:0:0:
432,160,13597,5,6,0:0:0:0:
288,128,13965,1,2,0:0:0:0:
432,304,14333,1,8,0:0:0:0:
472,256,14517,1,0,0:0:0:0:
464,208,14701,1,8,0:3:0:0:
416,184,14885,1,4,0:3:0:0:
208,184,15437,6,0,L|200:104,1,65,0|2,0:0|0:0,0:0:0:0:
352,120,15989,1,0,0:0:0:0:
128,256,16541,6,0,L|336:224,1,195,2|2,0:0|0:0,0:0:0:0:
472,192,17646,1,0,0:0:0:0:
320,168,18014,6,0,L|128:112,1,195,2|2,0:0|0:0,0:0:0:0:
304,96,19118,1,0,0:0:0:0:
192,288,19486,6,0,P|136:232|224:144,1,195,2|2,0:0|0:0,0:0:0:0:
368,144,20591,1,0,0:0:0:0:
232,288,20959,6,0,L|112:216,1,130,2|0,0:0|0:0,0:0:0:0:
72,168,21511,2,0,L|264:88,1,195,2|0,0:0|0:0,0:0:0:0:
400,248,22431,6,0,L|416:104,1,130,2|0,0:0|0:0,0:0:0:0:
272,224,23167,2,0,L|264:80,1,130,2|0,0:0|0:0,0:0:0:0:
416,320,23903,6,0,P|464:256|408:168,1,195,2|2,0:0|0:0,0:0:0:0:
216,168,25008,1,2,0:0:0:0:
368,128,25376,6,0,L|376:48,1,65,8|8,0:0|0:3,0:0:0:0:
224,64,25928,2,0,P|152:80|72:200,1,195,12|8,0:2|0:1,0:0:0:0:
224,168,26848,5,14,0:0:0:0:
80,304,27216,2,0,L|72:224,1,65,0|10,0:0|0:0,0:0:0:0:
224,232,27768,2,0,L|232:144,1,65,0|8,0:0|0:1,0:0:0:0:
376,128,28321,6,0,L|224:96,1,130,8|8,0:0|0:1,0:0:0:0:
184,88,28873,1,10,0:0:0:0:
376,64,29425,1,8,0:1:0:0:
224,288,29793,6,0,L|368:256,1,130,8|8,0:0|0:1,0:0:0:0:
416,240,30345,1,10,0:0:0:0:
208,248,30897,1,8,0:1:0:0:
360,208,31265,6,0,P|400:136|368:80,1,130,10|8,0:0|0:1,0:0:0:0:
344,56,31818,1,10,0:0:0:0:
136,56,32370,1,8,0:1:0:0:
288,136,32738,6,0,L|296:240,1,65,14|0,0:0|0:0,0:0:0:0:
216,208,33106,1,0,0:0:0:0:
208,264,33290,1,10,0:0:0:0:
400,264,33842,1,8,0:1:0:0:
240,264,34210,5,10,0:0:0:0:
96,176,34578,2,0,L|160:160,1,65,0|10,0:0|0:0,0:0:0:0:
304,104,35130,2,0,L|224:80,1,65,0|8,0:0|0:1,0:0:0:0:
96,88,35683,5,14,0:0:0:0:
296,152,36235,2,0,P|336:232|304:272,1,130,10|8,0:0|0:0,0:0:0:0:
288,296,36787,1,8,0:1:0:0:
112,288,37155,5,10,0:0:0:0:
248,216,37523,2,0,L|320:184,1,65,8|10,0:1|0:0,0:0:0:0:
448,128,38075,1,10,0:0:0:0:
296,296,38443,6,0,P|248:240|352:144,1,195,0|8,0:0|0:1,0:0:0:0:
376,144,39179,1,10,0:0:0:0:
184,136,39732,1,8,0:1:0:0:
336,312,40100,6,0,L|192:344,1,130,14|8,0:0|0:1,0:0:0:0:
152,352,40652,1,8,0:3:0:0:
272,272,41020,2,0,L|288:168,2,65,0|8|4,0:0|0:0|0:3,0:0:0:0:
192,272,41572,5,6,0:0:0:0:
48,208,41940,2,0,L|120:192,1,65,8|6,0:3|0:3,0:0:0:0:
256,128,42492,2,0,L|128:80,1,130,8|8,0:3|0:3,0:0:0:0:
200,72,43045,5,8,0:3:0:0:
272,64,43229,1,8,0:0:0:0:
424,136,43597,2,0,L|208:168,1,195,12|8,0:3|0:3,0:0:0:0:
384,288,44517,6,0,L|392:208,1,65,10|8,0:0|0:0,0:0:0:0:
256,216,45069,2,0,L|104:168,1,130,6|0,0:3|0:0,0:0:0:0:
72,128,45621,2,0,L|144:112,1,65,10|8,0:0|0:3,0:0:0:0:
216,96,45989,5,8,0:0:0:0:
360,80,46357,2,0,L|384:152,1,65,0|6,0:0|0:3,0:0:0:0:
264,272,46910,2,0,L|248:208,2,65,8|8|8,0:0|0:0|0:0,0:0:0:0:
344,304,47462,6,0,P|440:256|464:168,1,195,14|2,0:0|0:0,0:0:0:0:
376,152,48198,2,0,L|176:96,1,195,12|8,0:1|0:1,0:0:0:0:
336,80,49118,5,8,0:1:0:0:
168,64,49670,1,8,0:1:0:0:
112,88,49854,2,0,L|104:176,1,65,8|8,0:0|0:1,0:0:0:0:
264,208,50406,6,0,L|120:288,2,130,14|8|8,0:1|0:1|0:1,0:0:0:0:
416,208,51511,1,8,0:1:0:0:
208,192,52247,6,0,L|192:112,1,65,0|2,0:0|0:0,0:0:0:0:
328,112,52799,1,0,0:0:0:0:
176,304,53167,6,0,P|120:232|184:160,1,195,14|8,0:0|0:1,0:0:0:0:
328,264,54087,1,10,0:0:0:0:
176,280,54456,2,0,L|248:280,1,65,8|10,0:1|0:0,0:0:0:0:
448,184,55192,6,0,L|376:184,1,65,8|2,0:1|0:0,0:0:0:0:
240,184,55744,1,8,0:0:0:0:
400,312,56112,6,0,P|456:240|392:168,1,195,14|8,0:0|0:1,0:0:0:0:
248,272,57032,1,10,0:0:0:0:
96,272,57400,1,0,0:0:0:0:
160,272,57584,6,0,L|320:168,2,130,6|10|10,0:0|0:3|0:3,0:0:0:0:
296,328,58689,2,0,L|448:232,1,130,14|8,0:0|0:1,0:0:0:0:
336,248,59241,6,0,L|176:168,1,130,14|8,0:0|0:1,0:0:0:0:
144,160,59793,1,10,0:0:0:0:
304,112,60161,2,0,L|384:80,1,65,0|8,0:0|0:1,0:0:0:0:
432,152,60529,6,0,L|248:232,1,195,2|8,0:0|0:1,0:0:0:0:
96,216,61449,1,2,0:0:0:0:
224,216,61818,1,10,0:1:0:0:
296,256,62002,6,0,L|96:296,1,195,2|8,0:0|0:1,0:0:0:0:
168,280,62738,1,2,0:0:0:0:
296,264,63106,1,8,0:0:0:0:
432,192,63474,6,0,L|272:160,1,130,2|8,0:0|0:0,0:0:0:0:
240,160,64026,1,0,0:0:0:0:
176,144,64210,1,10,0:0:0:0:
328,112,64578,1,0,0:0:0:0:
176,288,64946,6,0,P|128:224|216:152,1,195,2|8,0:0|0:1,0:0:0:0:
264,152,65683,1,2,0:0:0:0:
112,152,66051,1,0,0:0:0:0:
264,296,66419,6,0,L|456:200,1,195,2|8,0:0|0:1,0:0:0:0:
360,192,67156,1,10,0:0:0:0:
152,184,67707,1,8,0:1:0:0:
296,176,68075,6,0,L|456:144,2,130,14|10|10,0:1|0:1|0:1,0:0:0:0:
120,176,69179,1,8,0:1:0:0:
304,320,69548,6,0,P|360:248|280:176,1,195,12|8,0:1|0:1,0:0:0:0:
152,176,70468,2,0,L|136:80,1,65,0|8,0:0|0:1,0:0:0:0:
304,304,71020,6,0,P|408:256|440:176,1,195,14|10,0:0|0:0,0:0:0:0:
296,176,71940,2,0,L|224:160,1,65,0|8,0:0|0:1,0:0:0:0:
160,136,72308,6,0,L|360:104,1,195,2|8,0:0|0:1,0:0:0:0:
488,88,73229,1,2,0:0:0:0:
344,240,73597,1,10,0:1:0:0:
280,232,73781,6,0,L|96:128,1,195,2|8,0:0|0:1,0:0:0:0:
48,104,74517,1,2,0:0:0:0:
192,88,74885,1,8,0:0:0:0:
352,264,75253,6,0,P|400:200|328:104,1,195,2|8,0:0|0:1,0:0:0:0:
280,104,75989,1,8,0:0:0:0:
136,208,76357,2,0,L|216:208,1,65,0|8,0:0|0:1,0:0:0:0:
360,272,76910,6,0,L|216:224,1,130,0|8,0:0|0:1,0:0:0:0:
184,216,77462,1,10,0:0:0:0:
328,168,77830,2,0,L|392:144,1,65,0|8,0:0|0:1,0:0:0:0:
240,88,78382,6,0,P|192:136|216:192,1,130,0|8,0:0|0:1,0:0:0:0:
256,208,78934,1,14,0:0:0:0:
416,232,79486,1,8,0:1:0:0:
240,304,79854,6,0,L|208:208,2,65,10|8|4,0:3|0:0|0:3,0:0:0:0:
312,304,80406,1,10,0:3:0:0:
136,304,80959,1,4,0:3:0:0:
312,312,81327,6,0,P|416:248|280:64,1,390,6|4,0:0|0:3,0:0:0:0:
160,128,82799,6,0,L|320:88,1,130,14|8,0:0|0:1,0:0:0:0:
416,144,83535,2,0,L|264:192,1,130,10|8,0:0|0:1,0:0:0:0:
136,280,84272,6,0,L|128:192,1,65,8|8,0:3|0:0,0:0:0:0:
256,208,84824,1,2,0:0:0:0:
128,176,85192,1,8,0:0:0:0:
352,128,85744,6,0,L|192:88,1,130,8|8,0:0|0:1,0:0:0:0:
96,144,86480,2,0,L|248:192,1,130,10|8,0:0|0:1,0:0:0:0:
376,280,87217,6,0,L|384:192,1,65,8|8,0:3|0:0,0:0:0:0:
256,208,87769,1,10,0:0:0:0:
384,176,88137,1,8,0:0:0:0:
176,144,88689,6,0,L|336:104,1,130,14|8,0:0|0:1,0:0:0:0:
168,264,89425,2,0,L|152:128,1,130,10|8,0:0|0:1,0:0:0:0:
280,104,90161,6,0,L|200:88,1,65,10|0,0:3|0:0,0:0:0:0:
80,64,90713,1,10,0:0:0:0:
216,40,91081,1,0,0:0:0:0:
416,296,91633,6,0,L|216:248,1,195,10|10,0:0|0:0,0:0:0:0:
440,216,92738,2,0,L|448:136,1,65,8|8,0:1|0:3,0:0:0:0:
368,136,93106,1,14,0:0:0:0:
216,120,93474,2,0,L|208:48,1,65,8|12,0:1|0:0,0:0:0:0:
400,48,94210,1,8,0:1:0:0:
248,280,94578,6,0,L|408:248,1,130,10|8,0:3|0:1,0:0:0:0:
440,240,95130,1,2,0:0:0:0:
232,184,96051,6,0,L|72:152,1,130,8|8,0:3|0:1,0:0:0:0:
176,104,96603,1,2,0:0:0:0:
384,56,97156,1,0,0:0:0:0:
240,264,97523,6,0,L|80:200,1,130,8|8,0:1|0:1,0:0:0:0:
192,208,98075,1,10,0:0:0:0:
392,200,98627,1,8,0:3:0:0:
248,136,98995,6,0,L|384:112,1,130,10|8,0:0|0:1,0:0:0:0:
424,88,99548,2,0,L|256:56,1,130,10|8,0:0|0:3,0:0:0:0:
224,56,100100,1,4,0:3:0:0:
64,248,100468,6,0,P|104:192|184:168,1,130,14|0,0:0|0:0,0:0:0:0:
224,168,101020,1,10,0:0:0:0:
368,144,101388,2,0,L|376:64,1,65,0|8,0:0|0:1,0:0:0:0:
224,240,101940,6,0,L|80:192,2,130,8|0|0,0:0|0:0|0:0,0:0:0:0:
376,232,103045,1,8,0:1:0:0:
216,168,103413,6,0,L|440:112,1,195,10|10,0:0|0:0,0:0:0:0:
224,80,104517,1,8,0:1:0:0:
96,232,104885,6,0,L|80:152,1,65,10|8,0:0|0:3,0:0:0:0:
232,144,105437,2,0,L|56:104,1,130,14|8,0:0|0:0,0:0:0:0:
48,104,105989,1,8,0:1:0:0:
208,272,106357,6,0,L|216:120,1,130,10|8,0:0|0:0,0:0:0:0:
368,192,107094,2,0,L|360:56,1,130,0|8,0:0|0:1,0:0:0:0:
208,112,107830,6,0,L|368:80,2,130,10|8|8,0:0|0:0|0:0,0:0:0:0:
56,168,108934,1,10,0:1:0:0:
216,176,109302,6,0,L|224:320,1,130,10|8,0:0|0:0,0:0:0:0:
72,312,110038,2,0,L|216:336,1,130,0|8,0:0|0:1,0:0:0:0:
368,320,110775,6,0,P|416:264|336:176,1,195,10|2,0:0|0:0,0:0:0:0:
160,160,111879,1,10,0:1:0:0:
352,112,112247,6,0,L|144:72,1,195,14|10,0:0|0:0,0:0:0:0:
296,256,113167,2,0,L|304:168,1,65,0|8,0:0|0:1,0:0:0:0:
152,192,113719,5,10,0:0:0:0:
296,152,114087,2,0,L|304:64,1,65,0|10,0:0|0:0,0:0:0:0:
152,288,114640,2,0,L|224:296,1,65,0|8,0:0|0:1,0:0:0:0:
376,136,115192,6,0,L|168:96,1,195,14|8,0:0|0:0,0:0:0:0:
48,240,116112,2,0,L|144:216,1,65,0|8,0:0|0:1,0:0:0:0:
272,184,116664,5,10,0:0:0:0:
128,176,117032,2,0,L|120:88,1,65,8|2,0:1|0:0,0:0:0:0:
272,104,117584,1,2,0:0:0:0:
424,304,117953,6,0,P|472:248|384:152,1,195,8|8,0:3|0:1,0:0:0:0:
352,152,118689,1,10,0:0:0:0:
160,144,119241,1,8,0:1:0:0:
320,72,119609,6,0,L|112:48,1,195,14|10,0:0|0:3,0:0:0:0:
280,152,120529,2,0,L|296:240,1,65,8|4,0:0|0:3,0:0:0:0:
448,304,121081,6,0,L|256:264,1,195,14|4,0:0|0:3,0:0:0:0:
112,192,122002,2,0,L|200:176,1,65,8|6,0:3|0:3,0:0:0:0:
320,128,122554,6,0,L|312:56,1,65,8|2,0:3|0:0,0:0:0:0:
160,120,123106,2,0,P|112:168|168:264,1,195,4|8,0:3|0:3,0:0:0:0:
320,72,124027,5,8,0:3:0:0:
256,64,124211,1,2,0:0:0:0:
112,136,124579,2,0,L|328:168,1,195,10|8,0:3|0:0,0:0:0:0:
144,232,125499,5,10,0:0:0:0:
328,224,126051,2,0,L|480:176,1,130,10|8,0:3|0:0,0:0:0:0:
376,168,126603,2,0,L|304:152,1,65,8|8,0:0|0:0,0:0:0:0:
240,136,126971,5,14,0:0:0:0:
392,104,127339,2,0,L|400:32,1,65,0|8,0:0|0:0,0:0:0:0:
344,32,127707,1,14,0:1:0:0:
184,48,128075,1,0,0:0:0:0:
112,112,128259,6,0,L|280:128,1,130,8|8,0:1|0:1,0:0:0:0:
392,184,128995,2,0,L|400:256,1,65,2|8,0:0|0:1,0:0:0:0:
320,288,129364,2,0,L|152:320,1,130,8|0,0:0|0:0,0:0:0:0:
256,240,129916,6,0,L|416:176,2,130,14|8|8,0:1|0:1|0:1,0:0:0:0:
96,256,131020,2,0,L|88:168,1,65,8|10,0:1|0:0,0:0:0:0:
304,192,131756,6,0,L|320:112,1,65,0|2,0:0|0:0,0:0:0:0:
184,112,132308,1,0,0:0:0:0:
336,304,132676,6,0,P|392:232|328:160,1,195,14|8,0:0|0:1,0:0:0:0:
184,264,133596,1,0,0:0:0:0:
336,280,133965,2,0,L|264:280,1,65,8|10,0:1|0:0,0:0:0:0:
464,72,134701,6,0,L|384:72,1,65,8|2,0:1|0:0,0:0:0:0:
248,64,135253,1,8,0:0:0:0:
416,312,135621,6,0,P|472:240|408:168,1,195,14|8,0:0|0:1,0:0:0:0:
264,272,136541,1,0,0:0:0:0:
96,272,136909,1,0,0:0:0:0:
160,272,137093,6,0,L|360:152,1,195,0|8,0:0|0:1,0:0:0:0:
256,160,137830,2,0,L|120:72,1,130,2|8,0:0|0:1,0:0:0:0:
310,336,138566,6,0,P|366:280|302:200,1,195,14|8,0:0|0:1,0:0:0:0:
245,200,139302,1,2,0:0:0:0:
92,192,139670,1,10,0:0:0:0:
241,152,140038,5,2,0:0:0:0:
376,120,140406,2,0,L|384:48,1,65,8|8,0:0|0:1,0:0:0:0:
320,56,140775,1,2,0:0:0:0:
168,56,141143,1,10,0:0:0:0:
328,168,141511,6,0,P|392:192|440:320,1,195,10|8,0:0|0:1,0:0:0:0:
376,304,142247,1,2,0:0:0:0:
224,296,142615,1,2,0:0:0:0:
72,224,142983,6,0,L|280:176,1,195,10|8,0:0|0:1,0:0:0:0:
336,176,143719,1,2,0:0:0:0:
192,144,144087,1,10,0:0:0:0:
344,288,144456,6,0,P|400:224|328:152,1,195,14|8,0:0|0:1,0:0:0:0:
272,144,145192,1,8,0:3:0:0:
72,128,145744,1,8,0:1:0:0:
136,104,145928,6,0,L|304:64,1,130,14|8,0:0|0:0,0:0:0:0:
336,48,146480,2,0,L|272:32,1,65,8|2,0:1|0:0,0:0:0:0:
128,232,147032,2,0,L|200:248,1,65,8|8,0:0|0:1,0:0:0:0:
280,264,147400,6,0,L|464:224,1,130,14|8,0:0|0:0,0:0:0:0:
328,192,147953,2,0,L|312:88,1,65,8|10,0:1|0:0,0:0:0:0:
456,72,148505,2,0,L|384:64,1,65,0|8,0:0|0:1,0:0:0:0:
320,64,148873,6,0,L|96:128,1,195,14|8,0:0|0:1,0:0:0:0:
280,168,149793,1,10,0:3:0:0:
136,304,150161,2,0,L|120:208,1,65,4|14,0:3|0:1,0:0:0:0:
272,176,150713,2,0,L|368:168,2,65,8|8|10,0:3|0:1|0:0,0:0:0:0:
168,256,157339,6,0,L|160:168,1,65,0|0,0:0|0:0,0:0:0:0:
224,184,157707,1,2,0:0:0:0:
392,152,158259,2,0,L|312:120,1,65,8|10,0:0|0:3,0:0:0:0:
184,296,158811,6,0,L|272:272,1,65,10|8,0:3|0:0,0:0:0:0:
304,264,159179,1,4,0:3:0:0:
120,200,159732,2,0,L|112:120,1,65,8|10,0:3|0:0,0:0:0:0:
312,120,160468,1,4,0:3:0:0:
160,256,160836,6,0,L|320:176,2,130,14|8|8,0:0|0:3|0:0,0:0:0:0:
24,256,161940,1,4,0:3:0:0:
168,328,162308,6,0,L|344:248,1,130,14|8,0:0|0:0,0:0:0:0:
224,248,162860,1,8,0:0:0:0:
160,224,163045,1,8,0:0:0:0:
296,184,163413,1,8,0:0:0:0:
352,160,163597,1,8,0:0:0:0:
416,120,163781,6,0,L|360:88,1,65,8|8,0:1|0:3,0:0:0:0:
296,64,164149,1,8,0:1:0:0:
232,40,164333,1,8,0:1:0:0:
96,256,164701,2,0,L|16:216,2,65,8|8|8,0:1|0:1|0:1,0:0:0:0:
176,248,165253,6,0,L|336:168,1,130,14|8,0:0|0:1,0:0:0:0:
368,160,165805,1,10,0:0:0:0:
208,112,166173,2,0,L|128:80,1,65,0|8,0:0|0:1,0:0:0:0:
80,152,166541,6,0,L|264:232,1,195,2|8,0:0|0:1,0:0:0:0:
416,216,167461,1,2,0:0:0:0:
288,216,167830,1,8,0:1:0:0:
216,256,168014,6,0,L|416:296,1,195,2|8,0:0|0:1,0:0:0:0:
344,280,168750,1,2,0:0:0:0:
216,264,169118,1,2,0:0:0:0:
80,192,169486,6,0,L|240:160,1,130,2|8,0:0|0:0,0:0:0:0:
272,160,170038,1,0,0:0:0:0:
336,144,170222,1,10,0:0:0:0:
184,112,170590,1,0,0:0:0:0:
336,288,170958,6,0,P|384:224|296:152,1,195,2|8,0:0|0:1,0:0:0:0:
248,152,171695,1,10,0:0:0:0:
400,152,172063,1,0,0:0:0:0:
248,296,172431,6,0,L|56:200,1,195,2|8,0:0|0:1,0:0:0:0:
152,192,173168,1,10,0:0:0:0:
360,184,173719,1,8,0:1:0:0:
216,176,174087,6,0,L|56:144,2,130,14|8|8,0:1|0:1|0:1,0:0:0:0:
392,176,175191,1,8,0:1:0:0:
208,320,175560,6,0,P|152:248|232:176,1,195,14|8,0:1|0:1,0:0:0:0:
360,176,176480,2,0,L|376:80,1,65,0|8,0:0|0:1,0:0:0:0:
208,304,177032,6,0,L|72:240,1,130,14|8,0:0|0:1,0:0:0:0:
72,208,177584,2,0,L|208:176,1,130,14|8,0:0|0:0,0:0:0:0:
264,168,178137,1,8,0:1:0:0:
344,136,178320,6,0,L|144:104,1,195,2|8,0:0|0:1,0:0:0:0:
24,88,179241,1,2,0:0:0:0:
168,240,179609,1,8,0:1:0:0:
232,232,179793,6,0,L|416:128,1,195,2|8,0:0|0:1,0:0:0:0:
464,104,180529,1,2,0:0:0:0:
320,88,180897,1,10,0:0:0:0:
160,264,181265,6,0,P|112:200|184:104,1,195,2|8,0:0|0:1,0:0:0:0:
232,104,182001,1,10,0:0:0:0:
376,208,182369,2,0,L|296:208,1,65,0|8,0:0|0:1,0:0:0:0:
152,272,182922,6,0,L|296:224,1,130,0|8,0:0|0:1,0:0:0:0:
320,216,183474,1,10,0:0:0:0:
184,168,183842,2,0,L|120:144,1,65,0|8,0:0|0:1,0:0:0:0:
272,88,184394,6,0,P|320:136|304:208,1,130,0|8,0:0|0:1,0:0:0:0:
272,232,184946,1,14,0:0:0:0:
96,232,185498,1,8,0:1:0:0:
272,320,185867,5,8,0:3:0:0:
216,304,186051,1,8,0:3:0:0:
160,288,186235,1,8,0:0:0:0:
104,272,186419,1,10,0:3:0:0:
328,208,186971,1,8,0:0:0:0:
152,304,187339,6,0,P|48:240|184:56,1,390,14|8,0:0|0:3,0:0:0:0:
328,128,188811,6,0,L|168:88,1,130,14|8,0:0|0:1,0:0:0:0:
72,144,189547,2,0,L|224:192,1,130,10|8,0:0|0:1,0:0:0:0:
352,280,190284,6,0,L|360:192,1,65,10|8,0:3|0:0,0:0:0:0:
232,208,190836,1,10,0:0:0:0:
360,176,191204,1,8,0:0:0:0:
136,128,191756,6,0,L|296:88,1,130,10|8,0:3|0:1,0:0:0:0:
392,144,192492,2,0,L|240:192,1,130,10|8,0:0|0:1,0:0:0:0:
112,280,193229,6,0,L|104:192,1,65,10|0,0:3|0:0,0:0:0:0:
232,208,193781,1,10,0:0:0:0:
104,176,194149,1,8,0:0:0:0:
312,144,194701,6,0,L|152:104,1,130,14|8,0:0|0:1,0:0:0:0:
32,264,195437,2,0,L|48:128,1,130,10|8,0:0|0:1,0:0:0:0:
208,104,196173,6,0,L|288:88,1,65,8|8,0:3|0:0,0:0:0:0:
408,64,196725,1,10,0:0:0:0:
272,40,197093,1,0,0:0:0:0:
64,240,197646,6,0,L|264:344,2,195,10|2|8,0:0|0:0|0:1,0:0:0:0:
136,224,198934,1,2,0:0:0:0:
200,208,199118,6,0,L|384:112,1,195,14|10,0:0|0:0,0:0:0:0:
168,112,200222,1,10,0:0:0:0:
304,312,200591,6,0,L|432:232,2,130,2|0|2,0:0|0:0|0:0,0:0:0:0:
88,280,202063,6,0,P|48:208|120:152,1,130,2|0,0:0|0:0,0:0:0:0:
128,152,202615,1,0,0:0:0:0:
192,136,202799,1,2,0:0:0:0:
416,96,203535,6,0,L|248:32,1,130,2|0,0:0|0:0,0:0:0:0:
432,152,204272,1,2,0:0:0:0:
216,304,205042,6,0,L|208:144,1,130,2|0,0:0|0:0,0:0:0:0:
296,160,205733,1,0,0:0:0:0:
384,136,206005,1,2,0:0:0:0:
224,88,206377,1,0,0:0:0:0:
448,64,206912,5,0,0:0:0:0:
256,192,209057,12,0,215315,0:0:0:0:
