osu file format v14

[General]
AudioFilename: audio.mp3
AudioLeadIn: 0
PreviewTime: 52051
Countdown: 0
SampleSet: Soft
StackLeniency: 0.3
Mode: 0
LetterboxInBreaks: 0
WidescreenStoryboard: 1

[Editor]
DistanceSpacing: 0.8
BeatDivisor: 8
GridSize: 32
TimelineZoom: 1.5

[Metadata]
Title:Precious Wing (Short Ver.)
TitleUnicode:Precious Wing (Short Ver.)
Artist:Chata
ArtistUnicode:茶太
Creator:Vell
Version:Normal
Source:この大空に、翼をひろげて
Tags:if my heart had wings kono oozora ni tsubasa wo hirogete visual novel version eroge Japanese Pop
BeatmapID:1829909
BeatmapSetID:874732

[Difficulty]
HPDrainRate:4
CircleSize:3.3
OverallDifficulty:4
ApproachRate:5.4
SliderMultiplier:1.2
SliderTickRate:1

[Events]
//Background and Video events
0,0,"BG+wing.jpg",0,0
//Break Periods
//Storyboard Layer 0 (Background)
//Storyboard Layer 1 (Fail)
//Storyboard Layer 2 (Pass)
//Storyboard Layer 3 (Foreground)
//Storyboard Layer 4 (Overlay)
//Storyboard Sound Samples

[TimingPoints]
-636,375,4,2,1,70,1,0
864,-100,4,2,1,70,0,0
4239,-100,4,2,4,70,0,0
4426,-100,4,2,1,70,0,0
4614,-100,4,2,2,70,0,0
4989,-100,4,2,1,70,0,0
10239,-100,4,2,4,70,0,0
10614,-100,4,2,1,70,0,0
13239,-100,4,2,4,70,0,0
13614,-100,4,2,2,70,0,0
13989,-100,4,2,4,70,0,0
14364,-100,4,2,2,70,0,0
14739,-100,4,2,3,70,0,0
15114,-100,4,2,1,70,0,0
15864,-133.333333333333,4,2,1,70,0,0
16989,-133.333333333333,4,2,2,50,0,0
17176,-133.333333333333,4,2,1,50,0,0
17364,-133.333333333333,4,2,2,50,0,0
17551,-133.333333333333,4,2,1,50,0,0
18114,-133.333333333333,4,2,2,50,0,0
18301,-133.333333333333,4,2,1,50,0,0
22239,-133.333333333333,4,2,2,50,0,0
22426,-133.333333333333,4,2,1,50,0,0
26364,-133.333333333333,4,2,1,70,0,0
28051,-133.333333333333,4,2,1,50,0,0
28989,-133.333333333333,4,2,2,50,0,0
29176,-133.333333333333,4,2,1,50,0,0
34239,-133.333333333333,4,2,2,50,0,0
34426,-133.333333333333,4,2,1,50,0,0
34614,-133.333333333333,4,2,2,50,0,0
34989,-133.333333333333,4,2,1,50,0,0
37239,-100,4,2,1,70,0,0
37614,-100,4,2,2,70,0,0
37801,-100,4,2,1,70,0,0
43614,-100,4,2,2,70,0,0
43801,-100,4,2,1,70,0,0
46239,-100,4,2,4,70,0,0
46426,-100,4,2,1,70,0,0
46614,-100,4,2,2,70,0,0
46989,-100,4,2,1,70,0,0
47739,-100,4,2,4,70,0,0
47926,-100,4,2,1,70,0,0
48114,-100,4,2,2,70,0,0
48489,-100,4,2,1,70,0,0
53364,-90.9090909090909,4,2,1,70,0,1
59739,-90.9090909090909,4,2,4,70,0,1
59926,-90.9090909090909,4,2,1,70,0,1
62739,-90.9090909090909,4,2,4,70,0,1
62926,-90.9090909090909,4,2,1,70,0,1
71739,-90.9090909090909,4,2,4,70,0,1
71926,-90.9090909090909,4,2,1,70,0,1
73239,-90.9090909090909,4,2,4,70,0,1
73426,-90.9090909090909,4,2,1,70,0,1
74739,-90.9090909090909,4,2,4,70,0,1
74926,-90.9090909090909,4,2,1,70,0,1
79239,-90.9090909090909,4,2,1,70,0,0
80364,-100,4,2,1,70,0,0
85989,-100,4,2,4,70,0,0
86176,-100,4,2,1,70,0,0
96864,-100,4,2,1,20,0,0

[Colours]
Combo1 : 210,213,221
Combo2 : 128,202,142
Combo3 : 203,206,138
Combo4 : 100,202,194
Combo5 : 43,157,213
Combo6 : 245,189,255

[HitObjects]
512,325,864,6,0,P|466:306|397:315,1,120,8|2,0:0|0:0,0:0:0:0:
322,374,1614,1,8,0:0:0:0:
322,374,1802,2,0,P|287:373|258:360,1,60,2|2,0:3|0:0,0:0:0:0:
189,301,2364,2,0,P|153:347|95:347,1,120,10|8,0:1|0:0,0:0:0:0:
68,333,2927,2,0,P|46:278|75:228,1,120,2|2,0:3|0:3,0:0:0:0:
175,215,3677,5,2,0:3:0:0:
175,215,3864,2,0,P|209:241|332:197,2,180,10|0|2,0:1|0:0|0:0,0:0:0:0:
82,241,5364,2,0,P|109:280|108:356,1,120,8|2,0:0|0:0,0:0:0:0:
193,384,6114,2,0,P|221:346|293:326,1,120,14|2,0:1|0:0,0:0:0:0:
312,343,6677,1,2,0:3:0:0:
337,359,6864,70,0,P|362:342|357:248,1,120,14|2,0:1|0:0,0:0:0:0:
286,206,7614,1,8,0:0:0:0:
286,206,7802,2,0,P|247:216|228:227,1,60,2|2,0:3|0:0,0:0:0:0:
160,295,8364,6,0,P|136:327|60:285,1,120,14|2,0:1|0:0,0:0:0:0:
3,236,9114,2,0,P|27:204|103:246,1,120,8|2,0:0|0:0,0:0:0:0:
160,295,9864,70,0,B|203:343|269:312|269:312|333:276|403:326,1,240,14|8,0:1|0:0,0:0:0:0:
453,379,10989,1,2,0:0:0:0:
510,301,11364,2,0,P|520:252|486:190,2,120,10|2|8,0:1|0:0|0:0,0:0:0:0:
422,260,12489,1,2,0:0:0:0:
342,206,12864,70,0,P|275:191|64:265,2,300,10|0|10,0:1|0:0|0:0,0:0:0:0:
283,281,15114,2,0,P|233:278|165:248,1,120,8|2,0:0|0:0,0:0:0:0:
107,177,15864,1,12,0:1:0:0:
322,144,16614,38,0,P|279:136|183:174,2,135.000005149841,8|2|8,0:0|0:3|0:0,0:0:0:0:
336,166,17927,2,0,P|375:195|461:184,1,135.000005149841,2|12,0:3|0:0,0:0:0:0:
497,105,18864,6,0,P|452:96|399:117,1,90.0000034332277,8|8,0:0|0:0,0:0:0:0:
336,166,19614,2,0,P|292:175|249:162,1,90.0000034332277,8|8,0:0|0:0,0:0:0:0:
179,100,20364,1,8,0:0:0:0:
64,171,20927,2,0,P|49:137|53:83,2,90.0000034332277,4|4|2,0:0|0:0|0:3,0:0:0:0:
83,189,21864,70,0,P|115:167|218:166,1,135.000005149841,8|2,0:0|0:3,0:0:0:0:
221,186,22614,2,0,P|249:215|297:228,1,90.0000034332277,8|8,0:0|0:0,0:0:0:0:
383,206,23364,2,0,P|419:182|440:134,1,90.0000034332277,8|8,0:0|0:0,0:0:0:0:
434,114,23927,1,2,0:3:0:0:
351,77,24302,1,2,0:3:0:0:
351,77,24489,2,0,P|316:91|248:89,1,90.0000034332277,4|8,0:0|0:0,0:0:0:0:
193,150,25239,6,0,P|169:127|100:125,2,90.0000034332277,8|8|8,0:0|0:0|0:0,0:0:0:0:
236,229,26364,2,0,P|211:238|149:227,1,90.0000034332277,8|8,0:0|0:0,0:0:0:0:
125,216,26927,2,0,P|99:241|93:298,2,90.0000034332277,4|4|4,0:0|0:0|0:0,0:0:0:0:
117,189,27864,1,8,0:0:0:0:
306,144,28614,70,0,P|339:164|442:155,1,135.000005149841,8|2,0:0|0:3,0:0:0:0:
454,143,29364,2,0,P|470:176|465:233,1,90.0000034332277,8|8,0:0|0:0,0:0:0:0:
454,252,29927,1,2,0:3:0:0:
363,271,30302,1,2,0:3:0:0:
363,271,30489,2,0,P|321:249|277:247,1,90.0000034332277,12|8,0:0|0:0,0:0:0:0:
189,257,31239,6,0,P|167:238|150:178,1,90.0000034332277,8|8,0:0|0:0,0:0:0:0:
216,120,31989,2,0,P|259:128|291:159,2,90.0000034332277,8|8|8,0:0|0:0|0:0,0:0:0:0:
193,134,32927,2,0,P|145:153|103:141,1,90.0000034332277,2|2,0:3|0:3,0:0:0:0:
85,130,33489,1,4,0:0:0:0:
28,200,33864,70,0,P|56:219|66:320,2,135.000005149841,8|2|8,0:0|0:3|0:0,0:0:0:0:
85,130,35364,2,0,P|121:151|173:159,1,90.0000034332277,8|8,0:0|0:0,0:0:0:0:
194,153,35927,1,2,0:3:0:0:
275,200,36302,1,2,0:3:0:0:
275,200,36489,2,0,P|294:170|346:149,1,90.0000034332277,8|8,0:0|0:0,0:0:0:0:
431,185,37239,38,0,P|465:221|356:233,1,240,12|12,0:1|0:1,0:0:0:0:
349,210,38177,2,0,P|323:192|232:192,1,120,2|2,0:3|0:3,0:0:0:0:
219,213,38739,2,0,P|206:223|155:233,1,60,8|2,0:0|0:0,0:0:0:0:
135,227,39114,1,8,0:0:0:0:
49,205,39489,2,0,P|64:176|60:127,1,60,2|2,0:0|0:3,0:0:0:0:
50,121,39864,1,14,0:1:0:0:
138,93,40239,53,2,0:0:0:0:
138,93,40427,2,0,P|149:123|234:165,1,120,2|2,0:3|0:3,0:0:0:0:
304,117,41177,1,2,0:3:0:0:
304,117,41364,2,0,P|335:98|421:101,2,120,10|2|8,0:1|0:0|0:0,0:0:0:0:
240,186,42489,2,0,P|267:212|293:218,1,60,2|2,0:0|0:3,0:0:0:0:
317,212,42864,1,10,0:1:0:0:
304,117,43239,70,0,P|258:96|148:216,1,240,2|2,0:0|0:0,0:0:0:0:
59,251,44364,2,0,P|55:218|48:177,1,60,8|2,0:0|0:0,0:0:0:0:
38,163,44739,1,0,0:0:0:0:
26,135,44927,2,0,P|61:103|123:36,1,120
137,65,45489,1,0,0:0:0:0:
229,97,45864,6,0,P|299:89|384:150,2,180,10|2|2,0:1|0:1|0:0,0:0:0:0:
198,188,47364,2,0,P|265:244|353:241,2,180,10|2|2,0:1|0:1|0:0,0:0:0:0:
229,97,48864,21,12,0:1:0:0:
363,147,49427,1,12,0:1:0:0:
330,6,49989,1,12,0:1:0:0:
256,192,50364,12,8,51864,0:0:0:0:
0,64,53364,70,0,P|65:57|127:83,1,132.00000402832,14|2,0:1|0:0,0:0:0:0:
197,159,54114,2,0,P|241:169|264:90,1,132.00000402832,8|2,0:0|0:0,0:0:0:0:
247,78,54677,2,0,P|227:39|230:-3,2,66.0000020141602,2|8|2,0:3|0:0|0:0,0:0:0:0:
280,78,55239,2,0,P|324:59|420:73,1,132.00000402832,2|8,0:0|0:0,0:0:0:0:
500,115,55989,1,2,0:0:0:0:
418,180,56364,6,0,P|374:199|278:185,1,132.00000402832,8|2,0:0|0:0,0:0:0:0:
199,140,57114,2,0,P|178:105|91:135,1,132.00000402832,8|2,0:0|0:0,0:0:0:0:
86,149,57677,2,0,P|68:187|45:211,2,66.0000020141602,2|8|2,0:3|0:0|0:0,0:0:0:0:
69,119,58239,1,2,0:0:0:0:
0,49,58614,2,0,P|50:27|131:38,1,132.00000402832,8|2,0:0|0:0,0:0:0:0:
193,116,59364,70,0,B|256:132|294:88|294:88|328:47|387:69,1,198.000006042481,12|2,0:1|0:3,0:0:0:0:
401,80,60114,2,0,P|424:111|402:214,1,132.00000402832,8|2,0:0|0:0,0:0:0:0:
387,218,60677,1,2,0:3:0:0:
286,186,61052,1,2,0:3:0:0:
286,186,61239,2,0,P|252:165|158:171,1,132.00000402832,2|8,0:0|0:0,0:0:0:0:
62,201,61989,2,0,P|41:167|36:131,1,66.0000020141602,2|2,0:0|0:3,0:0:0:0:
49,104,62364,6,0,P|89:68|250:61,1,198.000006042481,14|14,0:1|0:1,0:0:0:0:
298,128,63302,1,2,0:3:0:0:
358,41,63677,2,0,P|400:90|402:155,1,132.00000402832,14|2,0:1|0:3,0:0:0:0:
388,193,64239,2,0,P|336:186|297:188,1,66.0000020141602,2|2,0:0|0:3,0:0:0:0:
294,213,64614,2,0,P|242:206|203:208,1,66.0000020141602,8|2,0:0|0:3,0:0:0:0:
193,224,64989,1,2,0:0:0:0:
112,155,65364,70,0,P|90:110|128:22,1,132.00000402832,8|2,0:0|0:0,0:0:0:0:
213,21,66114,2,0,P|262:21|345:38,1,132.00000402832,8|2,0:0|0:0,0:0:0:0:
367,58,66677,1,2,0:3:0:0:
394,76,66864,2,0,P|427:39|430:10,2,66.0000020141602,8|2|2,0:0|0:0|0:0,0:0:0:0:
464,154,67614,2,0,P|420:176|333:159,1,132.00000402832,8|2,0:0|0:0,0:0:0:0:
312,146,68177,1,2,0:3:0:0:
282,130,68364,6,0,P|241:113|168:179,1,132.00000402832,8|2,0:0|0:0,0:0:0:0:
69,182,69114,2,0,P|93:148|61:52,1,132.00000402832,8|2,0:0|0:0,0:0:0:0:
56,37,69677,2,0,P|103:58|137:59,1,66.0000020141602,2|8,0:3|0:0,0:0:0:0:
146,45,70052,1,2,0:0:0:0:
175,29,70239,1,2,0:0:0:0:
278,49,70614,2,0,P|313:31|351:32,1,66.0000020141602,8|2,0:0|0:3,0:0:0:0:
365,49,70989,1,2,0:0:0:0:
457,100,71364,70,0,P|454:162|318:212,1,198.000006042481,14|2,0:1|0:3,0:0:0:0:
313,212,72114,2,0,P|278:190|259:157,1,66.0000020141602,8|2,0:0|0:3,0:0:0:0:
248,141,72489,1,2,0:0:0:0:
205,48,72864,6,0,P|158:26|63:120,1,198.000006042481,14|2,0:1|0:3,0:0:0:0:
68,143,73614,2,0,P|99:189|120:198,1,66.0000020141602,8|2,0:0|0:3,0:0:0:0:
138,203,73989,1,2,0:0:0:0:
223,141,74364,70,0,B|258:112|304:137|304:137|367:171|413:152,1,198.000006042481,14|2,0:1|0:3,0:0:0:0:
440,138,75114,2,0,P|462:106|434:18,1,132.00000402832,8|2,0:0|0:0,0:0:0:0:
407,13,75677,1,2,0:3:0:0:
373,10,75864,2,0,P|327:40|247:24,1,132.00000402832,8|2,0:0|0:0,0:0:0:0:
148,37,76614,2,0,P|115:57|96:97,1,66.0000020141602,8|2,0:0|0:3,0:0:0:0:
89,110,76989,2,0,P|79:147|94:189,1,66.0000020141602,2|2,0:0|0:3,0:0:0:0:
104,201,77364,5,10,0:1:0:0:
131,219,77552,2,0,P|208:222|259:172,2,132.00000402832,2|2|2,0:3|0:3|0:3,0:0:0:0:
174,122,78677,2,0,P|219:96|354:174,1,198.000006042481,10|14,0:1|0:1,0:0:0:0:
343,147,80364,38,0,P|368:193|335:273,1,120,8|2,0:0|0:0,0:0:0:0:
328,274,80927,1,2,0:3:0:0:
299,283,81114,2,0,P|253:266|181:258,1,120,8|2,0:0|0:0,0:0:0:0:
91,286,81864,2,0,P|61:249|62:177,1,120,10|2,0:1|0:0,0:0:0:0:
81,157,82427,2,0,P|120:146|205:159,1,120,2|2,0:3|0:3,0:0:0:0:
270,218,83177,1,2,0:3:0:0:
270,218,83364,6,0,P|304:241|348:174,1,120,10|2,0:1|0:0,0:0:0:0:
353,164,83927,1,2,0:3:0:0:
352,133,84114,2,0,P|383:97|443:138,1,120,8|2,0:0|0:0,0:0:0:0:
503,196,84864,2,0,P|496:235|486:270,1,60,8|2,0:0|0:3,0:0:0:0:
504,300,85239,2,0,P|497:339|487:374,1,60,2|2,0:0|0:3,0:0:0:0:
444,366,85614,70,0,P|402:325|279:332,1,180,14|2,0:1|0:3,0:0:0:0:
270,351,86364,53,10,0:1:0:0:
187,301,86739,1,2,0:0:0:0:
187,301,86927,2,0,P|159:327|78:314,1,120,2|2,0:3|0:3,0:0:0:0:
59,299,87489,2,0,P|42:270|43:234,1,60,2|2,0:0|0:3,0:0:0:0:
54,217,87864,5,10,0:1:0:0:
146,191,88239,1,2,0:0:0:0:
146,191,88427,2,0,P|197:198|267:225,1,120,2|2,0:3|0:3,0:0:0:0:
282,243,88989,2,0,P|286:272|304:296,1,60,2|2,0:0|0:3,0:0:0:0:
329,312,89364,53,14,0:1:0:0:
355,325,89552,1,10,0:1:0:0:
404,243,89927,69,10,0:1:0:0:
433,241,90114,1,10,0:1:0:0:
412,146,90489,5,10,0:1:0:0:
436,129,90677,1,10,0:1:0:0:
376,54,91052,69,10,0:1:0:0:
388,27,91239,1,10,0:1:0:0:
291,26,91614,6,0,P|267:67|288:149,1,120,14|10,0:1|0:1,0:0:0:0:
296,159,92177,1,14,0:1:0:0:
256,192,92364,12,0,96864,0:0:0:0:
