osu file format v14

[General]
AudioFilename: audio.mp3
AudioLeadIn: 0
PreviewTime: 57246
Countdown: 0
SampleSet: Normal
StackLeniency: 0.7
Mode: 1
LetterboxInBreaks: 0
WidescreenStoryboard: 1

[Editor]
DistanceSpacing: 1.4
BeatDivisor: 4
GridSize: 32
TimelineZoom: 3.099999

[Metadata]
Title:Precious Wing (Movie ver)
TitleUnicode:Precious Wing (Movie ver)
Artist:Chata
ArtistUnicode:茶太
Creator:Asa Kazato
Version:Muzukashii
Source:この大空に、翼をひろげて
Tags:If my Heart had Wings konozora konosora Kono Oozora Ni Tsubasa Wo Hirogete moenovel eroge visual novel movie short version japanese jpop j-pop pop video game Nytrioum CoEqual Will-282CD PULLTOP WillPlus Kenichi Okuma 大熊謙一 Minao Ohse 逢瀬 水織
BeatmapID:2533488
BeatmapSetID:1216732

[Difficulty]
HPDrainRate:7
CircleSize:2
OverallDifficulty:4
ApproachRate:4
SliderMultiplier:1.4
SliderTickRate:1

[Events]
//Background and Video events
0,0,"Kazato Asa.jpg",0,0
//Break Periods
//Storyboard Layer 0 (Background)
//Storyboard Layer 1 (Fail)
//Storyboard Layer 2 (Pass)
//Storyboard Layer 3 (Foreground)
//Storyboard Layer 4 (Overlay)
//Storyboard Sound Samples

[TimingPoints]
5309,375,4,1,0,80,1,8
5309,-100,4,1,0,80,0,0
5684,375,4,1,0,80,1,1
5684,-100,4,1,0,90,0,1
20684,375,4,1,0,90,1,1
20684,-100,4,1,0,80,0,0
58184,375,4,1,0,90,1,1
58184,-100,4,1,0,90,0,1
84246,-100,4,1,0,80,0,0
85184,375,4,1,0,90,1,1
85184,-100,4,1,0,90,0,1
96996,-100,4,1,0,80,0,0

[HitObjects]
257,194,5309,5,0,0:0:0:0:
257,194,5402,1,0,0:0:0:0:
257,194,5496,1,0,0:0:0:0:
257,194,5684,1,12,0:0:0:0:
257,194,6059,1,0,0:0:0:0:
257,194,6246,1,8,0:0:0:0:
257,194,6621,1,0,0:0:0:0:
257,194,6809,1,8,0:0:0:0:
257,194,6996,1,0,0:0:0:0:
257,194,7184,1,8,0:0:0:0:
257,194,7559,1,8,0:0:0:0:
257,194,7746,1,0,0:0:0:0:
257,194,8121,1,8,0:0:0:0:
257,194,8215,1,8,0:0:0:0:
257,194,8309,1,8,0:0:0:0:
257,194,8496,1,0,0:0:0:0:
257,194,8684,1,8,0:0:0:0:
257,194,9059,1,0,0:0:0:0:
257,194,9246,1,8,0:0:0:0:
257,194,9621,1,0,0:0:0:0:
257,194,9809,1,8,0:0:0:0:
257,194,9996,1,8,0:0:0:0:
257,194,10184,1,0,0:0:0:0:
257,194,10559,1,8,0:0:0:0:
257,194,10934,1,8,0:0:0:0:
257,194,11027,1,8,0:0:0:0:
257,194,11121,1,8,0:0:0:0:
257,194,11309,1,0,0:0:0:0:
257,194,11496,1,0,0:0:0:0:
257,194,11684,1,12,0:0:0:0:
257,194,12059,1,0,0:0:0:0:
257,194,12246,1,8,0:0:0:0:
257,194,12809,1,8,0:0:0:0:
257,194,12996,1,0,0:0:0:0:
257,194,13184,1,12,0:0:0:0:
257,194,13559,1,0,0:0:0:0:
257,194,13746,1,0,0:0:0:0:
257,194,13934,1,8,0:0:0:0:
257,194,14027,1,8,0:0:0:0:
257,194,14121,1,8,0:0:0:0:
257,194,14309,1,0,0:0:0:0:
257,194,14496,1,0,0:0:0:0:
257,194,14684,1,12,0:0:0:0:
257,194,15059,1,8,0:0:0:0:
257,194,15246,1,0,0:0:0:0:
257,194,15434,1,0,0:0:0:0:
257,194,15621,1,0,0:0:0:0:
257,194,15809,1,8,0:0:0:0:
257,194,16184,1,0,0:0:0:0:
257,194,16559,1,0,0:0:0:0:
257,194,16746,1,8,0:0:0:0:
257,194,16934,1,0,0:0:0:0:
257,194,17121,1,0,0:0:0:0:
257,194,17309,1,8,0:0:0:0:
257,194,17684,1,8,0:0:0:0:
257,194,17871,1,0,0:0:0:0:
257,194,17965,1,0,0:0:0:0:
257,194,18059,1,0,0:0:0:0:
257,194,18246,1,8,0:0:0:0:
257,194,18621,1,8,0:0:0:0:
257,194,18809,1,0,0:0:0:0:
257,194,18996,1,8,0:0:0:0:
257,194,19090,1,8,0:0:0:0:
257,194,19184,1,8,0:0:0:0:
257,194,19371,1,8,0:0:0:0:
257,194,19559,1,0,0:0:0:0:
257,194,20121,1,8,0:0:0:0:
257,194,20309,1,0,0:0:0:0:
257,194,20684,1,12,0:0:0:0:
257,194,21246,1,8,0:0:0:0:
257,194,21434,1,8,0:0:0:0:
257,194,21809,1,0,0:0:0:0:
257,194,22184,1,8,0:0:0:0:
257,194,22559,1,8,0:0:0:0:
257,194,22746,1,0,0:0:0:0:
257,194,23121,1,8,0:0:0:0:
257,194,23309,1,8,0:0:0:0:
257,194,23496,1,0,0:0:0:0:
257,194,23684,1,8,0:0:0:0:
257,194,24059,1,0,0:0:0:0:
257,194,24246,1,8,0:0:0:0:
257,194,24809,1,0,0:0:0:0:
257,194,25184,1,8,0:0:0:0:
257,194,25559,1,8,0:0:0:0:
257,194,25746,1,0,0:0:0:0:
257,194,26121,1,0,0:0:0:0:
257,194,26309,1,8,0:0:0:0:
257,194,26684,1,8,0:0:0:0:
257,194,27246,1,0,0:0:0:0:
257,194,27434,1,8,0:0:0:0:
257,194,27621,1,0,0:0:0:0:
257,194,27809,1,8,0:0:0:0:
257,194,27996,1,8,0:0:0:0:
257,194,28184,1,0,0:0:0:0:
257,194,28559,1,8,0:0:0:0:
257,194,28746,1,0,0:0:0:0:
257,194,29121,1,0,0:0:0:0:
257,194,29309,1,0,0:0:0:0:
257,194,29684,1,8,0:0:0:0:
257,194,30059,1,0,0:0:0:0:
257,194,30246,1,0,0:0:0:0:
257,194,30434,1,8,0:0:0:0:
257,194,30809,1,0,0:0:0:0:
257,194,30996,1,8,0:0:0:0:
257,194,31090,1,8,0:0:0:0:
257,194,31184,1,8,0:0:0:0:
257,194,31371,1,8,0:0:0:0:
257,194,31559,1,8,0:0:0:0:
257,194,31746,1,0,0:0:0:0:
257,194,32121,1,8,0:0:0:0:
257,194,32309,1,0,0:0:0:0:
257,194,32496,1,0,0:0:0:0:
257,194,32684,1,8,0:0:0:0:
257,194,33246,1,8,0:0:0:0:
257,194,33434,1,0,0:0:0:0:
257,194,33621,1,8,0:0:0:0:
257,194,33809,1,8,0:0:0:0:
257,194,33996,1,8,0:0:0:0:
257,194,34184,1,0,0:0:0:0:
257,194,34559,1,0,0:0:0:0:
257,194,34746,1,8,0:0:0:0:
257,194,35121,1,8,0:0:0:0:
257,194,35309,1,0,0:0:0:0:
257,194,35496,1,8,0:0:0:0:
257,194,35684,1,0,0:0:0:0:
257,194,36059,1,0,0:0:0:0:
257,194,36246,1,8,0:0:0:0:
257,194,36621,1,8,0:0:0:0:
257,194,36809,1,0,0:0:0:0:
257,194,37184,1,8,0:0:0:0:
257,194,37559,1,0,0:0:0:0:
257,194,37746,1,8,0:0:0:0:
257,194,38121,1,0,0:0:0:0:
257,194,38309,1,8,0:0:0:0:
257,194,38684,1,8,0:0:0:0:
257,194,39246,1,0,0:0:0:0:
257,194,39434,1,8,0:0:0:0:
257,194,39621,1,8,0:0:0:0:
257,194,39809,1,0,0:0:0:0:
257,194,39996,1,0,0:0:0:0:
257,194,40184,1,8,0:0:0:0:
257,194,40559,1,0,0:0:0:0:
257,194,40746,1,8,0:0:0:0:
257,194,41121,1,8,0:0:0:0:
257,194,41309,1,0,0:0:0:0:
257,194,41496,1,0,0:0:0:0:
257,194,42059,1,12,0:0:0:0:
257,194,42434,1,0,0:0:0:0:
257,194,42809,1,12,0:0:0:0:
257,194,42996,1,4,0:0:0:0:
257,194,43371,1,8,0:0:0:0:
257,194,43559,1,0,0:0:0:0:
257,194,43652,1,0,0:0:0:0:
257,194,43746,1,0,0:0:0:0:
257,194,43934,1,8,0:0:0:0:
257,194,44121,1,8,0:0:0:0:
257,194,44309,1,0,0:0:0:0:
257,194,44496,1,0,0:0:0:0:
257,194,44684,1,12,0:0:0:0:
257,194,45059,1,0,0:0:0:0:
257,194,45246,1,8,0:0:0:0:
257,194,45621,1,8,0:0:0:0:
257,194,45809,1,0,0:0:0:0:
257,194,45996,1,8,0:0:0:0:
257,194,46559,1,0,0:0:0:0:
257,194,46746,1,8,0:0:0:0:
257,194,47121,1,8,0:0:0:0:
257,194,47309,1,8,0:0:0:0:
257,194,47496,1,0,0:0:0:0:
257,194,47684,1,8,0:0:0:0:
257,194,48059,1,0,0:0:0:0:
257,194,48246,1,8,0:0:0:0:
257,194,48996,1,8,0:0:0:0:
257,194,49090,1,8,0:0:0:0:
257,194,49184,1,8,0:0:0:0:
257,194,49371,1,8,0:0:0:0:
257,194,49559,1,0,0:0:0:0:
257,194,49746,1,0,0:0:0:0:
257,194,50121,1,8,0:0:0:0:
257,194,50309,1,0,0:0:0:0:
257,194,50496,1,0,0:0:0:0:
257,194,50684,1,12,0:0:0:0:
257,194,51059,1,0,0:0:0:0:
257,194,51246,1,8,0:0:0:0:
257,194,51621,1,0,0:0:0:0:
257,194,51996,1,0,0:0:0:0:
257,194,52184,1,8,0:0:0:0:
257,194,52559,1,8,0:0:0:0:
257,194,52746,1,0,0:0:0:0:
257,194,53121,1,0,0:0:0:0:
257,194,53309,1,8,0:0:0:0:
257,194,53684,1,12,0:0:0:0:
257,194,54059,1,0,0:0:0:0:
257,194,54246,1,12,0:0:0:0:
257,194,54621,1,0,0:0:0:0:
257,194,54809,1,12,0:0:0:0:
257,195,56684,1,8,0:0:0:0:
257,195,57246,1,0,0:0:0:0:
257,195,57434,1,8,0:0:0:0:
257,195,57621,1,0,0:0:0:0:
257,195,57715,1,0,0:0:0:0:
257,195,57809,1,0,0:0:0:0:
257,195,57996,1,0,0:0:0:0:
257,195,58184,1,12,0:0:0:0:
257,195,58559,1,0,0:0:0:0:
257,195,58746,1,8,0:0:0:0:
257,195,58840,1,8,0:0:0:0:
257,195,58934,1,8,0:0:0:0:
257,195,59309,1,0,0:0:0:0:
257,195,59496,1,8,0:0:0:0:
257,195,60059,1,0,0:0:0:0:
257,195,60246,1,8,0:0:0:0:
257,195,60434,1,0,0:0:0:0:
257,195,60621,1,0,0:0:0:0:
257,195,60809,1,8,0:0:0:0:
257,195,61184,1,8,0:0:0:0:
257,195,61559,1,0,0:0:0:0:
257,195,61746,1,8,0:0:0:0:
257,195,61840,1,8,0:0:0:0:
257,195,61934,1,8,0:0:0:0:
257,195,62309,1,0,0:0:0:0:
257,195,62496,1,8,0:0:0:0:
257,195,63059,1,0,0:0:0:0:
257,195,63246,1,8,0:0:0:0:
257,195,63434,1,0,0:0:0:0:
257,195,63621,1,8,0:0:0:0:
257,195,63715,1,8,0:0:0:0:
257,195,63809,1,8,0:0:0:0:
257,195,63996,1,0,0:0:0:0:
257,195,64184,1,12,0:0:0:0:
257,195,64559,1,0,0:0:0:0:
257,195,64746,1,8,0:0:0:0:
257,195,64840,1,8,0:0:0:0:
257,195,64934,1,8,0:0:0:0:
257,195,65309,1,0,0:0:0:0:
257,195,65496,1,8,0:0:0:0:
257,195,66059,1,0,0:0:0:0:
257,195,66434,1,0,0:0:0:0:
257,195,66621,1,0,0:0:0:0:
257,195,66809,1,8,0:0:0:0:
257,195,66996,1,0,0:0:0:0:
257,195,67184,1,12,0:0:0:0:
257,195,67559,1,0,0:0:0:0:
257,195,67746,1,12,0:0:0:0:
257,195,68121,1,12,0:0:0:0:
257,195,68309,1,0,0:0:0:0:
257,195,68496,1,12,0:0:0:0:
257,195,68871,1,0,0:0:0:0:
257,195,69059,1,8,0:0:0:0:
257,195,69246,1,0,0:0:0:0:
257,195,69434,1,0,0:0:0:0:
257,195,69527,1,0,0:0:0:0:
257,195,69621,1,0,0:0:0:0:
257,195,69809,1,8,0:0:0:0:
257,195,69996,1,0,0:0:0:0:
257,195,70184,1,12,0:0:0:0:
257,195,70559,1,0,0:0:0:0:
257,195,70746,1,8,0:0:0:0:
257,195,70840,1,8,0:0:0:0:
257,195,70934,1,8,0:0:0:0:
257,195,71309,1,0,0:0:0:0:
257,195,71496,1,8,0:0:0:0:
257,195,72059,1,8,0:0:0:0:
257,195,72246,1,0,0:0:0:0:
257,195,72434,1,0,0:0:0:0:
257,195,72621,1,8,0:0:0:0:
257,195,72809,1,8,0:0:0:0:
257,195,72996,1,0,0:0:0:0:
257,195,73184,1,8,0:0:0:0:
257,195,73559,1,0,0:0:0:0:
257,195,73746,1,8,0:0:0:0:
257,195,73840,1,8,0:0:0:0:
257,195,73934,1,8,0:0:0:0:
257,195,74121,1,8,0:0:0:0:
257,195,74309,1,0,0:0:0:0:
257,195,74496,1,8,0:0:0:0:
257,195,75059,1,8,0:0:0:0:
257,195,75434,1,8,0:0:0:0:
257,195,75621,1,0,0:0:0:0:
257,195,75809,1,8,0:0:0:0:
257,195,76184,1,12,0:0:0:0:
257,195,76559,1,8,0:0:0:0:
257,195,76746,1,0,0:0:0:0:
257,195,76840,1,0,0:0:0:0:
257,195,76934,1,0,0:0:0:0:
257,195,77121,1,8,0:0:0:0:
257,195,77309,1,0,0:0:0:0:
257,195,77496,1,0,0:0:0:0:
257,195,77684,1,12,0:0:0:0:
257,195,78246,1,0,0:0:0:0:
257,195,78340,1,0,0:0:0:0:
257,195,78434,1,0,0:0:0:0:
257,195,78621,1,8,0:0:0:0:
257,195,79184,1,12,0:0:0:0:
257,195,79559,1,0,0:0:0:0:
257,195,79746,1,8,0:0:0:0:
257,195,79840,1,8,0:0:0:0:
257,195,79934,1,8,0:0:0:0:
257,195,80121,1,0,0:0:0:0:
257,195,80309,1,8,0:0:0:0:
257,195,80684,1,8,0:0:0:0:
257,195,80871,1,0,0:0:0:0:
257,195,81059,1,12,0:0:0:0:
257,195,81246,1,8,0:0:0:0:
257,195,81434,1,8,0:0:0:0:
257,195,81621,1,0,0:0:0:0:
257,195,81809,1,8,0:0:0:0:
257,195,82184,1,0,0:0:0:0:
257,195,82277,1,0,0:0:0:0:
257,195,82371,1,0,0:0:0:0:
257,195,82559,1,0,0:0:0:0:
257,195,82746,1,8,0:0:0:0:
257,195,82934,1,8,0:0:0:0:
257,195,83121,1,0,0:0:0:0:
257,195,83496,1,8,0:0:0:0:
257,195,83590,1,8,0:0:0:0:
257,195,83684,1,8,0:0:0:0:
257,195,83871,1,0,0:0:0:0:
257,195,84059,1,8,0:0:0:0:
257,195,84809,1,0,0:0:0:0:
257,195,84996,1,8,0:0:0:0:
257,195,85184,1,4,0:0:0:0:
257,195,85559,1,8,0:0:0:0:
257,195,85652,1,8,0:0:0:0:
257,195,85746,1,8,0:0:0:0:
257,195,85934,1,0,0:0:0:0:
257,195,86121,1,8,0:0:0:0:
257,195,86309,1,8,0:0:0:0:
257,195,86496,1,0,0:0:0:0:
257,195,86684,1,8,0:0:0:0:
257,195,87059,1,8,0:0:0:0:
257,195,87152,1,8,0:0:0:0:
257,195,87246,1,8,0:0:0:0:
257,195,87434,1,0,0:0:0:0:
257,195,87621,1,8,0:0:0:0:
257,195,87809,1,8,0:0:0:0:
257,195,87996,1,0,0:0:0:0:
257,195,88184,1,8,0:0:0:0:
257,195,88559,1,8,0:0:0:0:
257,195,88652,1,8,0:0:0:0:
257,195,88746,1,8,0:0:0:0:
257,195,88934,1,0,0:0:0:0:
257,195,89121,1,8,0:0:0:0:
257,195,89496,1,0,0:0:0:0:
257,195,89684,1,8,0:0:0:0:
257,195,89777,1,8,0:0:0:0:
257,195,89871,1,8,0:0:0:0:
257,195,90059,1,8,0:0:0:0:
257,195,90246,1,0,0:0:0:0:
257,195,90809,1,0,0:0:0:0:
257,195,90996,1,0,0:0:0:0:
257,195,91184,1,8,0:0:0:0:
257,195,91559,1,8,0:0:0:0:
257,195,91652,1,8,0:0:0:0:
257,195,91746,1,8,0:0:0:0:
257,195,91934,1,8,0:0:0:0:
257,195,92121,1,8,0:0:0:0:
257,195,92309,1,0,0:0:0:0:
257,195,92496,1,0,0:0:0:0:
257,195,92684,1,8,0:0:0:0:
257,195,93059,1,8,0:0:0:0:
257,195,93152,1,8,0:0:0:0:
257,195,93246,1,8,0:0:0:0:
257,195,93621,1,0,0:0:0:0:
257,195,93809,1,8,0:0:0:0:
257,195,93996,1,0,0:0:0:0:
257,195,94184,1,12,0:0:0:0:
257,195,94371,1,12,0:0:0:0:
257,195,94746,1,12,0:0:0:0:
257,195,94934,1,12,0:0:0:0:
257,195,95309,1,12,0:0:0:0:
257,195,95496,1,12,0:0:0:0:
257,195,95871,1,12,0:0:0:0:
257,195,96059,1,12,0:0:0:0:
257,195,96246,1,0,0:0:0:0:
257,195,96340,1,0,0:0:0:0:
257,195,96434,1,0,0:0:0:0:
257,195,96621,1,8,0:0:0:0:
257,195,96809,1,12,0:0:0:0:
257,195,96996,1,4,0:0:0:0:
256,192,97184,12,8,101684,0:0:0:0:
