osu file format v14

[General]
AudioFilename: audio.mp3
AudioLeadIn: 0
PreviewTime: 57246
Countdown: 0
SampleSet: Normal
StackLeniency: 0.7
Mode: 1
LetterboxInBreaks: 0
WidescreenStoryboard: 1

[Editor]
DistanceSpacing: 1.4
BeatDivisor: 4
GridSize: 32
TimelineZoom: 2.5

[Metadata]
Title:Precious Wing (Movie ver)
TitleUnicode:Precious Wing (Movie ver)
Artist:Chata
ArtistUnicode:茶太
Creator:Asa Kazato
Version:Kantan
Source:この大空に、翼をひろげて
Tags:If my Heart had Wings konozora konosora Kono Oozora Ni Tsubasa Wo Hirogete moenovel eroge visual novel movie short version japanese jpop j-pop pop video game Nytrioum CoEqual Will-282CD PULLTOP WillPlus Kenichi Okuma 大熊謙一 Minao Ohse 逢瀬 水織
BeatmapID:2533249
BeatmapSetID:1216732

[Difficulty]
HPDrainRate:9
CircleSize:2
OverallDifficulty:2.5
ApproachRate:5
SliderMultiplier:1.4
SliderTickRate:1

[Events]
//Background and Video events
0,0,"Kazato Asa.jpg",0,0
//Break Periods
//Storyboard Layer 0 (Background)
//Storyboard Layer 1 (Fail)
//Storyboard Layer 2 (Pass)
//Storyboard Layer 3 (Foreground)
//Storyboard Layer 4 (Overlay)
//Storyboard Sound Samples

[TimingPoints]
5309,375,4,1,0,80,1,8
5309,-100,4,1,0,80,0,0
5684,375,4,1,0,80,1,1
5684,-100,4,1,0,90,0,1
20684,375,4,1,0,90,1,1
20684,-100,4,1,0,80,0,0
58184,375,4,1,0,90,1,1
58184,-100,4,1,0,90,0,1
84246,-100,4,1,0,80,0,0
85184,375,4,1,0,90,1,1
85184,-100,4,1,0,90,0,1
96996,-100,4,1,0,80,0,0

[HitObjects]
256,193,5309,5,0,0:0:0:0:
256,193,5684,1,12,0:0:0:0:
256,193,6434,1,0,0:0:0:0:
256,193,6809,1,8,0:0:0:0:
256,193,7184,1,0,0:0:0:0:
256,193,7746,1,8,0:0:0:0:
256,193,8121,1,8,0:0:0:0:
256,193,8684,1,0,0:0:0:0:
256,193,9246,1,8,0:0:0:0:
256,193,10559,1,0,0:0:0:0:
256,193,10934,1,12,0:0:0:0:
256,193,11684,1,4,0:0:0:0:
256,193,12434,1,0,0:0:0:0:
256,193,12809,1,0,0:0:0:0:
256,193,13184,1,12,0:0:0:0:
256,193,13934,1,0,0:0:0:0:
256,193,14684,1,12,0:0:0:0:
256,193,15809,1,8,0:0:0:0:
256,193,16184,1,0,0:0:0:0:
256,193,16746,1,0,0:0:0:0:
256,193,17121,1,0,0:1:0:0:
256,193,17684,1,0,0:0:0:0:
256,193,18246,1,8,0:0:0:0:
256,193,18621,1,8,0:0:0:0:
256,193,18996,1,0,0:0:0:0:
256,193,19559,1,0,0:0:0:0:
256,193,20684,1,12,0:0:0:0:
256,193,21434,1,0,0:0:0:0:
256,193,22184,1,8,0:0:0:0:
256,193,22746,1,8,0:0:0:0:
256,193,23309,1,0,0:0:0:0:
256,193,23684,1,8,0:0:0:0:
256,193,24809,1,0,0:0:0:0:
256,193,25184,1,0,0:0:0:0:
256,193,25746,1,8,0:0:0:0:
256,193,26309,1,8,0:0:0:0:
256,193,26684,1,0,0:0:0:0:
256,193,27434,1,8,0:0:0:0:
256,193,28184,1,0,0:0:0:0:
256,193,28746,1,8,0:0:0:0:
256,193,29309,1,0,0:0:0:0:
256,193,29684,1,8,0:0:0:0:
256,193,30434,1,0,0:0:0:0:
256,193,30996,1,8,0:0:0:0:
256,193,31746,1,8,0:0:0:0:
256,193,32309,1,8,0:0:0:0:
256,193,32684,1,0,0:0:0:0:
256,193,33434,1,8,0:0:0:0:
256,193,34184,1,0,0:0:0:0:
256,193,34746,1,8,0:0:0:0:
256,193,35309,1,8,0:0:0:0:
256,193,35684,1,0,0:0:0:0:
256,193,36809,1,0,0:0:0:0:
256,193,37184,1,0,0:0:0:0:
256,193,37746,1,8,0:0:0:0:
256,193,38309,1,8,0:0:0:0:
256,193,38684,1,0,0:0:0:0:
256,193,39434,1,0,0:0:0:0:
256,193,39809,1,0,0:0:0:0:
256,193,40184,1,8,0:0:0:0:
256,193,40746,1,0,0:0:0:0:
256,193,41496,1,8,0:0:0:0:
256,193,42059,1,12,0:0:0:0:
256,193,42809,1,12,0:0:0:0:
256,193,43559,1,0,0:0:0:0:
256,193,43934,1,0,0:0:0:0:
256,193,44309,1,8,0:0:0:0:
256,193,44684,1,12,0:0:0:0:
256,193,45809,1,0,0:0:0:0:
256,193,46184,1,8,0:0:0:0:
256,193,46746,1,8,0:0:0:0:
256,193,47121,1,8,0:0:0:0:
256,193,47684,1,0,0:0:0:0:
256,193,48246,1,8,0:0:0:0:
256,193,49184,1,0,0:0:0:0:
256,193,49746,1,8,0:0:0:0:
256,193,50309,1,0,0:0:0:0:
256,193,50684,1,12,0:0:0:0:
256,193,51246,1,0,0:0:0:0:
256,193,51621,1,0,0:0:0:0:
256,193,52184,1,8,0:0:0:0:
256,193,52746,1,0,0:0:0:0:
256,193,53309,1,8,0:0:0:0:
256,193,53684,1,4,0:0:0:0:
256,193,54246,1,4,0:0:0:0:
256,193,54809,1,12,0:0:0:0:
255,193,56684,1,0,0:0:0:0:
255,193,57434,1,8,0:0:0:0:
255,193,57809,1,0,0:0:0:0:
255,193,58184,1,12,0:0:0:0:
255,193,58934,1,0,0:0:0:0:
255,193,59496,1,8,0:0:0:0:
255,193,60434,1,8,0:0:0:0:
255,193,60809,1,0,0:0:0:0:
255,193,61184,1,8,0:0:0:0:
255,193,61934,1,0,0:0:0:0:
255,193,62496,1,8,0:0:0:0:
255,193,63434,1,0,0:0:0:0:
255,193,63809,1,8,0:0:0:0:
255,193,64184,1,12,0:0:0:0:
255,193,64934,1,8,0:0:0:0:
255,193,65496,1,0,0:0:0:0:
255,193,66434,1,8,0:0:0:0:
255,193,66809,1,0,0:0:0:0:
255,193,67184,1,12,0:0:0:0:
255,193,67746,1,12,0:0:0:0:
255,193,68121,1,12,0:0:0:0:
255,193,68496,1,12,0:0:0:0:
255,193,69434,1,8,0:0:0:0:
255,193,69809,1,0,0:0:0:0:
255,193,70184,1,12,0:0:0:0:
255,193,70934,1,8,0:0:0:0:
255,193,71496,1,8,0:0:0:0:
255,193,72434,1,0,0:0:0:0:
255,193,72809,1,8,0:0:0:0:
255,193,73184,1,0,0:0:0:0:
255,193,73934,1,8,0:0:0:0:
255,193,74496,1,8,0:0:0:0:
255,193,75434,1,8,0:0:0:0:
255,193,75809,1,0,0:0:0:0:
255,193,76184,1,12,0:0:0:0:
255,193,76934,1,0,0:0:0:0:
255,193,77684,1,12,0:0:0:0:
255,193,78434,1,8,0:0:0:0:
255,193,78809,1,0,0:0:0:0:
255,193,79184,1,12,0:0:0:0:
255,193,79934,1,0,0:0:0:0:
255,193,80684,1,8,0:0:0:0:
255,193,81059,1,12,0:0:0:0:
255,193,81434,1,0,0:0:0:0:
255,193,81809,1,0,0:0:0:0:
255,193,82184,1,8,0:0:0:0:
255,193,82746,1,0,0:0:0:0:
255,193,83121,1,0,0:0:0:0:
255,193,83496,1,8,0:0:0:0:
255,193,84059,1,8,0:0:0:0:
255,193,85184,1,12,0:0:0:0:
255,193,85746,1,0,0:0:0:0:
255,193,86121,1,0,0:0:0:0:
255,193,86684,1,8,0:0:0:0:
255,193,87246,1,8,0:0:0:0:
255,193,87621,1,8,0:0:0:0:
255,193,88184,1,0,0:0:0:0:
255,193,88746,1,8,0:0:0:0:
255,193,89121,1,8,0:0:0:0:
255,193,89684,1,0,0:0:0:0:
255,193,91184,1,8,0:0:0:0:
255,193,91746,1,8,0:0:0:0:
255,193,92121,1,0,0:0:0:0:
255,193,92684,1,0,0:0:0:0:
255,193,93246,1,8,0:0:0:0:
255,193,93621,1,0,0:0:0:0:
255,193,94184,1,8,0:0:0:0:
255,193,94746,1,8,0:0:0:0:
255,193,95309,1,8,0:0:0:0:
255,193,95871,1,8,0:0:0:0:
255,193,96434,1,12,0:0:0:0:
255,193,96996,1,4,0:0:0:0:
256,192,97184,12,0,101684,0:0:0:0:
