osu file format v14

[General]
AudioFilename: audio.mp3
AudioLeadIn: 0
PreviewTime: 57246
Countdown: 0
SampleSet: Normal
StackLeniency: 0.7
Mode: 1
LetterboxInBreaks: 0
WidescreenStoryboard: 1

[Editor]
DistanceSpacing: 1.4
BeatDivisor: 4
GridSize: 32
TimelineZoom: 3.199999

[Metadata]
Title:Precious Wing (Movie ver)
TitleUnicode:Precious Wing (Movie ver)
Artist:Chata
ArtistUnicode:茶太
Creator:Asa Kazato
Version:Inner Oni
Source:この大空に、翼をひろげて
Tags:If my Heart had Wings konozora konosora Kono Oozora Ni Tsubasa Wo Hirogete moenovel eroge visual novel movie short version japanese jpop j-pop pop video game Nytrioum CoEqual Will-282CD PULLTOP WillPlus Kenichi Okuma 大熊謙一 Minao Ohse 逢瀬 水織
BeatmapID:3521474
BeatmapSetID:1216732

[Difficulty]
HPDrainRate:5
CircleSize:2
OverallDifficulty:5.5
ApproachRate:4
SliderMultiplier:1.4
SliderTickRate:1

[Events]
//Background and Video events
0,0,"Kazato Asa.jpg",0,0
//Break Periods
//Storyboard Layer 0 (Background)
//Storyboard Layer 1 (Fail)
//Storyboard Layer 2 (Pass)
//Storyboard Layer 3 (Foreground)
//Storyboard Layer 4 (Overlay)
//Storyboard Sound Samples

[TimingPoints]
5309,375,4,1,0,80,1,8
5309,-90.9090909090909,4,1,0,80,0,0
5684,375,4,1,0,80,1,1
5684,-90.9090909090909,4,1,0,90,0,1
17684,-83.3333333333333,4,1,0,95,0,1
17777,-84.0336134453781,4,1,0,95,0,1
17871,-84.7457627118644,4,1,0,95,0,1
17965,-85.4700854700855,4,1,0,95,0,1
18059,-86.2068965517241,4,1,0,95,0,1
18246,-86.9565217391304,4,1,0,95,0,1
18340,-87.719298245614,4,1,0,95,0,1
18434,-88.4955752212389,4,1,0,95,0,1
18621,-89.2857142857143,4,1,0,95,0,1
18809,-90.0900900900901,4,1,0,95,0,1
18996,-90.9090909090909,4,1,0,95,0,1
19090,-91.743119266055,4,1,0,95,0,1
19184,-92.5925925925926,4,1,0,95,0,1
19371,-93.4579439252336,4,1,0,95,0,1
19559,-94.3396226415094,4,1,0,95,0,1
19934,-95.2380952380952,4,1,0,95,0,1
20027,-94.3396226415094,4,1,0,95,0,1
20121,-93.4579439252336,4,1,0,95,0,1
20215,-92.5925925925926,4,1,0,95,0,1
20309,-91.743119266055,4,1,0,95,0,1
20496,-90.9090909090909,4,1,0,95,0,1
20684,375,4,1,0,90,1,1
20684,-95.2380952380952,4,1,0,80,0,0
21059,-105.263157894737,4,1,0,80,0,0
30996,-83.3333333333333,4,1,0,85,0,0
31090,-84.0336134453781,4,1,0,85,0,0
31184,-85.4700854700855,4,1,0,85,0,0
31371,-86.2068965517241,4,1,0,85,0,0
31559,-86.9565217391304,4,1,0,85,0,0
31746,-87.719298245614,4,1,0,85,0,0
31934,-88.4955752212389,4,1,0,85,0,0
32027,-89.2857142857143,4,1,0,85,0,0
32121,-90.0900900900901,4,1,0,85,0,0
32309,-90.9090909090909,4,1,0,85,0,0
32496,-95.2380952380952,4,1,0,85,0,0
32684,-100,4,1,0,85,0,0
33059,-105.263157894737,4,1,0,80,0,0
43371,-86.9565217391304,4,1,0,85,0,0
43465,-87.719298245614,4,1,0,85,0,0
43559,-88.4955752212389,4,1,0,85,0,0
43746,-89.2857142857143,4,1,0,85,0,0
43934,-90.0900900900901,4,1,0,85,0,0
44027,-90.9090909090909,4,1,0,85,0,0
44121,-91.743119266055,4,1,0,85,0,0
44215,-92.5925925925926,4,1,0,85,0,0
44309,-93.4579439252336,4,1,0,85,0,0
44496,-94.3396226415094,4,1,0,85,0,0
44684,-95.2380952380952,4,1,0,85,0,0
45059,-100,4,1,0,80,0,0
48996,-86.9565217391304,4,1,0,85,0,0
49090,-87.719298245614,4,1,0,85,0,0
49184,-88.4955752212389,4,1,0,85,0,0
49371,-89.2857142857143,4,1,0,85,0,0
49465,-90.9090909090909,4,1,0,85,0,0
49559,-91.743119266055,4,1,0,85,0,0
49746,-92.5925925925926,4,1,0,85,0,0
49934,-93.4579439252336,4,1,0,85,0,0
50027,-94.3396226415094,4,1,0,85,0,0
50121,-95.2380952380952,4,1,0,85,0,0
50215,-96.1538461538461,4,1,0,85,0,0
50309,-97.0873786407767,4,1,0,85,0,0
50496,-98.0392156862745,4,1,0,85,0,0
50684,-99.009900990099,4,1,0,85,0,0
51059,-100,4,1,0,80,0,0
52559,-98.0392156862745,4,1,0,90,0,0
52746,-96.1538461538461,4,1,0,90,0,0
53121,-94.3396226415094,4,1,0,90,0,0
53215,-92.5925925925926,4,1,0,90,0,0
53309,-90.9090909090909,4,1,0,90,0,0
53684,-90.9090909090909,4,1,0,95,0,0
55184,-100,4,1,0,90,0,0
57059,-90.9090909090909,4,1,0,95,0,0
58184,375,4,1,0,90,1,1
58184,-90.9090909090909,4,1,0,90,0,1
67184,-83.3333333333333,4,1,0,90,0,1
69434,-83.3333333333333,4,1,0,86,0,1
69527,-84.7457627118644,4,1,0,85,0,1
69621,-86.2068965517241,4,1,0,84,0,1
69715,-87.719298245614,4,1,0,83,0,1
69809,-87.719298245614,4,1,0,83,0,1
69996,-89.2857142857143,4,1,0,83,0,1
70184,-90.9090909090909,4,1,0,83,0,1
84246,-90.9090909090909,4,1,0,80,0,0
85184,375,4,1,0,90,1,1
85184,-90.9090909090909,4,1,0,90,0,1
94184,-83.3333333333333,4,1,0,85,0,1
94371,-83.3333333333333,4,1,0,85,0,1
94746,-83.3333333333333,4,1,0,85,0,1
94934,-83.3333333333333,4,1,0,85,0,1
95309,-83.3333333333333,4,1,0,85,0,1
95496,-83.3333333333333,4,1,0,85,0,1
95871,-83.3333333333333,4,1,0,85,0,1
96059,-83.3333333333333,4,1,0,85,0,1
96246,-83.3333333333333,4,1,0,85,0,1
96996,-83.3333333333333,4,1,0,80,0,0

[HitObjects]
252,191,5309,5,8,0:0:0:0:
252,191,5402,1,0,0:0:0:0:
252,191,5496,1,0,0:0:0:0:
252,191,5684,1,12,0:0:0:0:
252,191,5871,1,0,0:0:0:0:
252,191,6059,1,8,0:0:0:0:
252,191,6246,1,8,0:0:0:0:
252,191,6434,1,0,0:0:0:0:
252,191,6621,1,0,0:0:0:0:
252,191,6809,1,8,0:0:0:0:
252,191,6996,1,0,0:0:0:0:
252,191,7090,1,0,0:0:0:0:
252,191,7184,1,8,0:0:0:0:
252,191,7371,1,0,0:0:0:0:
252,191,7559,1,8,0:0:0:0:
252,191,7652,1,8,0:0:0:0:
252,191,7746,1,0,0:0:0:0:
252,191,7934,1,0,0:0:0:0:
252,191,8121,1,0,0:0:0:0:
252,191,8215,1,0,0:0:0:0:
252,191,8309,1,8,0:0:0:0:
252,191,8496,1,0,0:0:0:0:
252,191,8590,1,8,0:0:0:0:
252,191,8684,1,0,0:0:0:0:
252,191,8871,1,0,0:0:0:0:
252,191,9059,1,8,0:0:0:0:
252,191,9152,1,0,0:0:0:0:
252,191,9246,1,8,0:0:0:0:
252,191,9340,1,8,0:0:0:0:
252,191,9434,1,0,0:0:0:0:
252,191,9621,1,0,0:0:0:0:
252,191,9809,1,8,0:0:0:0:
252,191,10184,1,0,0:0:0:0:
252,191,10371,1,0,0:0:0:0:
252,191,10559,1,8,0:0:0:0:
252,191,10746,1,0,0:0:0:0:
252,191,10934,1,8,0:0:0:0:
252,191,11027,1,8,0:0:0:0:
252,191,11121,1,0,0:0:0:0:
252,191,11215,1,0,0:0:0:0:
252,191,11309,1,8,0:0:0:0:
252,191,11496,1,0,0:0:0:0:
252,191,11590,1,0,0:0:0:0:
252,191,11684,1,12,0:0:0:0:
252,191,12059,1,8,0:0:0:0:
252,191,12246,1,0,0:0:0:0:
252,191,12340,1,0,0:0:0:0:
252,191,12434,1,8,0:0:0:0:
252,191,12621,1,0,0:0:0:0:
252,191,12809,1,8,0:0:0:0:
252,191,12902,1,8,0:0:0:0:
252,191,12996,1,0,0:0:0:0:
252,191,13184,1,12,0:0:0:0:
252,191,13559,1,8,0:0:0:0:
252,191,13746,1,0,0:0:0:0:
252,191,13934,1,8,0:0:0:0:
252,191,14027,1,8,0:0:0:0:
252,191,14121,1,8,0:0:0:0:
252,191,14215,1,8,0:0:0:0:
252,191,14309,1,0,0:0:0:0:
252,191,14496,1,0,0:0:0:0:
252,191,14684,1,12,0:0:0:0:
252,191,15059,1,8,0:0:0:0:
252,191,15246,1,0,0:0:0:0:
252,191,15434,1,0,0:0:0:0:
252,191,15621,1,8,0:0:0:0:
252,191,15809,1,0,0:0:0:0:
252,191,15902,1,0,0:0:0:0:
252,191,15996,1,8,0:0:0:0:
252,191,16090,1,8,0:0:0:0:
252,191,16184,1,0,0:0:0:0:
252,191,16371,1,8,0:0:0:0:
252,191,16465,1,8,0:0:0:0:
252,191,16559,1,0,0:0:0:0:
252,191,16746,1,8,0:0:0:0:
252,191,16934,1,0,0:0:0:0:
252,191,17121,1,0,0:0:0:0:
252,191,17309,1,8,0:0:0:0:
252,191,17684,1,8,0:0:0:0:
252,191,17778,1,8,0:0:0:0:
252,191,17872,1,0,0:0:0:0:
252,191,17966,1,0,0:0:0:0:
252,191,18059,1,8,0:0:0:0:
252,191,18246,1,0,0:0:0:0:
252,191,18340,1,0,0:0:0:0:
252,191,18434,1,8,0:0:0:0:
252,191,18621,1,0,0:0:0:0:
252,191,18809,1,8,0:0:0:0:
252,191,18996,1,8,0:0:0:0:
252,191,19090,1,8,0:0:0:0:
252,191,19184,1,0,0:0:0:0:
252,191,19371,1,8,0:0:0:0:
252,191,19559,1,0,0:0:0:0:
252,191,19934,1,0,0:0:0:0:
252,191,20027,1,0,0:0:0:0:
252,191,20121,1,8,0:0:0:0:
252,191,20215,1,8,0:0:0:0:
252,191,20309,1,8,0:0:0:0:
252,191,20496,1,0,0:0:0:0:
252,191,20684,1,12,0:0:0:0:
252,191,21059,1,8,0:0:0:0:
252,191,21152,1,8,0:0:0:0:
252,191,21246,1,0,0:0:0:0:
252,191,21434,1,0,0:0:0:0:
252,191,21621,1,8,0:0:0:0:
252,191,21809,1,8,0:0:0:0:
252,191,21996,1,0,0:0:0:0:
252,191,22184,1,8,0:0:0:0:
252,191,22559,1,8,0:0:0:0:
252,191,22746,1,8,0:0:0:0:
252,191,22934,1,0,0:0:0:0:
252,191,23121,1,8,0:0:0:0:
252,191,23309,1,8,0:0:0:0:
252,191,23496,1,0,0:0:0:0:
252,191,23684,1,8,0:0:0:0:
252,191,23871,1,8,0:0:0:0:
252,191,23965,1,8,0:0:0:0:
252,191,24059,1,0,0:0:0:0:
252,191,24246,1,8,0:0:0:0:
252,191,24621,1,8,0:0:0:0:
252,191,24809,1,8,0:0:0:0:
252,191,24996,1,0,0:0:0:0:
252,191,25184,1,8,0:0:0:0:
252,191,25371,1,0,0:0:0:0:
252,191,25465,1,0,0:0:0:0:
252,191,25559,1,8,0:0:0:0:
252,191,25746,1,8,0:0:0:0:
252,191,25934,1,0,0:0:0:0:
252,191,26121,1,8,0:0:0:0:
252,191,26309,1,0,0:0:0:0:
252,191,26497,1,0,0:0:0:0:
252,191,26684,1,8,0:0:0:0:
252,191,27059,1,0,0:0:0:0:
252,191,27152,1,0,0:0:0:0:
252,191,27246,1,8,0:0:0:0:
252,191,27434,1,0,0:0:0:0:
252,191,27621,1,0,0:0:0:0:
252,191,27809,1,8,0:0:0:0:
252,191,27996,1,0,0:0:0:0:
252,191,28184,1,8,0:0:0:0:
252,191,28559,1,8,0:0:0:0:
252,191,28652,1,0,0:0:0:0:
252,191,28746,1,8,0:0:0:0:
252,191,28934,1,0,0:0:0:0:
252,191,29121,1,8,0:0:0:0:
252,191,29309,1,8,0:0:0:0:
252,191,29496,1,0,0:0:0:0:
252,191,29684,1,0,0:0:0:0:
252,191,29871,1,8,0:0:0:0:
252,191,30059,1,0,0:0:0:0:
252,191,30152,1,0,0:0:0:0:
252,191,30246,1,8,0:0:0:0:
252,191,30434,1,0,0:0:0:0:
252,191,30621,1,8,0:0:0:0:
252,191,30809,1,0,0:0:0:0:
252,191,30996,1,8,0:0:0:0:
252,191,31090,1,8,0:0:0:0:
252,191,31184,1,8,0:0:0:0:
252,191,31371,1,0,0:0:0:0:
252,191,31559,1,8,0:0:0:0:
252,191,31746,1,0,0:0:0:0:
252,191,31934,1,8,0:0:0:0:
252,191,32027,1,8,0:0:0:0:
252,191,32121,1,0,0:0:0:0:
252,191,32309,1,8,0:0:0:0:
252,191,32496,1,0,0:0:0:0:
252,191,32684,1,8,0:0:0:0:
252,191,33059,1,0,0:0:0:0:
252,191,33152,1,0,0:0:0:0:
252,191,33246,1,8,0:0:0:0:
252,191,33434,1,0,0:0:0:0:
252,191,33621,1,8,0:0:0:0:
252,191,33715,1,8,0:0:0:0:
252,191,33809,1,8,0:0:0:0:
252,191,33996,1,0,0:0:0:0:
252,191,34184,1,8,0:0:0:0:
252,191,34559,1,0,0:0:0:0:
252,191,34652,1,0,0:0:0:0:
252,191,34746,1,8,0:0:0:0:
252,191,34934,1,0,0:0:0:0:
252,191,35121,1,8,0:0:0:0:
252,191,35309,1,0,0:0:0:0:
252,191,35496,1,0,0:0:0:0:
252,191,35684,1,8,0:0:0:0:
252,191,35871,1,0,0:0:0:0:
252,191,36059,1,0,0:0:0:0:
252,191,36152,1,0,0:0:0:0:
252,191,36246,1,8,0:0:0:0:
252,191,36621,1,0,0:0:0:0:
252,191,36809,1,0,0:0:0:0:
252,191,36996,1,0,0:0:0:0:
252,191,37184,1,8,0:0:0:0:
252,191,37371,1,0,0:0:0:0:
252,191,37559,1,0,0:0:0:0:
252,191,37652,1,0,0:0:0:0:
252,191,37746,1,8,0:0:0:0:
252,191,37934,1,0,0:0:0:0:
252,191,38121,1,8,0:0:0:0:
252,191,38309,1,0,0:0:0:0:
252,191,38496,1,0,0:0:0:0:
252,191,38684,1,8,0:0:0:0:
252,191,39059,1,0,0:0:0:0:
252,191,39152,1,0,0:0:0:0:
252,191,39246,1,8,0:0:0:0:
252,191,39434,1,0,0:0:0:0:
252,191,39621,1,8,0:0:0:0:
252,191,39809,1,0,0:0:0:0:
252,191,39996,1,0,0:0:0:0:
252,191,40184,1,8,0:0:0:0:
252,191,40559,1,8,0:0:0:0:
252,191,40652,1,0,0:0:0:0:
252,191,40746,1,8,0:0:0:0:
252,191,40934,1,0,0:0:0:0:
252,191,41121,1,8,0:0:0:0:
252,191,41309,1,0,0:0:0:0:
252,191,41496,1,0,0:0:0:0:
252,191,41590,1,8,0:0:0:0:
252,191,41684,1,0,0:0:0:0:
252,191,41871,1,0,0:0:0:0:
252,191,42059,1,12,0:0:0:0:
252,191,42434,1,0,0:0:0:0:
252,191,42621,1,0,0:0:0:0:
252,191,42809,1,12,0:0:0:0:
252,191,42996,1,4,0:0:0:0:
252,191,43371,1,8,0:0:0:0:
252,191,43465,1,8,0:0:0:0:
252,191,43559,1,0,0:0:0:0:
252,191,43746,1,8,0:0:0:0:
252,191,43934,1,0,0:0:0:0:
252,191,44027,1,0,0:0:0:0:
252,191,44121,1,0,0:0:0:0:
252,191,44215,1,0,0:0:0:0:
252,191,44309,1,8,0:0:0:0:
252,191,44496,1,0,0:0:0:0:
252,191,44684,1,12,0:0:0:0:
252,191,45059,1,0,0:0:0:0:
252,191,45246,1,8,0:0:0:0:
252,191,45340,1,8,0:0:0:0:
252,191,45434,1,0,0:0:0:0:
252,191,45621,1,0,0:0:0:0:
252,191,45809,1,8,0:0:0:0:
252,191,45996,1,0,0:0:0:0:
252,191,46090,1,0,0:0:0:0:
252,191,46184,1,8,0:0:0:0:
252,191,46371,1,0,0:0:0:0:
252,191,46559,1,8,0:0:0:0:
252,191,46652,1,0,0:0:0:0:
252,191,46746,1,8,0:0:0:0:
252,191,46934,1,0,0:0:0:0:
252,191,47121,1,8,0:0:0:0:
252,191,47309,1,0,0:0:0:0:
252,191,47496,1,8,0:0:0:0:
252,191,47590,1,8,0:0:0:0:
252,191,47684,1,0,0:0:0:0:
252,191,48059,1,0,0:0:0:0:
252,191,48246,1,8,0:0:0:0:
252,191,48621,1,0,0:0:0:0:
252,191,48809,1,8,0:0:0:0:
252,191,48996,1,8,0:0:0:0:
252,191,49090,1,8,0:0:0:0:
252,191,49184,1,0,0:0:0:0:
252,191,49371,1,0,0:0:0:0:
252,191,49465,1,8,0:0:0:0:
252,191,49559,1,0,0:0:0:0:
252,191,49746,1,8,0:0:0:0:
252,191,49934,1,8,0:0:0:0:
252,191,50027,1,8,0:0:0:0:
252,191,50121,1,0,0:0:0:0:
252,191,50215,1,0,0:0:0:0:
252,191,50309,1,8,0:0:0:0:
252,191,50496,1,0,0:0:0:0:
252,191,50684,1,12,0:0:0:0:
252,191,51059,1,0,0:0:0:0:
252,191,51246,1,8,0:0:0:0:
252,191,51434,1,0,0:0:0:0:
252,191,51621,1,0,0:0:0:0:
252,191,51809,1,8,0:0:0:0:
252,191,51996,1,0,0:0:0:0:
252,191,52090,1,0,0:0:0:0:
252,191,52184,1,8,0:0:0:0:
252,191,52559,1,8,0:0:0:0:
252,191,52746,1,0,0:0:0:0:
252,191,52934,1,8,0:0:0:0:
252,191,53121,1,0,0:0:0:0:
252,191,53215,1,0,0:0:0:0:
252,191,53309,1,8,0:0:0:0:
252,191,53684,1,12,0:0:0:0:
252,191,53871,1,0,0:0:0:0:
252,191,54059,1,0,0:0:0:0:
252,191,54246,1,12,0:0:0:0:
252,191,54434,1,0,0:0:0:0:
252,191,54621,1,0,0:0:0:0:
252,191,54809,1,12,0:0:0:0:
252,191,55184,1,0,0:0:0:0:
252,191,55371,1,0,0:0:0:0:
252,191,55559,1,8,0:0:0:0:
252,191,55746,1,0,0:0:0:0:
252,191,55934,1,0,0:0:0:0:
252,191,56027,1,0,0:0:0:0:
252,191,56121,1,8,0:0:0:0:
252,191,56215,1,8,0:0:0:0:
252,191,56309,1,0,0:0:0:0:
252,191,56402,1,0,0:0:0:0:
252,191,56496,1,8,0:0:0:0:
252,191,56590,1,8,0:0:0:0:
252,191,56684,1,0,0:0:0:0:
252,191,57059,1,8,0:0:0:0:
252,191,57152,1,8,0:0:0:0:
252,191,57246,1,0,0:0:0:0:
252,191,57340,1,0,0:0:0:0:
252,191,57434,1,0,0:0:0:0:
252,191,57527,1,0,0:0:0:0:
252,191,57621,1,8,0:0:0:0:
252,191,57715,1,8,0:0:0:0:
252,191,57809,1,0,0:0:0:0:
252,191,57902,1,0,0:0:0:0:
252,191,57996,1,8,0:0:0:0:
252,191,58184,1,12,0:0:0:0:
252,191,58371,1,0,0:0:0:0:
252,191,58559,1,0,0:0:0:0:
252,191,58652,1,0,0:0:0:0:
252,191,58746,1,8,0:0:0:0:
252,191,58934,1,0,0:0:0:0:
252,191,59121,1,8,0:0:0:0:
252,191,59309,1,0,0:0:0:0:
252,191,59496,1,0,0:0:0:0:
252,191,59590,1,8,0:0:0:0:
252,191,59684,1,0,0:0:0:0:
252,191,59871,1,0,0:0:0:0:
252,191,60059,1,8,0:0:0:0:
252,191,60246,1,0,0:0:0:0:
252,191,60340,1,0,0:0:0:0:
252,191,60434,1,8,0:0:0:0:
252,191,60621,1,8,0:0:0:0:
252,191,60809,1,0,0:0:0:0:
252,191,60902,1,0,0:0:0:0:
252,191,60996,1,8,0:0:0:0:
252,191,61090,1,8,0:0:0:0:
252,191,61184,1,0,0:0:0:0:
252,191,61371,1,8,0:0:0:0:
252,191,61559,1,8,0:0:0:0:
252,191,61652,1,8,0:0:0:0:
252,191,61746,1,8,0:0:0:0:
252,191,61934,1,0,0:0:0:0:
252,191,62121,1,8,0:0:0:0:
252,191,62309,1,8,0:0:0:0:
252,191,62496,1,8,0:0:0:0:
252,191,62590,1,8,0:0:0:0:
252,191,62684,1,0,0:0:0:0:
252,191,62871,1,0,0:0:0:0:
252,191,63059,1,8,0:0:0:0:
252,191,63246,1,0,0:0:0:0:
252,191,63340,1,0,0:0:0:0:
252,191,63434,1,8,0:0:0:0:
252,191,63621,1,0,0:0:0:0:
252,191,63809,1,8,0:0:0:0:
252,191,63996,1,0,0:0:0:0:
252,191,64184,1,12,0:0:0:0:
252,191,64372,1,0,0:0:0:0:
252,191,64466,1,0,0:0:0:0:
252,191,64559,1,8,0:0:0:0:
252,191,64746,1,8,0:0:0:0:
252,191,64934,1,8,0:0:0:0:
252,191,65121,1,0,0:0:0:0:
252,191,65215,1,0,0:0:0:0:
252,191,65309,1,8,0:0:0:0:
252,191,65402,1,8,0:0:0:0:
252,191,65496,1,8,0:0:0:0:
252,191,65684,1,0,0:0:0:0:
252,191,65871,1,0,0:0:0:0:
252,191,65965,1,0,0:0:0:0:
252,191,66059,1,8,0:0:0:0:
252,191,66246,1,0,0:0:0:0:
252,191,66434,1,8,0:0:0:0:
252,191,66527,1,0,0:0:0:0:
252,191,66621,1,0,0:0:0:0:
252,191,66715,1,0,0:0:0:0:
252,191,66809,1,8,0:0:0:0:
252,191,66996,1,0,0:0:0:0:
252,191,67184,1,12,0:0:0:0:
252,191,67371,1,0,0:0:0:0:
252,191,67559,1,0,0:0:0:0:
252,191,67746,1,12,0:0:0:0:
252,191,67934,1,0,0:0:0:0:
252,191,68121,1,12,0:0:0:0:
252,191,68309,1,0,0:0:0:0:
252,191,68496,1,12,0:0:0:0:
252,191,68871,1,8,0:0:0:0:
252,191,69059,1,0,0:0:0:0:
252,191,69246,1,8,0:0:0:0:
252,191,69434,1,0,0:0:0:0:
252,191,69527,1,0,0:0:0:0:
252,191,69621,1,0,0:0:0:0:
252,191,69715,1,0,0:0:0:0:
252,191,69809,1,8,0:0:0:0:
252,191,69996,1,0,0:0:0:0:
252,191,70184,1,4,0:0:0:0:
252,191,70371,1,8,0:0:0:0:
252,191,70559,1,8,0:0:0:0:
252,191,70652,1,8,0:0:0:0:
252,191,70746,1,0,0:0:0:0:
252,191,70934,1,8,0:0:0:0:
252,191,71121,1,0,0:0:0:0:
252,191,71215,1,8,0:0:0:0:
252,191,71309,1,8,0:0:0:0:
252,191,71402,1,8,0:0:0:0:
252,191,71496,1,0,0:0:0:0:
252,191,71684,1,8,0:0:0:0:
252,191,71871,1,0,0:0:0:0:
252,191,72059,1,8,0:0:0:0:
252,191,72152,1,8,0:0:0:0:
252,191,72246,1,8,0:0:0:0:
252,191,72434,1,8,0:0:0:0:
252,191,72621,1,0,0:0:0:0:
252,191,72715,1,0,0:0:0:0:
252,191,72809,1,8,0:0:0:0:
252,191,72996,1,0,0:0:0:0:
252,191,73184,1,8,0:0:0:0:
252,191,73277,1,8,0:0:0:0:
252,191,73371,1,8,0:0:0:0:
252,191,73465,1,8,0:0:0:0:
252,191,73559,1,0,0:0:0:0:
252,191,73746,1,0,0:0:0:0:
252,191,73934,1,8,0:0:0:0:
252,191,74027,1,8,0:0:0:0:
252,191,74121,1,8,0:0:0:0:
252,191,74215,1,8,0:0:0:0:
252,191,74309,1,0,0:0:0:0:
252,191,74496,1,0,0:0:0:0:
252,191,74590,1,0,0:0:0:0:
252,191,74684,1,8,0:0:0:0:
252,191,74871,1,0,0:0:0:0:
252,191,75059,1,8,0:0:0:0:
252,191,75434,1,8,0:0:0:0:
252,191,75621,1,0,0:0:0:0:
252,191,75715,1,0,0:0:0:0:
252,191,75809,1,8,0:0:0:0:
252,191,75996,1,8,0:0:0:0:
252,191,76184,1,4,0:0:0:0:
252,191,76371,1,8,0:0:0:0:
252,191,76559,1,8,0:0:0:0:
252,191,76652,1,8,0:0:0:0:
252,191,76746,1,0,0:0:0:0:
252,191,76840,1,0,0:0:0:0:
252,191,76934,1,8,0:0:0:0:
252,191,77121,1,8,0:0:0:0:
252,191,77309,1,8,0:0:0:0:
252,191,77402,1,8,0:0:0:0:
252,191,77496,1,0,0:0:0:0:
252,191,77684,1,12,0:0:0:0:
252,191,77871,1,0,0:0:0:0:
252,191,78059,1,8,0:0:0:0:
252,191,78434,1,8,0:0:0:0:
252,191,78621,1,0,0:0:0:0:
252,191,78715,1,0,0:0:0:0:
252,191,78809,1,8,0:0:0:0:
252,191,78996,1,8,0:0:0:0:
252,191,79184,1,4,0:0:0:0:
252,191,79371,1,8,0:0:0:0:
252,191,79559,1,8,0:0:0:0:
252,191,79652,1,8,0:0:0:0:
252,191,79746,1,0,0:0:0:0:
252,191,79840,1,0,0:0:0:0:
252,191,79934,1,8,0:0:0:0:
252,191,80121,1,0,0:0:0:0:
252,191,80309,1,8,0:0:0:0:
252,191,80402,1,0,0:0:0:0:
252,191,80496,1,0,0:0:0:0:
252,191,80590,1,8,0:0:0:0:
252,191,80684,1,8,0:0:0:0:
252,191,80871,1,0,0:0:0:0:
252,191,81059,1,12,0:0:0:0:
252,191,81246,1,0,0:0:0:0:
252,191,81434,1,8,0:0:0:0:
252,191,81621,1,0,0:0:0:0:
252,191,81809,1,8,0:0:0:0:
252,191,81902,1,8,0:0:0:0:
252,191,81996,1,0,0:0:0:0:
252,191,82090,1,0,0:0:0:0:
252,191,82184,1,8,0:0:0:0:
252,191,82371,1,8,0:0:0:0:
252,191,82559,1,0,0:0:0:0:
252,191,82746,1,8,0:0:0:0:
252,191,82934,1,8,0:0:0:0:
252,191,83121,1,0,0:0:0:0:
252,191,83215,1,0,0:0:0:0:
252,191,83309,1,8,0:0:0:0:
252,191,83402,1,0,0:0:0:0:
252,191,83496,1,8,0:0:0:0:
252,191,83871,1,0,0:0:0:0:
252,191,83965,1,0,0:0:0:0:
252,191,84059,1,8,0:0:0:0:
252,191,84434,1,8,0:0:0:0:
252,191,84527,1,8,0:0:0:0:
252,191,84621,1,8,0:0:0:0:
252,191,84715,1,8,0:0:0:0:
252,191,84809,1,8,0:0:0:0:
252,191,84996,1,0,0:0:0:0:
252,191,85184,1,12,0:0:0:0:
252,191,85371,1,0,0:0:0:0:
252,191,85559,1,8,0:0:0:0:
252,191,85746,1,0,0:0:0:0:
252,191,85840,1,0,0:0:0:0:
252,191,85934,1,0,0:0:0:0:
252,191,86027,1,0,0:0:0:0:
252,191,86121,1,8,0:0:0:0:
252,191,86309,1,8,0:0:0:0:
252,191,86496,1,0,0:0:0:0:
252,191,86590,1,0,0:0:0:0:
252,191,86684,1,8,0:0:0:0:
252,191,86871,1,0,0:0:0:0:
252,191,87059,1,8,0:0:0:0:
252,191,87246,1,0,0:0:0:0:
252,191,87340,1,0,0:0:0:0:
252,191,87434,1,0,0:0:0:0:
252,191,87527,1,0,0:0:0:0:
252,191,87621,1,8,0:0:0:0:
252,191,87809,1,8,0:0:0:0:
252,191,87996,1,0,0:0:0:0:
252,191,88090,1,0,0:0:0:0:
252,191,88184,1,8,0:0:0:0:
252,191,88371,1,8,0:0:0:0:
252,191,88559,1,0,0:0:0:0:
252,191,88746,1,0,0:0:0:0:
252,191,88840,1,0,0:0:0:0:
252,191,88934,1,0,0:0:0:0:
252,191,89027,1,0,0:0:0:0:
252,191,89121,1,8,0:0:0:0:
252,191,89309,1,8,0:0:0:0:
252,191,89496,1,0,0:0:0:0:
252,191,89684,1,0,0:0:0:0:
252,191,89777,1,8,0:0:0:0:
252,191,89871,1,8,0:0:0:0:
252,191,90059,1,8,0:0:0:0:
252,191,90246,1,0,0:0:0:0:
252,191,90434,1,8,0:0:0:0:
252,191,90527,1,8,0:0:0:0:
252,191,90621,1,0,0:0:0:0:
252,191,90809,1,0,0:0:0:0:
252,191,90996,1,0,0:0:0:0:
252,191,91090,1,0,0:0:0:0:
252,191,91184,1,8,0:0:0:0:
252,191,91371,1,0,0:0:0:0:
252,191,91559,1,8,0:0:0:0:
252,191,91746,1,0,0:0:0:0:
252,191,91840,1,0,0:0:0:0:
252,191,91934,1,0,0:0:0:0:
252,191,92027,1,0,0:0:0:0:
252,191,92121,1,8,0:0:0:0:
252,191,92309,1,0,0:0:0:0:
252,191,92496,1,8,0:0:0:0:
252,191,92590,1,0,0:0:0:0:
252,191,92684,1,8,0:0:0:0:
252,191,92871,1,0,0:0:0:0:
252,191,93059,1,8,0:0:0:0:
252,191,93152,1,0,0:0:0:0:
252,191,93246,1,8,0:0:0:0:
252,191,93340,1,8,0:0:0:0:
252,191,93434,1,0,0:0:0:0:
252,191,93621,1,0,0:0:0:0:
252,191,93809,1,8,0:0:0:0:
252,191,93996,1,0,0:0:0:0:
252,191,94184,1,12,0:0:0:0:
252,191,94371,1,12,0:0:0:0:
252,191,94746,1,12,0:0:0:0:
252,191,94934,1,12,0:0:0:0:
252,191,95309,1,12,0:0:0:0:
252,191,95496,1,12,0:0:0:0:
252,191,95871,1,12,0:0:0:0:
252,191,96059,1,12,0:0:0:0:
252,191,96246,1,0,0:0:0:0:
252,191,96340,1,0,0:0:0:0:
252,191,96434,1,8,0:0:0:0:
252,191,96527,1,8,0:0:0:0:
252,191,96621,1,0,0:0:0:0:
252,191,96715,1,0,0:0:0:0:
252,191,96809,1,8,0:0:0:0:
252,191,96996,1,4,0:0:0:0:
256,192,97184,12,8,101684,0:0:0:0:
