osu file format v14

[General]
AudioFilename: audio.mp3
AudioLeadIn: 0
PreviewTime: 57246
Countdown: 0
SampleSet: Normal
StackLeniency: 0.7
Mode: 1
LetterboxInBreaks: 0
WidescreenStoryboard: 0

[Editor]
DistanceSpacing: 1.4
BeatDivisor: 4
GridSize: 32
TimelineZoom: 3.299999

[Metadata]
Title:Precious Wing (Movie ver)
TitleUnicode:Precious Wing (Movie ver)
Artist:Chata
ArtistUnicode:茶太
Creator:Asa Kazato
Version:Futsuu
Source:この大空に、翼をひろげて
Tags:If my Heart had Wings konozora konosora Kono Oozora Ni Tsubasa Wo Hirogete moenovel eroge visual novel movie short version japanese jpop j-pop pop video game Nytrioum CoEqual Will-282CD PULLTOP WillPlus Kenichi Okuma 大熊謙一 Minao Ohse 逢瀬 水織
BeatmapID:2531714
BeatmapSetID:1216732

[Difficulty]
HPDrainRate:8
CircleSize:2
OverallDifficulty:3
ApproachRate:4
SliderMultiplier:1.4
SliderTickRate:1

[Events]
//Background and Video events
0,0,"Kazato Asa.jpg",0,0
//Break Periods
//Storyboard Layer 0 (Background)
//Storyboard Layer 1 (Fail)
//Storyboard Layer 2 (Pass)
//Storyboard Layer 3 (Foreground)
//Storyboard Layer 4 (Overlay)
//Storyboard Sound Samples

[TimingPoints]
5309,375,4,1,0,80,1,8
5309,-100,4,1,0,80,0,0
5684,375,4,1,0,80,1,1
5684,-100,4,1,0,90,0,1
20684,375,4,1,0,90,1,1
20684,-100,4,1,0,80,0,0
58184,375,4,1,0,90,1,1
58184,-100,4,1,0,90,0,1
84246,-100,4,1,0,80,0,0
85184,375,4,1,0,90,1,1
85184,-100,4,1,0,90,0,1
96996,-100,4,1,0,80,0,0

[HitObjects]
256,195,5309,5,0,0:0:0:0:
256,195,5496,1,0,0:0:0:0:
256,195,5684,1,12,0:0:0:0:
256,195,6059,1,0,0:0:0:0:
256,195,6434,1,0,0:0:0:0:
256,195,6809,1,8,0:0:0:0:
256,195,7184,1,0,0:0:0:0:
256,195,7559,1,8,0:0:0:0:
256,195,7746,1,8,0:0:0:0:
256,195,8121,1,0,0:0:0:0:
256,195,8496,1,8,0:0:0:0:
256,195,8684,1,0,0:0:0:0:
256,195,9246,1,8,0:0:0:0:
256,195,9809,1,0,0:0:0:0:
256,195,10184,1,0,0:0:0:0:
256,195,10371,1,0,0:0:0:0:
256,195,10559,1,8,0:0:0:0:
256,195,10934,1,4,0:0:0:0:
256,195,11309,1,8,0:0:0:0:
256,195,11496,1,8,0:0:0:0:
256,195,11684,1,4,0:0:0:0:
256,195,12434,1,0,0:0:0:0:
256,195,12809,1,8,0:0:0:0:
256,195,13184,1,4,0:0:0:0:
256,195,13934,1,8,0:0:0:0:
256,195,14121,1,8,0:0:0:0:
256,195,14309,1,0,0:0:0:0:
256,195,14684,1,12,0:0:0:0:
256,195,15434,1,0,0:0:0:0:
256,195,15809,1,8,0:0:0:0:
256,195,16184,1,0,0:0:0:0:
256,195,16934,1,0,0:0:0:0:
256,195,17121,1,0,0:0:0:0:
256,195,17309,1,8,0:0:0:0:
256,195,17684,1,8,0:0:0:0:
256,195,17871,1,0,0:0:0:0:
256,195,18059,1,0,0:0:0:0:
256,195,18246,1,8,0:0:0:0:
256,195,18621,1,0,0:0:0:0:
256,195,18996,1,8,0:0:0:0:
256,195,19371,1,8,0:0:0:0:
256,195,19559,1,0,0:0:0:0:
256,195,20684,1,12,0:0:0:0:
256,195,21434,1,0,0:0:0:0:
256,195,21809,1,0,0:0:0:0:
256,195,22184,1,8,0:0:0:0:
256,195,22559,1,8,0:0:0:0:
256,195,22746,1,8,0:0:0:0:
256,195,23121,1,8,0:0:0:0:
256,195,23309,1,0,0:0:0:0:
256,195,23684,1,8,0:0:0:0:
256,195,24059,1,0,0:0:0:0:
256,195,24246,1,8,0:0:0:0:
256,195,24809,1,0,0:0:0:0:
256,195,25184,1,8,0:0:0:0:
256,195,25559,1,0,0:0:0:0:
256,195,25746,1,8,0:0:0:0:
256,195,26309,1,8,0:0:0:0:
256,195,26684,1,8,0:0:0:0:
256,195,27434,1,8,0:0:0:0:
256,195,27809,1,0,0:0:0:0:
256,195,28184,1,8,0:0:0:0:
256,195,28559,1,8,0:0:0:0:
256,195,28746,1,0,0:0:0:0:
256,195,29121,1,0,0:0:0:0:
256,195,29309,1,8,0:0:0:0:
256,195,29684,1,8,0:0:0:0:
256,195,30434,1,8,0:0:0:0:
256,195,30996,1,0,0:0:0:0:
256,195,31184,1,8,0:0:0:0:
256,195,31559,1,8,0:0:0:0:
256,195,31746,1,0,0:0:0:0:
256,195,32121,1,0,0:0:0:0:
256,195,32309,1,0,0:0:0:0:
256,195,32496,1,8,0:0:0:0:
256,195,32684,1,0,0:0:0:0:
256,195,33434,1,8,0:0:0:0:
256,195,33809,1,0,0:0:0:0:
256,195,34184,1,8,0:0:0:0:
256,195,34559,1,8,0:0:0:0:
256,195,34746,1,0,0:0:0:0:
256,195,35121,1,8,0:0:0:0:
256,195,35309,1,0,0:0:0:0:
256,195,35684,1,8,0:0:0:0:
256,195,36059,1,0,0:0:0:0:
256,195,36246,1,8,0:0:0:0:
256,195,36809,1,0,0:0:0:0:
256,195,37184,1,8,0:0:0:0:
256,195,37559,1,0,0:0:0:0:
256,195,37746,1,8,0:0:0:0:
256,195,38309,1,8,0:0:0:0:
256,195,38684,1,8,0:0:0:0:
256,195,39434,1,8,0:0:0:0:
256,195,39809,1,8,0:0:0:0:
256,195,40184,1,0,0:0:0:0:
256,195,40559,1,0,0:0:0:0:
256,195,40746,1,0,0:0:0:0:
256,195,41121,1,0,0:0:0:0:
256,195,41309,1,8,0:0:0:0:
256,195,41496,1,0,0:0:0:0:
256,195,41684,1,0,0:0:0:0:
256,195,42059,1,12,0:0:0:0:
256,195,42434,1,8,0:0:0:0:
256,195,42809,1,12,0:0:0:0:
256,195,42996,1,4,0:0:0:0:
256,192,43559,1,0,0:0:0:0:
256,192,44309,1,8,0:0:0:0:
256,195,44684,1,12,0:0:0:0:
256,195,45059,1,8,0:0:0:0:
256,195,45246,1,0,0:0:0:0:
256,195,45621,1,8,0:0:0:0:
256,195,45996,1,0,0:0:0:0:
256,195,46184,1,0,0:0:0:0:
256,195,46559,1,0,0:0:0:0:
256,195,46746,1,8,0:0:0:0:
256,195,47121,1,8,0:0:0:0:
256,195,47684,1,8,0:0:0:0:
256,195,48059,1,0,0:0:0:0:
256,195,48246,1,0,0:0:0:0:
256,195,49184,1,8,0:0:0:0:
256,195,49371,1,8,0:0:0:0:
256,195,49559,1,8,0:0:0:0:
256,195,49746,1,0,0:0:0:0:
256,195,50121,1,0,0:0:0:0:
256,195,50309,1,0,0:0:0:0:
256,195,50496,1,8,0:0:0:0:
256,195,50684,1,12,0:0:0:0:
256,195,51059,1,8,0:0:0:0:
256,195,51246,1,8,0:0:0:0:
256,195,51621,1,8,0:0:0:0:
256,195,51996,1,0,0:0:0:0:
256,195,52184,1,8,0:0:0:0:
256,195,52559,1,0,0:0:0:0:
256,195,52746,1,8,0:0:0:0:
256,195,53121,1,8,0:0:0:0:
256,195,53309,1,8,0:0:0:0:
256,195,53684,1,4,0:0:0:0:
256,195,54059,1,0,0:0:0:0:
256,195,54246,1,4,0:0:0:0:
256,195,54621,1,8,0:0:0:0:
256,195,54809,1,12,0:0:0:0:
255,195,56684,1,8,0:0:0:0:
255,195,57246,1,8,0:0:0:0:
255,195,57434,1,0,0:0:0:0:
255,195,57621,1,0,0:0:0:0:
255,195,57809,1,8,0:0:0:0:
255,195,57996,1,0,0:0:0:0:
255,195,58184,1,12,0:0:0:0:
255,195,58559,1,8,0:0:0:0:
255,195,58934,1,8,0:0:0:0:
255,195,59309,1,0,0:0:0:0:
255,195,59496,1,8,0:0:0:0:
255,195,60246,1,8,0:0:0:0:
255,195,60434,1,0,0:0:0:0:
255,195,60621,1,0,0:0:0:0:
255,195,60809,1,8,0:0:0:0:
255,195,61184,1,8,0:0:0:0:
255,195,61559,1,0,0:0:0:0:
255,195,61934,1,0,0:0:0:0:
255,195,62309,1,8,0:0:0:0:
255,195,62496,1,0,0:0:0:0:
255,195,63246,1,0,0:0:0:0:
255,195,63434,1,8,0:0:0:0:
255,195,63621,1,8,0:0:0:0:
255,195,63809,1,0,0:0:0:0:
255,195,63996,1,0,0:0:0:0:
255,195,64184,1,12,0:0:0:0:
255,195,64559,1,0,0:0:0:0:
255,195,64934,1,8,0:0:0:0:
255,195,65309,1,0,0:0:0:0:
255,195,65496,1,8,0:0:0:0:
255,195,66059,1,0,0:0:0:0:
255,195,66434,1,8,0:0:0:0:
255,195,66809,1,0,0:0:0:0:
255,195,66996,1,0,0:0:0:0:
255,195,67184,1,12,0:0:0:0:
255,195,67559,1,0,0:0:0:0:
255,195,67746,1,12,0:0:0:0:
255,195,68121,1,12,0:0:0:0:
255,195,68496,1,12,0:0:0:0:
255,195,69246,1,0,0:0:0:0:
255,195,69434,1,8,0:0:0:0:
255,195,69621,1,0,0:0:0:0:
255,195,69809,1,8,0:0:0:0:
255,195,69996,1,0,0:0:0:0:
255,195,70184,1,12,0:0:0:0:
255,195,70559,1,0,0:0:0:0:
255,195,70934,1,8,0:0:0:0:
255,195,71309,1,8,0:0:0:0:
255,195,71496,1,8,0:0:0:0:
255,195,72246,1,8,0:0:0:0:
255,195,72434,1,0,0:0:0:0:
255,195,72621,1,8,0:0:0:0:
255,195,72809,1,8,0:0:0:0:
255,195,72996,1,0,0:0:0:0:
255,195,73184,1,8,0:0:0:0:
255,195,73559,1,0,0:0:0:0:
255,195,73934,1,8,0:0:0:0:
255,195,74309,1,0,0:0:0:0:
255,195,74496,1,8,0:0:0:0:
255,195,75246,1,0,0:0:0:0:
255,195,75434,1,8,0:0:0:0:
255,195,75621,1,8,0:0:0:0:
255,195,76184,1,12,0:0:0:0:
255,195,76559,1,0,0:0:0:0:
255,195,76746,1,0,0:0:0:0:
255,195,76934,1,0,0:0:0:0:
255,195,77309,1,0,0:0:0:0:
255,192,77684,1,12,0:0:0:0:
255,192,78434,1,0,0:0:0:0:
255,192,78621,1,8,0:0:0:0:
255,192,79184,1,12,0:0:0:0:
255,192,79559,1,0,0:0:0:0:
255,192,79934,1,0,0:0:0:0:
255,192,80309,1,8,0:0:0:0:
255,192,80684,1,0,0:0:0:0:
255,192,80871,1,0,0:0:0:0:
255,192,81059,1,12,0:0:0:0:
255,192,81809,1,0,0:0:0:0:
257,193,82184,1,8,0:0:0:0:
257,193,82371,1,0,0:0:0:0:
257,193,82746,1,8,0:0:0:0:
257,193,83121,1,8,0:0:0:0:
257,193,83496,1,0,0:0:0:0:
257,193,83871,1,8,0:0:0:0:
257,193,84059,1,8,0:0:0:0:
257,193,84809,1,0,0:0:0:0:
257,193,84996,1,8,0:0:0:0:
257,193,85184,1,4,0:0:0:0:
257,193,85559,1,0,0:0:0:0:
257,193,85746,1,8,0:0:0:0:
257,193,86121,1,8,0:0:0:0:
257,193,86496,1,8,0:0:0:0:
257,193,86684,1,0,0:0:0:0:
257,193,87059,1,0,0:0:0:0:
257,193,87246,1,0,0:0:0:0:
257,193,87621,1,8,0:0:0:0:
257,193,87996,1,8,0:0:0:0:
257,193,88184,1,0,0:0:0:0:
257,193,88559,1,0,0:0:0:0:
257,193,88746,1,8,0:0:0:0:
257,193,89121,1,8,0:0:0:0:
257,193,89496,1,0,0:0:0:0:
257,193,89684,1,8,0:0:0:0:
257,193,90434,1,8,0:0:0:0:
257,193,90809,1,0,0:0:0:0:
257,193,91184,1,8,0:0:0:0:
257,193,91559,1,8,0:0:0:0:
257,193,91746,1,8,0:0:0:0:
257,193,92121,1,8,0:0:0:0:
257,193,92496,1,8,0:0:0:0:
257,193,92684,1,0,0:0:0:0:
257,193,93059,1,8,0:0:0:0:
257,193,93246,1,8,0:0:0:0:
257,193,93621,1,0,0:0:0:0:
257,193,93809,1,8,0:0:0:0:
257,193,93996,1,0,0:0:0:0:
257,193,94184,1,12,0:0:0:0:
257,193,94371,1,12,0:0:0:0:
257,193,94746,1,12,0:0:0:0:
257,193,94934,1,12,0:0:0:0:
257,193,95309,1,12,0:0:0:0:
257,193,95496,1,12,0:0:0:0:
257,193,95871,1,12,0:0:0:0:
257,193,96059,1,12,0:0:0:0:
257,193,96434,1,12,0:0:0:0:
257,193,96621,1,4,0:0:0:0:
257,193,96809,1,4,0:0:0:0:
257,193,96996,1,12,0:0:0:0:
256,192,97184,12,0,101684,0:0:0:0:
