osu file format v14

[General]
AudioFilename: audio.mp3
AudioLeadIn: 0
PreviewTime: 143155
Countdown: 0
SampleSet: Soft
StackLeniency: 0.7
Mode: 0
LetterboxInBreaks: 0
WidescreenStoryboard: 0

[Editor]
Bookmarks: 41713
DistanceSpacing: 1.5
BeatDivisor: 4
GridSize: 32
TimelineZoom: 1.6

[Metadata]
Title:Natsukage -Airness-
TitleUnicode:夏影 -Airness-
Artist:Chata
ArtistUnicode:茶太
Creator:Hikari-
Version:Insane
Source:Air
Tags:
BeatmapID:1222243
BeatmapSetID:577500

[Difficulty]
HPDrainRate:5
CircleSize:4.3
OverallDifficulty:8
ApproachRate:8
SliderMultiplier:1.3
SliderTickRate:1

[Events]
//Background and Video events
0,0,"bg.jpg",0,0
//Break Periods
2,26533,40006
2,91148,92891
2,103456,105198
2,115764,117506
//Storyboard Layer 0 (Background)
//Storyboard Layer 1 (Fail)
//Storyboard Layer 2 (Pass)
//Storyboard Layer 3 (Foreground)
//Storyboard Sound Samples

[TimingPoints]
1718,384.615384615385,4,2,1,70,1,0
1718,-133.333333333333,4,2,1,40,0,0
41718,-100,4,2,1,50,0,0
63256,-100,4,2,1,40,0,0
65564,-100,4,2,1,70,0,0
66333,-100,4,2,1,60,0,0
93641,-133.333333333333,4,2,1,40,0,0
127871,-100,4,2,1,50,0,0
138641,-100,4,2,1,60,0,0
141718,-100,4,2,1,70,0,0
143256,-100,4,2,1,70,0,1
164025,-100,4,2,1,70,0,0
164794,-100,4,2,1,70,0,1
189314,-100,4,2,1,20,0,1
189410,-100,4,2,1,70,0,0

[Colours]
Combo1 : 128,255,255
Combo2 : 0,128,255
Combo3 : 0,128,192
Combo4 : 0,128,128

[HitObjects]
417,78,1718,6,0,P|430:118|420:178,1,97.50000371933
422,172,2487,2,0,P|394:169|363:160,1,48.750001859665,2|0,0:0|0:0,0:0:0:0:
242,102,2871,2,0,P|268:92|301:90,1,48.750001859665
217,195,3256,6,0,P|168:186|128:136,1,97.50000371933,2|0,0:0|0:0,0:0:0:0:
53,197,4025,2,0,P|102:185|143:135,1,97.50000371933,2|0,0:0|0:0,0:0:0:0:
124,56,4602,1,0,0:0:0:0:
124,56,4794,6,0,L|136:170,1,97.50000371933,2|0,0:0|0:0,0:0:0:0:
132,347,5564,2,0,L|146:235,1,97.50000371933,2|0,0:0|0:0,0:0:0:0:
228,191,6141,1,0,0:0:0:0:
379,297,6333,2,0,P|403:293|426:286,1,48.750001859665,2|0,0:0|0:0,0:0:0:0:
276,333,6718,2,0,L|225:328,1,48.750001859665
312,244,7102,1,2,0:0:0:0:
312,244,7487,2,0,L|322:156,1,73.1250027894975
336,138,7871,6,0,P|287:154|232:158,1,97.50000371933,2|0,0:0|0:0,0:0:0:0:
201,130,8641,2,0,L|248:162,1,48.750001859665,2|0,0:0|0:0,0:0:0:0:
90,82,9025,2,0,L|138:52,1,48.750001859665
86,221,9410,2,0,P|46:207|19:157,1,97.50000371933,2|0,0:0|0:0,0:0:0:0:
168,272,10179,2,0,P|147:316|105:341,1,97.50000371933,2|0,0:0|0:0,0:0:0:0:
176,173,10756,1,0,0:0:0:0:
176,173,10948,6,0,L|280:197,1,97.50000371933,2|0,0:0|0:0,0:0:0:0:
478,239,11718,2,0,P|505:205|502:143,1,97.50000371933,2|0,0:0|0:0,0:0:0:0:
426,323,12294,1,0,0:0:0:0:
334,288,12487,2,0,P|289:279|224:291,1,97.50000371933,2|0,0:0|0:0,0:0:0:0:
402,230,13064,1,0,0:0:0:0:
418,135,13256,2,0,L|408:72,1,48.750001859665,2|2,0:0|0:3,0:0:0:0:
402,230,13641,1,0,0:0:0:0:
256,74,14025,6,0,P|214:55|161:58,1,97.50000371933,2|0,0:0|0:0,0:0:0:0:
163,57,14794,2,0,L|175:163,2,97.50000371933,2|0|2,0:0|0:0|0:0,0:0:0:0:
68,141,15948,1,0,0:0:0:0:
234,212,16333,2,0,P|255:200|272:179,1,48.750001859665,2|0,0:0|0:0,0:0:0:0:
68,141,16718,1,0,0:0:0:0:
128,350,17102,6,0,P|174:364|235:360,1,97.50000371933,2|0,0:0|0:0,0:0:0:0:
222,362,17871,2,0,L|322:328,2,97.50000371933,2|0|2,0:0|0:0|0:0,0:0:0:0:
328,215,19025,1,0,0:0:0:0:
395,308,19410,2,0,P|404:332|406:362,1,48.750001859665,2|0,0:0|0:0,0:0:0:0:
328,215,19794,1,0,0:0:0:0:
473,109,20179,6,0,P|426:119|385:95,1,97.50000371933,2|0,0:0|0:0,0:0:0:0:
385,95,20948,2,0,L|273:112,2,97.50000371933,2|0|2,0:0|0:0|0:0,0:0:0:0:
203,66,22102,1,0,0:0:0:0:
90,140,22487,2,0,P|90:164|95:188,1,48.750001859665,2|0,0:0|0:0,0:0:0:0:
203,66,22871,1,0,0:0:0:0:
290,345,23256,6,0,B|308:229,2,97.50000371933,2|0|0,0:0|0:0|0:0,0:0:0:0:
256,192,24218,12,0,26333,1:0:0:0:
158,155,40756,5,0,3:0:0:0:
206,303,40948,2,0,P|211:268|201:210,1,73.1250027894975,0|0,1:0|0:0,0:0:0:0:
269,364,41333,1,4,0:3:0:0:
269,364,41718,6,0,P|319:342|404:356,1,130,0|0,3:0|0:0,0:0:0:0:
464,222,42487,2,0,P|457:256|440:302,1,65,2|0,0:3|0:0,0:0:0:0:
349,150,42871,1,2,0:0:0:0:
348,150,43256,2,0,P|410:133|475:135,1,130,0|0,3:0|0:0,0:0:0:0:
178,53,44025,2,0,L|49:31,1,130,2|0,0:3|0:0,0:0:0:0:
348,150,44602,1,2,0:0:0:0:
263,76,44794,6,0,L|248:220,1,130,0|0,3:0|0:0,0:0:0:0:
296,338,45371,1,0,0:0:0:0:
427,322,45564,2,0,P|458:301|472:267,1,65,2|0,0:3|0:0,0:0:0:0:
381,202,45948,2,0,P|371:172|344:148,1,65,2|0,0:0|0:0,0:0:0:0:
81,228,46333,2,0,L|209:257,1,130,0|2,3:0|0:0,0:0:0:0:
286,201,46910,1,0,0:0:0:0:
333,343,47102,1,2,0:3:0:0:
333,343,47487,2,0,P|343:311|350:274,1,65
487,153,47871,6,0,P|438:193|360:176,1,130,0|0,3:0|0:0,0:0:0:0:
265,19,48641,2,0,P|277:47|285:87,1,65,2|0,0:3|0:0,0:0:0:0:
263,164,49025,1,2,0:0:0:0:
253,171,49410,2,0,L|177:159,1,65,0|0,3:0|0:0,0:0:0:0:
41,241,49794,2,0,P|26:217|11:168,1,65
134,331,50179,2,0,P|189:313|263:315,1,130,2|2,0:3|0:0,0:0:0:0:
367,355,50756,1,0,0:0:0:0:
454,262,50948,6,0,P|470:223|464:131,2,130,0|0|2,3:0|0:0|0:3,0:0:0:0:
323,191,51910,1,0,0:0:0:0:
358,29,52102,2,0,P|381:51|401:88,1,65,2|0,0:0|0:0,0:0:0:0:
323,191,52487,2,0,L|186:177,1,130,0|2,3:0|0:0,0:0:0:0:
193,177,52968,1,0,0:0:0:0:
193,177,53064,1,0,0:0:0:0:
165,332,53256,5,0,3:0:0:0:
299,297,53448,1,2,3:0:0:0:
299,297,53641,1,0,0:0:0:0:
162,53,54025,6,0,P|109:67|75:140,1,130,0|0,3:0|0:0,0:0:0:0:
37,224,54602,1,0,0:0:0:0:
102,305,54794,2,0,L|168:318,1,65,2|0,0:3|0:3,0:0:0:0:
286,351,55179,2,0,P|272:319|272:284,1,65
412,204,55564,2,0,L|397:345,2,130,0|0|2,3:0|0:0|0:3,0:0:0:0:
386,105,56525,2,0,P|331:78|264:99,1,130
89,227,57102,6,0,P|55:189|60:107,1,130,0|0,3:0|0:0,0:0:0:0:
122,326,57679,1,0,0:0:0:0:
223,293,57871,2,0,P|259:283|312:287,1,65,2|0,0:3|0:3,0:0:0:0:
415,301,58256,2,0,L|400:375,1,65
351,216,58641,2,0,L|337:83,2,130,0|0|2,3:0|0:0|0:3,0:0:0:0:
453,145,59602,2,0,P|485:85|474:25,1,130
243,161,60179,6,0,P|209:215|223:277,1,130,0|0,3:0|0:0,0:0:0:0:
319,317,60756,1,0,0:0:0:0:
392,249,60948,2,0,L|445:209,1,65,2|0,0:3|0:0,0:0:0:0:
319,317,61333,2,0,L|396:342,1,65
284,215,61718,2,0,L|138:243,1,130,0|0,3:0|0:0,0:0:0:0:
319,317,62294,1,0,0:0:0:0:
226,135,62487,2,0,P|218:103|223:62,1,65,2|0,0:3|0:0,0:0:0:0:
367,181,62871,2,0,P|411:180|467:149,1,97.5
478,183,63256,6,0,L|489:260,1,65,2|0,3:0|0:0,0:0:0:0:
353,119,63641,2,0,P|321:118|290:108,1,65,4|0,0:3|0:0,0:0:0:0:
458,81,64025,1,0,1:0:0:0:
251,222,64410,2,0,P|247:273|273:329,1,97.5,4|0,0:3|0:0,0:0:0:0:
281,342,64794,2,0,L|294:273,1,65,2|0,3:0|0:0,0:0:0:0:
86,258,65179,2,0,P|52:267|21:271,1,65,4|0,0:3|0:0,0:0:0:0:
175,205,65564,5,0,1:0:0:0:
273,96,65756,1,0,3:3:0:0:
137,59,65948,1,4,0:3:0:0:
118,37,66333,6,0,L|105:184,1,130,4|0,0:0|0:0,0:0:0:0:
141,301,66910,1,0,0:0:0:0:
254,237,67102,2,0,P|255:204|246:173,1,65,0|0,1:0|0:0,0:0:0:0:
33,206,67486,1,2,0:0:0:0:
33,206,67871,2,0,L|174:216,1,130,0|0,1:2|0:0,0:0:0:0:
380,105,68641,2,0,L|247:140,1,130,0|2,1:0|0:0,0:0:0:0:
162,215,69217,1,0,0:0:0:0:
379,227,69410,6,0,P|383:287|348:352,1,130,0|0,1:0|0:0,0:0:0:0:
299,266,69987,1,0,0:0:0:0:
463,317,70179,2,0,P|480:291|484:259,1,65,0|0,1:0|0:0,0:0:0:0:
276,204,70564,2,0,P|283:235|298:265,1,65,2|0,0:0|0:0,0:0:0:0:
475,130,70948,2,0,P|420:140|367:92,1,130,0|0,1:0|0:0,0:0:0:0:
269,89,71525,1,0,0:0:0:0:
176,35,71717,2,0,L|103:57,1,65,0|0,1:0|0:0,0:0:0:0:
269,89,72102,1,2,0:0:0:0:
90,328,72487,6,0,P|67:286|74:198,1,130,0|0,1:0|0:0,0:0:0:0:
125,110,73064,1,0,0:0:0:0:
236,137,73256,2,0,L|300:146,1,65,0|0,1:0|0:0,0:0:0:0:
103,19,73641,2,0,P|104:64|143:129,1,97.5,2|0,0:0|0:0,0:0:0:0:
152,148,74025,2,0,L|138:226,1,65,0|0,1:0|0:0,0:0:0:0:
299,347,74409,2,0,P|304:312|290:269,1,65
81,315,74794,2,0,L|214:305,1,130,0|2,1:0|0:0,0:0:0:0:
299,347,75371,1,0,0:0:0:0:
258,102,75563,6,0,P|229:142|236:225,1,130,0|0,1:0|0:0,0:0:0:0:
299,347,76141,1,0,0:0:0:0:
450,305,76333,2,0,L|377:285,1,65,0|0,1:0|0:0,0:0:0:0:
336,146,76717,2,0,L|323:218,1,65,2|0,0:0|0:0,0:0:0:0:
182,318,77102,2,0,P|117:315|57:290,1,130,0|2,1:0|0:0,0:0:0:0:
57,290,77583,1,0,0:0:0:0:
57,290,77679,1,0,0:0:0:0:
46,117,77871,5,0,1:0:0:0:
240,154,78064,1,0,3:0:0:0:
240,154,78256,1,0,0:0:0:0:
91,198,78641,6,0,P|105:274|143:317,1,130,4|0,0:0|0:0,0:0:0:0:
347,367,79409,2,0,P|369:344|383:293,1,65,0|0,1:0|0:0,0:0:0:0:
486,228,79794,2,0,P|482:188|463:163,1,65,0|0,3:0|0:0,0:0:0:0:
330,101,80179,2,0,L|319:206,1,97.5,0|0,1:0|0:0,0:0:0:0:
314,229,80564,2,0,P|276:246|224:243,1,65
126,204,80948,1,0,1:0:0:0:
126,204,81141,2,0,P|158:257|137:331,1,130
48,153,81717,6,0,P|86:119|168:124,1,130,0|0,1:0|0:0,0:0:0:0:
244,172,82294,1,0,0:0:0:0:
326,114,82487,2,0,P|336:78|332:25,1,65,0|0,1:0|0:0,0:0:0:0:
340,240,82871,2,0,L|350:315,1,65,0|0,3:0|0:0,0:0:0:0:
490,155,83256,2,0,L|379:179,1,97.5,0|0,1:0|0:0,0:0:0:0:
359,162,83640,2,0,P|328:153|283:154,1,65
106,260,84025,1,0,1:0:0:0:
106,260,84217,2,0,P|171:267|214:208,1,130
161,44,84794,6,0,L|138:186,1,130,0|0,1:0|0:0,0:0:0:0:
71,72,85371,1,0,0:0:0:0:
234,135,85564,2,0,P|269:130|308:114,1,65,0|0,1:0|0:0,0:0:0:0:
410,19,85948,2,0,L|421:107,1,65,0|0,3:0|0:0,0:0:0:0:
436,261,86333,2,0,P|403:241|381:174,1,97.5,0|0,1:0|0:0,0:0:0:0:
380,188,86717,2,0,L|368:275,1,65
317,337,87102,1,0,1:0:0:0:
228,298,87294,1,0,0:0:0:0:
129,339,87486,2,0,P|82:348|13:333,1,97.5,0|0,3:0|0:0,0:0:0:0:
20,320,87871,6,0,L|32:239,1,65,0|0,1:0|0:0,0:0:0:0:
129,167,88256,2,0,L|149:254,1,65,4|0,0:3|0:0,0:0:0:0:
16,107,88641,1,0,1:0:0:0:
235,154,89025,2,0,P|265:149|321:88,1,97.5,4|0,0:3|0:0,0:0:0:0:
290,79,89410,6,0,L|205:53,1,65,0|0,3:0|0:0,0:0:0:0:
408,142,89794,2,0,P|438:127|479:124,1,65,4|0,0:3|0:0,0:0:0:0:
312,205,90179,1,0,3:0:0:0:
304,221,90564,5,8,0:3:0:0:
318,325,90756,1,4,0:3:0:0:
422,351,90948,1,0,1:0:0:0:
188,131,93641,5,0,0:0:0:0:
264,99,93833,1,0,0:0:0:0:
256,189,94025,2,0,L|251:251,1,48.750001859665,2|0,0:0|0:0,0:0:0:0:
256,189,94410,1,2,0:0:0:0:
438,213,94794,5,2,0:0:0:0:
362,181,94986,1,2,0:0:0:0:
370,271,95178,2,0,L|375:331,1,48.750001859665,2|0,0:0|0:0,0:0:0:0:
203,357,95564,5,2,0:0:0:0:
97,320,95756,2,0,P|83:275|87:233,1,73.1250027894975,2|0,0:0|0:0,0:0:0:0:
83,249,96141,2,0,P|118:262|184:257,1,97.50000371933,2|0,0:0|0:0,0:0:0:0:
134,66,96718,2,0,L|120:117,1,48.750001859665,2|0,0:0|0:0,0:0:0:0:
194,173,97102,6,0,L|307:142,1,97.50000371933,2|0,0:0|0:0,0:0:0:0:
419,82,97679,2,0,L|308:69,1,97.50000371933,2|0,0:0|0:0,0:0:0:0:
360,265,98256,2,0,L|369:160,2,97.50000371933,2|0|0,0:0|0:0|0:0,0:0:0:0:
137,367,99410,6,0,P|120:339|111:306,1,48.750001859665,0|0,3:0|0:0,0:0:0:0:
130,241,99794,2,0,L|218:263,1,73.1250027894975,2|0,0:0|0:0,0:0:0:0:
227,286,100179,2,0,P|269:310|327:305,2,97.50000371933,0|0|0,3:0|0:0|3:0,0:0:0:0:
284,173,101333,6,0,L|291:232,1,48.750001859665,2|0,0:0|0:0,0:0:0:0:
230,90,101718,1,0,3:0:0:0:
387,189,102102,1,2,0:0:0:0:
228,287,102487,1,0,3:0:0:0:
284,173,103256,5,4,1:0:0:0:
154,146,105948,5,0,0:0:0:0:
245,180,106141,1,0,0:0:0:0:
340,150,106333,2,0,L|395:128,1,48.750001859665,2|0,0:0|0:0,0:0:0:0:
340,150,106718,1,2,0:0:0:0:
255,84,107102,5,2,0:0:0:0:
245,180,107295,1,2,0:0:0:0:
299,264,107487,2,0,L|334:311,1,48.750001859665,2|0,0:0|0:0,0:0:0:0:
112,257,107871,5,2,0:0:0:0:
112,257,108064,2,0,P|114:221|122:168,1,73.1250027894975
138,158,108448,2,0,P|166:127|161:65,1,97.50000371933,2|0,0:0|0:0,0:0:0:0:
45,76,109025,2,0,P|68:88|101:91,1,48.750001859665,2|0,0:0|0:0,0:0:0:0:
245,111,109410,6,0,L|358:80,1,97.50000371933,2|0,0:0|0:0,0:0:0:0:
285,230,109987,2,0,P|278:279|301:340,1,97.50000371933,2|0,0:0|0:0,0:0:0:0:
453,201,110564,2,0,L|349:176,2,97.50000371933,2|0|0,0:0|0:0|0:0,0:0:0:0:
256,67,111718,5,0,3:0:0:0:
59,201,112102,2,0,L|65:254,1,48.750001859665,2|0,0:0|0:0,0:0:0:0:
170,293,112487,1,2,3:2:0:0:
257,246,112679,1,0,0:0:0:0:
174,189,112871,1,2,0:0:0:0:
170,293,113256,5,2,3:2:0:0:
257,246,113448,1,0,0:0:0:0:
347,286,113641,2,0,L|355:342,1,48.750001859665,2|0,0:0|0:0,0:0:0:0:
334,188,114026,1,0,3:0:0:0:
334,188,114410,5,0,0:0:0:0:
455,216,114602,1,0,0:0:0:0:
426,84,114794,2,0,L|365:97,1,48.750001859665,0|0,3:0|0:3,0:0:0:0:
455,216,115179,1,0,1:3:0:0:
256,67,115564,5,4,1:0:0:0:
114,326,118256,6,0,L|132:271,1,48.750001859665
187,209,118641,1,2,0:0:0:0:
215,295,118833,1,2,0:0:0:0:
129,279,119025,1,2,0:0:0:0:
302,129,119410,5,2,0:0:0:0:
274,215,119602,1,2,0:0:0:0:
360,199,119794,1,2,0:0:0:0:
154,35,120179,6,0,P|147:53|145:87,1,48.750001859665,2|0,0:0|0:0,0:0:0:0:
200,148,120564,1,0,0:0:0:0:
71,129,120756,2,0,P|74:182|83:229,1,97.50000371933,2|0,0:0|0:0,0:0:0:0:
169,300,121333,2,0,L|223:287,1,48.750001859665,2|2,0:0|0:0,0:0:0:0:
309,329,121718,6,0,P|358:331|414:300,1,97.50000371933,2|0,0:0|0:0,0:0:0:0:
281,216,122294,2,0,P|238:195|188:198,1,97.50000371933,2|0,0:0|0:0,0:0:0:0:
371,221,122871,2,0,L|389:106,2,97.50000371933,2|0|0,0:0|3:0|0:0,0:0:0:0:
466,113,124025,1,0,3:0:0:0:
334,41,124410,2,0,P|322:62|320:97,1,48.750001859665,2|0,0:0|0:0,0:0:0:0:
250,179,124794,6,0,P|210:151|155:150,1,97.50000371933,0|2,3:0|0:0,0:0:0:0:
74,201,125371,1,0,0:0:0:0:
158,56,125564,1,0,3:0:0:0:
146,66,125948,2,0,L|153:176,2,97.50000371933,2|0|0,0:0|3:0|0:0,0:0:0:0:
156,266,127102,2,0,P|181:279|215:289,1,48.750001859665,2|0,0:3|0:0,0:0:0:0:
68,313,127487,1,8,0:3:0:0:
289,315,127871,6,0,P|317:268|399:257,1,130,0|0,1:0|0:0,0:0:0:0:
374,344,128448,1,0,0:0:0:0:
329,163,128641,2,0,L|355:96,1,65,0|0,1:0|0:0,0:0:0:0:
424,175,129025,1,2,0:0:0:0:
234,29,129410,2,0,L|246:166,1,130,0|0,1:0|0:0,0:0:0:0:
216,259,129987,1,0,0:0:0:0:
317,315,130179,2,0,P|348:327|389:330,1,65,0|0,1:0|0:0,0:0:0:0:
216,259,130564,2,0,P|190:272|152:279,1,65
56,236,130948,6,0,P|20:201|21:115,1,130,0|0,1:0|0:0,0:0:0:0:
69,48,131525,1,0,0:0:0:0:
141,98,131718,2,0,P|167:105|207:106,1,65,0|0,1:0|0:0,0:0:0:0:
337,98,132102,1,2,0:0:0:0:
246,23,132294,1,0,0:0:0:0:
225,187,132487,2,0,L|246:315,1,130,0|0,1:0|0:0,0:0:0:0:
338,342,133064,1,0,0:0:0:0:
421,281,133256,2,0,P|425:251|421:204,1,65,0|0,1:0|0:0,0:0:0:0:
246,315,133641,2,0,P|215:322|175:348,1,65
312,211,134025,6,0,P|346:165|325:91,1,130,0|0,1:0|0:0,0:0:0:0:
254,53,134602,1,0,0:0:0:0:
427,187,134794,2,0,P|451:194|497:197,1,65,0|0,1:0|0:0,0:0:0:0:
441,88,135179,1,2,0:0:0:0:
385,275,135371,1,0,0:0:0:0:
286,160,135564,2,0,P|221:148|150:142,1,130,0|0,1:0|0:0,0:0:0:0:
62,192,136141,1,0,0:0:0:0:
16,82,136333,2,0,P|13:45|18:8,1,65,0|0,1:0|0:0,0:0:0:0:
62,192,136718,2,0,L|54:269,1,65,2|0,0:0|0:0,0:0:0:0:
252,255,137102,6,0,B|302:265|349:237|349:237|386:264,1,130,0|0,1:0|0:0,0:0:0:0:
298,348,137679,1,0,0:0:0:0:
185,294,137871,2,0,P|174:262|180:220,1,65,0|0,1:0|0:0,0:0:0:0:
333,154,138256,2,0,L|414:168,1,65
240,159,138641,6,0,P|197:108|211:41,1,130,0|4,1:0|0:3,0:0:0:0:
476,216,139410,2,0,P|472:247|463:279,1,65,0|0,1:0|0:0,0:0:0:0:
384,348,139794,2,0,P|354:333|322:328,1,65,4|0,0:3|0:0,0:0:0:0:
86,310,140179,6,0,L|223:281,1,130,0|4,3:0|0:3,0:0:0:0:
145,50,140948,2,0,P|122:73|96:93,1,65,0|0,1:0|0:0,0:0:0:0:
213,147,141333,2,0,P|239:165|268:179,1,65,4|0,0:3|0:0,0:0:0:0:
470,172,141718,6,0,P|489:118|461:52,1,130,0|4,3:0|0:3,0:0:0:0:
281,295,142487,2,0,P|251:307|215:310,1,65,0|4,1:0|0:3,0:0:0:0:
125,293,142871,1,8,0:3:0:0:
113,285,143256,6,0,L|101:146,1,130,4|0,0:0|0:0,0:0:0:0:
317,37,144025,2,0,P|330:69|339:126,1,65,0|0,1:0|0:0,0:0:0:0:
272,160,144410,2,0,P|279:191|291:221,1,65,2|0,0:0|0:0,0:0:0:0:
387,272,144794,2,0,P|444:249|455:176,2,130,0|0|0,1:0|0:0|1:2,0:0:0:0:
318,330,145756,1,0,0:0:0:0:
237,301,145948,2,0,P|204:293|167:289,1,65,2|0,0:0|0:0,0:0:0:0:
35,195,146333,6,0,L|176:177,1,130,0|0,1:2|0:0,0:0:0:0:
236,119,146910,1,0,0:0:0:0:
142,32,147102,2,0,L|154:111,1,65,0|0,1:0|0:0,0:0:0:0:
254,207,147487,2,0,P|286:194|336:184,1,65,2|2,0:0|0:0,0:0:0:0:
464,118,147871,6,0,L|310:87,1,130,0|2,1:0|0:0,0:0:0:0:
319,276,148448,1,0,0:3:0:0:
428,231,148641,1,4,0:0:0:0:
428,231,149025,2,0,P|411:277|422:329,1,97.5
442,360,149410,6,0,L|425:207,1,130,0|0,1:0|0:0,0:0:0:0:
199,74,150179,2,0,P|198:105|212:147,1,65,0|0,1:0|0:0,0:0:0:0:
271,230,150564,2,0,P|262:261|246:289,1,65,2|0,0:0|0:0,0:0:0:0:
30,249,150948,2,0,L|158:230,2,130,0|0|0,1:0|0:0|1:0,0:0:0:0:
163,323,151910,1,0,0:0:0:0:
300,291,152102,2,0,L|235:278,1,65,2|0,0:0|0:0,0:0:0:0:
259,68,152487,6,0,L|287:218,1,130,0|2,1:0|0:0,0:0:0:0:
190,145,153064,1,0,0:0:0:0:
405,161,153256,2,0,P|438:146|464:118,1,65,0|0,1:0|0:0,0:0:0:0:
361,245,153641,2,0,P|379:271|407:288,1,65,2|2,0:0|0:0,0:0:0:0:
316,132,154025,6,0,P|282:189|255:275,1,130,0|2,1:0|0:0,0:0:0:0:
311,329,154602,1,0,0:0:0:0:
235,98,154794,2,0,L|210:17,1,65,0|4,1:0|0:3,0:0:0:0:
235,98,155179,5,0,0:3:0:0:
48,109,155564,6,0,L|35:238,1,130,4|0,0:0|0:0,0:0:0:0:
241,344,156333,2,0,P|271:328|315:318,1,65,0|0,1:0|0:0,0:0:0:0:
411,267,156718,2,0,P|438:285|471:321,1,65,2|0,0:0|0:0,0:0:0:0:
267,232,157102,2,0,P|207:214|182:156,2,130,4|0|0,0:3|0:0|1:0,0:0:0:0:
352,197,158064,2,0,L|416:156,1,65,0|2,0:0|0:0,0:0:0:0:
175,70,158641,6,0,L|34:54,1,130,0|0,1:0|0:0,0:0:0:0:
104,156,159218,1,0,0:0:0:0:
265,106,159410,2,0,P|286:83|297:47,1,65,0|0,1:0|0:0,0:0:0:0:
207,192,159794,2,0,P|209:234|225:278,1,65,2|0,0:0|0:0,0:0:0:0:
372,351,160179,2,0,P|420:344|464:262,2,130,4|0|0,0:3|0:0|1:0,0:0:0:0:
289,333,161141,2,0,L|200:348,1,65,0|2,0:0|0:0,0:0:0:0:
284,133,161718,6,0,L|440:161,1,130,0|0,1:0|0:0,0:0:0:0:
362,56,162294,1,0,0:0:0:0:
274,228,162487,2,0,L|277:292,1,65,0|0,1:0|0:0,0:0:0:0:
163,109,162871,2,0,L|159:44,1,65,2|0,0:0|0:0,0:0:0:0:
32,228,163256,2,0,L|164:209,1,130,4|0,0:3|3:0,0:0:0:0:
160,209,163737,1,0,0:0:0:0:
160,209,163833,1,0,0:0:0:0:
254,149,164025,5,0,1:0:0:0:
235,259,164218,1,8,0:3:0:0:
305,325,164410,1,4,0:3:0:0:
402,317,164602,1,4,0:3:0:0:
489,163,164794,6,0,B|504:124|478:84|478:84|479:52|504:30,2,130,4|0|0,0:0|0:0|1:0,0:0:0:0:
421,218,165756,1,0,0:0:0:0:
352,167,165948,2,0,P|319:154|279:146,1,65,2|0,0:0|0:0,0:0:0:0:
127,311,166333,2,0,P|173:345|251:332,2,130,0|0|0,1:0|0:0|1:0,0:0:0:0:
101,178,167294,1,0,0:0:0:0:
211,201,167487,2,0,L|194:294,1,65,2|0,0:0|0:0,0:0:0:0:
65,65,167871,6,0,L|136:44,1,65,0|0,1:0|0:0,0:0:0:0:
113,220,168256,2,0,P|85:202|56:190,1,65,2|0,0:0|0:0,0:0:0:0:
268,132,168641,2,0,P|301:137|339:162,1,65,0|0,1:0|0:0,0:0:0:0:
183,146,169025,1,2,0:0:0:0:
214,37,169218,1,2,0:0:0:0:
231,228,169410,2,0,P|257:284|219:357,2,130,0|0|0,1:0|0:0|1:0,0:0:0:0:
152,351,170371,1,0,0:0:0:0:
334,256,170564,2,0,P|368:261|414:284,1,65,2|0,0:0|0:0,0:0:0:0:
150,260,170948,6,0,P|138:217|128:105,1,130,0|0,1:0|0:0,0:0:0:0:
405,90,171718,1,0,1:0:0:0:
462,180,171910,1,0,0:0:0:0:
313,112,172102,2,0,P|302:78|308:40,1,65,2|0,0:0|0:0,0:0:0:0:
375,197,172487,2,0,P|387:230|403:265,1,65,0|0,1:0|0:0,0:0:0:0:
291,347,172871,2,0,P|303:318|311:281,1,65,2|0,0:0|0:0,0:0:0:0:
163,159,173256,2,0,L|293:193,1,130,0|2,1:0|0:0,0:0:0:0:
243,85,173833,1,0,0:0:0:0:
77,143,174025,6,0,B|65:183|89:217|89:217|90:251|62:274,2,130,0|0|0,1:0|0:0|1:0,0:0:0:0:
149,54,174987,1,0,0:0:0:0:
265,101,175179,2,0,P|239:122|188:129,1,65,2|0,0:0|0:0,0:0:0:0:
169,220,175564,2,0,P|226:240|302:286,1,130,0|2,1:0|0:0,0:0:0:0:
192,320,176141,1,0,0:0:0:0:
381,236,176333,2,0,L|452:228,1,65,0|0,1:0|1:0,0:0:0:0:
381,236,176718,5,0,0:0:0:0:
307,45,176910,1,0,3:0:0:0:
307,45,177006,1,0,0:0:0:0:
307,45,177102,6,0,L|317:188,1,130,0|0,1:0|0:0,0:0:0:0:
196,349,177871,2,0,P|156:344|126:334,1,65,0|0,1:0|0:0,0:0:0:0:
47,209,178256,2,0,L|57:117,1,65,2|0,0:0|0:0,0:0:0:0:
243,186,178641,2,0,P|203:220|125:251,2,130,4|0|0,0:3|0:0|1:0,0:0:0:0:
149,156,179602,1,0,0:0:0:0:
241,94,179794,2,0,P|249:61|243:23,1,65,2|0,0:0|0:0,0:0:0:0:
331,153,180179,6,0,P|365:180|452:175,1,130,0|0,1:0|0:0,0:0:0:0:
401,98,180756,1,0,0:0:0:0:
336,268,180948,2,0,P|344:302|360:333,1,65,0|0,1:0|0:0,0:0:0:0:
169,268,181333,2,0,P|140:264|98:243,1,65,2|0,0:0|0:0,0:0:0:0:
250,354,181718,2,0,L|260:216,2,130,4|0|0,0:3|0:0|1:0,0:0:0:0:
190,167,182679,2,0,P|231:126|314:133,1,130,2|0,0:0|0:0,0:0:0:0:
190,167,183256,6,0,L|62:147,1,130,0|0,1:0|0:0,0:0:0:0:
117,251,183833,1,0,0:0:0:0:
234,260,184025,2,0,P|256:235|276:185,1,65,0|0,1:0|0:0,0:0:0:0:
329,45,184410,2,0,P|336:77|338:130,1,65,2|0,0:0|0:0,0:0:0:0:
434,195,184794,6,0,P|477:186|506:100,1,130,4|0,0:3|0:0,0:0:0:0:
362,269,185371,1,0,0:0:0:0:
270,206,185564,2,0,P|238:192|196:180,1,65,0|0,1:0|0:0,0:0:0:0:
67,243,185948,2,0,L|76:337,1,65,2|0,0:0|0:0,0:0:0:0:
258,361,186333,6,0,B|296:335|296:335|331:367|401:359,1,130,0|4,1:0|0:3,0:0:0:0:
366,129,187102,2,0,L|354:266,1,130,0|2,1:0|0:0,0:0:0:0:
443,319,187679,1,0,0:0:0:0:
250,260,187871,2,0,P|209:279|135:269,1,97.5,0|0,1:0|0:0,0:0:0:0:
127,263,188256,2,0,L|110:186,1,65,4|0,0:3|3:0,0:0:0:0:
107,166,188544,1,0,3:0:0:0:
107,166,188641,1,0,1:0:0:0:
280,176,188833,1,8,0:3:0:0:
437,120,189025,2,0,B|453:78|453:78|439:12,1,97.5,4|0,0:3|0:0,0:0:0:0:
433,0,189410,5,0,0:0:0:0:
