osu file format v14

[General]
AudioFilename: audio.mp3
AudioLeadIn: 0
PreviewTime: 125135
Countdown: 0
SampleSet: Soft
StackLeniency: 0.7
Mode: 0
LetterboxInBreaks: 0
WidescreenStoryboard: 0

[Editor]
Bookmarks: 21634,36634,51634,74134,110134,125134,140134,176134,188134,203647,223147,247147
DistanceSpacing: 1.1
BeatDivisor: 4
GridSize: 4
TimelineZoom: 1

[Metadata]
Title:Gusha
TitleUnicode:愚者
Artist:Chata
ArtistUnicode:茶太
Creator:Raijodo
Version:Collab Lunatic
Source:東方紅魔郷 ~ the Embodiment of Scarlet Devil.
Tags:chata asmr mirash 直立不動で愚者の認定を受ける 日出国愚者、到東彼方 ~暗闇如現、白陽炎如去~ 2ペソ 東方Project touhou project th06 koumakyou scarlet devil land eosd remilia 亡き王女の為のセプテット Septette for the dead princess ZUN Team Shanghai Alice video game japanese rock
BeatmapID:3828042
BeatmapSetID:1861782

[Difficulty]
HPDrainRate:7
CircleSize:4
OverallDifficulty:8
ApproachRate:8
SliderMultiplier:1.4
SliderTickRate:1

[Events]
//Background and Video events
0,0,"FJ8QmX_agAYVvY0.jpg",0,0
//Break Periods
2,203847,212897
//Storyboard Layer 0 (Background)
//Storyboard Layer 1 (Fail)
//Storyboard Layer 2 (Pass)
//Storyboard Layer 3 (Foreground)
//Storyboard Layer 4 (Overlay)
//Storyboard Sound Samples

[TimingPoints]
2385,500,4,2,0,50,1,0
4635,-133.333333333333,4,2,0,50,0,0
20885,375,4,1,1,50,1,0
21260,-66.6666666666667,4,1,1,50,0,0
21635,375,5,1,1,50,1,0
21635,-66.6666666666667,5,1,1,50,0,0
34103,-66.6666666666667,5,1,1,5,0,0
34197,-66.6666666666667,5,1,1,50,0,0
34291,-66.6666666666667,5,1,1,5,0,0
34385,-66.6666666666667,5,1,1,50,0,0
34478,-66.6666666666667,5,1,1,5,0,0
34572,-66.6666666666667,5,1,1,50,0,0
74135,375,4,1,1,50,1,0
98135,-66.6666666666667,4,1,1,50,0,0
110135,375,5,1,1,50,1,0
140135,375,4,1,1,50,1,0
175197,-66.6666666666667,4,1,1,50,0,0
176135,-100,4,1,1,50,0,0
185135,-76.9230769230769,4,1,1,50,0,0
185416,-76.9230769230769,4,1,1,5,0,0
185510,-76.9230769230769,4,1,1,50,0,0
199385,-58.8235294117647,4,1,1,50,0,0
203647,500,4,1,1,50,1,0
218647,-285.714285714286,4,1,1,50,0,0
220147,-285.714285714286,4,1,1,5,0,0
223147,375,4,1,1,50,1,0
223147,-66.6666666666667,4,1,1,50,0,0
244428,-66.6666666666667,4,1,1,5,0,0
244522,-66.6666666666667,4,1,1,50,0,0
247147,375,5,1,1,50,1,0
253803,-76.9230769230769,5,1,1,50,0,0
262147,-76.9230769230769,5,2,1,50,0,0
264022,-100,5,2,1,50,0,0
265897,-133.333333333333,5,2,1,50,0,0

[Colours]
Combo1 : 176,153,159
Combo2 : 140,140,198
Combo3 : 187,170,223
Combo4 : 114,139,177

[HitObjects]
50,203,2385,5,2,0:0:0:0:
86,223,2635,1,0,3:0:0:0:
127,220,2885,1,0,0:0:0:0:
156,189,3135,1,0,3:0:0:0:
243,205,3385,5,2,0:0:0:0:
293,180,3635,1,2,3:0:0:0:
348,184,3885,1,0,0:0:0:0:
393,216,4135,1,2,3:0:0:0:
458,308,4385,5,2,0:0:0:0:
473,231,4635,2,0,P|474:211|458:167,1,52.5000020027161,0|0,3:0|0:0,0:0:0:0:
512,118,5135,2,0,P|488:103|448:104,1,52.5000020027161,0|0,3:0|0:0,0:0:0:0:
468,24,5635,2,0,P|430:31|380:97,1,105.000004005432,2|2,3:0|3:0,0:0:0:0:
259,67,6385,5,2,0:0:0:0:
254,108,6635,1,0,3:0:0:0:
277,90,6885,1,0,0:0:0:0:
236,85,7135,1,0,3:0:0:0:
324,32,7385,5,2,0:0:0:0:
310,155,7635,1,2,3:0:0:0:
187,141,7885,1,0,0:0:0:0:
201,18,8135,1,2,3:0:0:0:
100,109,8385,5,2,0:0:0:0:
47,168,8635,2,0,L|48:237,1,52.5000020027161,0|0,3:0|0:0,0:0:0:0:
126,228,9135,2,0,L|122:290,1,52.5000020027161,0|0,3:0|0:0,0:0:0:0:
105,356,9635,2,0,P|150:358|213:362,1,105.000004005432,2|2,3:0|3:0,0:0:0:0:
291,384,10385,5,2,0:0:0:0:
359,343,10635,1,2,3:0:0:0:
363,264,10885,1,0,0:0:0:0:
298,220,11135,1,2,3:0:0:0:
276,312,11385,5,2,0:0:0:0:
288,300,11635,1,2,3:0:0:0:
276,289,11885,1,0,0:0:0:0:
265,300,12135,1,2,3:0:0:0:
192,268,12385,5,2,0:0:0:0:
214,226,12635,1,2,3:0:0:0:
258,206,12885,1,0,0:0:0:0:
305,215,13135,1,2,3:0:0:0:
398,177,13385,5,2,0:0:0:0:
399,254,13635,2,0,L|400:326,2,52.5000020027161,2|0|2,3:0|0:0|3:0,0:0:0:0:
398,177,14385,5,2,0:0:0:0:
391,146,14635,1,0,3:0:0:0:
401,115,14885,1,0,0:0:0:0:
425,94,15135,1,0,3:0:0:0:
501,83,15385,5,2,0:0:0:0:
433,110,15635,1,0,3:0:0:0:
363,90,15885,1,0,0:0:0:0:
346,18,16135,1,0,3:0:0:0:
378,84,16385,5,2,0:0:0:0:
355,163,16635,5,0,3:0:0:0:
273,190,16885,5,2,0:0:0:0:
181,157,17135,5,0,3:0:0:0:
178,144,17385,6,0,L|179:113,3,17.500000667572,0|0|0|0,3:0|3:0|3:0|3:0,3:3:0:0:
230,73,17760,1,8,3:0:0:0:
230,73,17885,1,8,3:0:0:0:
159,43,18010,2,0,L|118:44,1,26.2500010013581,4|8,3:0|3:0,0:0:0:0:
88,104,18260,2,0,L|47:105,1,26.2500010013581,4|0,3:0|0:0,0:0:0:0:
0,186,20885,5,4,3:0:0:0:
34,190,20978,1,0,3:0:0:0:
69,192,21072,1,0,3:0:0:0:
104,194,21166,1,0,3:0:0:0:
141,196,21260,2,0,L|191:209,1,52.5000020027161,8|0,3:0|3:0,3:3:0:0:
264,248,21447,5,0,3:0:0:0:
258,300,21541,1,0,3:0:0:0:
253,352,21635,2,0,B|304:373|304:373|358:350,1,105.000004005432,4|2,3:1|2:0,0:0:0:0:
454,368,22010,2,0,L|454:243,1,105.000004005432,8|2,0:0|2:0,0:0:0:0:
461,249,22291,1,0,3:0:0:0:
467,234,22385,2,2,B|419:211|419:211|365:233,1,105.000004005432,0|0,0:0|2:0,2:2:0:0:
265,200,22760,1,8,0:0:0:0:
258,300,22947,1,2,3:0:0:0:
337,165,23135,2,0,P|259:162|179:148,1,157.500006008148,8|8,0:0|3:0,0:0:0:0:
167,139,23510,6,0,P|108:159|112:229,1,105.000004005432,4|2,0:0|2:0,0:0:0:0:
24,256,23885,1,8,0:0:0:0:
105,321,24072,1,2,2:0:0:0:
105,321,24166,1,0,3:0:0:0:
105,321,24260,1,0,1:0:0:0:
183,266,24447,1,2,2:0:0:0:
183,266,24541,1,0,3:0:0:0:
183,266,24635,1,8,1:0:0:0:
259,321,24822,1,2,3:0:0:0:
339,271,25010,2,0,L|338:147,1,105.000004005432,8|2,1:0|2:0,0:0:0:0:
347,151,25291,1,8,3:0:0:0:
356,136,25385,6,0,B|308:113|308:113|237:140,1,105.000004005432,4|2,1:0|2:0,0:0:0:0:
171,78,25760,1,8,1:0:0:0:
89,136,25947,1,2,2:0:0:0:
90,163,26041,1,0,3:0:0:0:
91,189,26135,1,0,1:0:0:0:
93,214,26228,1,0,3:0:0:0:
93,241,26322,2,0,P|118:254|149:255,1,52.5000020027161,0|0,3:0|3:0,3:3:0:0:
179,324,26510,2,0,P|221:328|262:375,1,105.000004005432,8|2,1:0|3:0,0:0:0:0:
481,311,26885,2,0,P|406:306|315:310,1,157.500006008148,8|8,1:0|3:0,0:0:0:0:
309,293,27260,6,0,B|291:247|291:247|313:192,1,105.000004005432,4|2,1:0|2:0,0:0:0:0:
370,127,27635,1,8,0:0:0:0:
287,69,27822,1,2,2:0:0:0:
260,72,27916,1,0,3:0:0:0:
234,76,28010,1,0,1:0:0:0:
206,80,28103,1,0,3:0:0:0:
182,84,28197,1,0,3:0:0:0:
103,15,28385,1,8,1:0:0:0:
71,49,28478,1,0,1:0:0:0:
60,95,28572,1,8,1:0:0:0:
74,140,28666,1,8,1:0:0:0:
110,169,28760,2,0,P|146:178|193:162,1,52.5000020027161,8|0,3:0|0:0,0:0:0:0:
268,198,28947,1,8,1:0:0:0:
270,246,29040,1,8,1:0:0:0:
240,283,29135,6,0,P|203:292|130:270,1,105.000004005432,4|2,0:0|2:0,0:0:0:0:
45,227,29510,2,0,L|42:343,1,105.000004005432,8|2,0:0|2:0,0:0:0:0:
34,346,29791,1,0,3:0:0:0:
26,359,29885,2,0,B|79:382|79:382|130:361,1,105.000004005432,0|2,1:0|2:0,0:0:0:0:
240,283,30260,1,8,0:0:0:0:
161,184,30447,1,2,3:0:0:0:
326,281,30635,1,8,0:0:0:0:
130,372,30822,5,2,2:0:0:0:
130,372,30916,1,8,3:0:0:0:
130,372,31010,2,0,L|125:221,1,105.000004005432,4|0,1:0|0:0,0:0:0:0:
122,189,31385,1,8,0:0:0:0:
207,231,31572,1,2,2:0:0:0:
261,157,31760,1,0,3:0:0:0:
281,151,31853,1,0,2:0:0:0:
301,147,31947,1,0,3:0:0:0:
362,88,32135,1,8,0:0:0:0:
305,230,32322,1,2,3:0:0:0:
187,119,32510,1,8,0:0:0:0:
433,178,32697,5,2,2:0:0:0:
433,178,32791,1,8,3:0:0:0:
433,178,32885,2,0,P|441:243|433:291,1,105.000004005432,4|2,0:0|2:0,0:0:0:0:
496,370,33260,1,8,0:0:0:0:
394,347,33447,1,2,2:0:0:0:
394,347,33541,1,0,3:0:0:0:
394,347,33635,2,0,L|316:364,1,52.5000020027161,0|0,1:0|0:0,0:0:0:0:
286,307,33822,1,2,2:0:0:0:
286,307,33916,1,0,3:0:0:0:
286,307,34010,2,0,L|208:290,1,52.5000020027161,8|0,1:0|0:0,0:0:0:0:
181,354,34197,2,0,L|105:372,1,52.5000020027161,2|0,3:0|0:0,0:0:0:0:
70,317,34385,2,0,L|10:302,1,52.5000020027161,8|0,1:0|0:0,0:0:0:0:
10,196,34572,5,2,2:0:0:0:
10,196,34666,1,8,3:0:0:0:
10,196,34760,2,0,B|69:188|58:229|122:218,1,105.000004005432,4|2,0:0|2:0,0:0:0:0:
197,167,35135,1,8,0:0:0:0:
289,218,35322,1,2,2:0:0:0:
316,221,35416,1,0,3:0:0:0:
343,224,35510,1,0,1:0:0:0:
369,229,35603,1,0,3:0:0:0:
396,232,35697,1,0,3:0:0:0:
463,172,35885,1,8,1:0:0:0:
470,125,35979,1,8,1:0:0:0:
451,81,36072,1,8,1:0:0:0:
410,56,36166,1,8,1:0:0:0:
362,56,36260,2,0,P|331:63|300:93,1,52.5000020027161,0|0,3:0|0:0,0:0:0:0:
256,10,36447,1,8,0:0:0:0:
217,46,36541,1,8,0:0:0:0:
219,98,36635,6,0,P|223:162|219:233,1,105.000004005432,4|2,3:1|2:0,0:0:0:0:
178,297,37010,2,0,P|242:293|313:297,1,105.000004005432,8|2,0:0|2:0,0:0:0:0:
294,303,37291,1,0,3:0:0:0:
306,311,37385,2,2,P|355:305|354:245,1,105.000004005432,0|0,0:0|2:0,2:2:0:0:
435,227,37760,1,8,0:0:0:0:
435,69,37947,1,2,3:0:0:0:
277,69,38135,1,8,0:0:0:0:
285,154,38322,5,0,0:0:0:0:
285,154,38416,1,8,3:0:0:0:
285,154,38510,1,4,0:0:0:0:
376,152,38697,1,2,2:0:0:0:
207,107,38885,5,8,0:0:0:0:
207,201,39072,1,2,2:0:0:0:
221,211,39167,1,0,3:0:0:0:
207,219,39260,1,0,1:0:0:0:
207,310,39447,2,0,L|207:372,2,52.5000020027161,2|0|8,2:0|3:0|1:0,0:0:0:0:
330,270,39822,5,2,3:0:0:0:
330,270,40010,2,0,B|415:259|377:340|464:360,1,157.500006008148,8|8,1:0|3:0,0:0:0:0:
462,359,40385,2,0,P|501:328|482:269,1,105.000004005432,4|2,1:0|2:0,0:0:0:0:
500,173,40760,5,8,1:0:0:0:
438,127,40947,1,2,2:0:0:0:
401,122,41041,1,0,3:0:0:0:
370,143,41135,1,0,1:0:0:0:
319,200,41322,1,0,3:0:0:0:
286,217,41416,1,0,3:0:0:0:
250,207,41510,1,8,1:0:0:0:
184,164,41697,1,2,3:0:0:0:
251,128,41885,1,8,1:0:0:0:
165,252,42072,5,0,0:0:0:0:
133,287,42166,1,8,3:0:0:0:
86,295,42260,2,0,P|52:311|22:383,2,105.000004005432,4|2|8,1:0|2:0|0:0,0:0:0:0:
228,301,42822,1,2,2:0:0:0:
243,305,42916,1,0,3:0:0:0:
232,316,43010,1,0,1:0:0:0:
320,286,43197,2,0,P|323:329|316:342,2,52.5000020027161,0|0|8,3:0|0:0|1:0,0:0:0:0:
265,222,43478,5,0,1:0:0:0:
255,192,43572,1,8,1:0:0:0:
254,160,43666,1,8,1:0:0:0:
261,129,43760,2,0,P|269:103|287:73,1,52.5000020027161,8|0,3:0|0:0,0:0:0:0:
259,7,43947,5,8,1:0:0:0:
311,11,44041,1,8,1:0:0:0:
363,16,44135,2,0,P|376:69|346:138,1,105.000004005432,4|2,0:0|2:0,0:0:0:0:
181,213,44510,2,0,P|168:160|198:91,1,105.000004005432,8|2,0:0|2:0,0:0:0:0:
173,98,44791,1,0,3:0:0:0:
164,84,44885,2,0,P|126:72|63:86,1,105.000004005432,0|2,1:0|2:0,0:0:0:0:
12,25,45260,1,8,0:0:0:0:
12,177,45447,1,2,3:0:0:0:
64,234,45635,2,0,B|118:243|103:278|161:296,1,105.000004005432,8|2,0:0|2:0,0:0:0:0:
158,305,45916,1,8,3:0:0:0:
171,313,46010,6,0,L|295:314,1,105.000004005432,4|0,1:0|0:0,0:0:0:0:
354,377,46385,1,8,0:0:0:0:
426,318,46572,1,2,2:0:0:0:
426,318,46666,1,0,0:0:0:0:
356,248,46853,1,0,2:0:0:0:
356,248,46947,1,0,3:0:0:0:
439,234,47135,1,8,0:0:0:0:
354,377,47322,1,2,3:0:0:0:
271,235,47510,1,8,0:0:0:0:
355,152,47697,5,2,2:0:0:0:
355,152,47791,1,8,3:0:0:0:
355,152,47885,2,0,P|408:150|477:165,2,105.000004005432,4|2|8,0:0|2:0|0:0,0:0:0:0:
278,97,48447,1,2,2:0:0:0:
278,97,48541,1,0,3:0:0:0:
200,149,48728,1,0,0:0:0:0:
200,149,48822,1,2,2:0:0:0:
274,207,49010,1,8,1:0:0:0:
359,65,49197,1,2,3:0:0:0:
193,65,49385,1,8,1:0:0:0:
355,152,49572,5,2,2:0:0:0:
372,195,49666,1,8,3:0:0:0:
366,242,49760,2,0,P|359:293|335:344,1,105.000004005432,4|2,0:0|2:0,0:0:0:0:
245,366,50135,1,8,0:0:0:0:
156,338,50322,1,2,2:0:0:0:
156,338,50416,1,0,3:0:0:0:
156,338,50510,2,0,L|143:282,1,52.5000020027161,0|8,1:0|3:0,0:0:0:0:
71,270,50697,2,0,L|88:215,1,52.5000020027161,2|8,3:2|3:0,0:0:0:0:
26,169,50885,2,0,L|68:130,1,52.5000020027161,8|8,3:0|3:0,0:0:0:0:
26,60,51072,5,8,1:0:0:0:
67,50,51166,1,8,1:0:0:0:
107,62,51260,2,0,P|133:79|148:105,1,52.5000020027161,0|0,3:0|3:0,0:0:0:0:
226,84,51447,5,8,0:0:0:0:
248,131,51541,1,8,0:0:0:0:
239,183,51635,2,0,P|250:253|395:248,1,210.000008010865,4|8,3:1|0:0,0:0:0:0:
403,347,52197,1,2,2:0:0:0:
417,341,52291,1,0,3:0:0:0:
429,331,52385,1,0,0:0:0:0:
505,349,52572,1,0,2:0:0:0:
508,334,52666,1,0,0:0:0:0:
504,318,52760,1,8,0:0:0:0:
492,225,52947,1,2,3:0:0:0:
478,132,53135,1,8,0:0:0:0:
509,38,53322,5,0,0:0:0:0:
509,38,53416,1,8,3:0:0:0:
509,38,53510,2,0,L|376:30,1,105.000004005432,4|2,0:0|2:0,0:0:0:0:
256,97,53885,1,8,0:0:0:0:
323,148,54072,1,2,2:0:0:0:
341,108,54166,1,0,3:0:0:0:
332,66,54260,1,0,1:0:0:0:
188,51,54447,1,2,2:0:0:0:
170,91,54541,1,0,3:0:0:0:
179,133,54635,1,8,1:0:0:0:
247,183,54822,1,2,3:0:0:0:
265,17,55010,1,8,1:0:0:0:
173,215,55197,5,2,2:0:0:0:
179,256,55291,1,8,3:0:0:0:
186,297,55385,2,0,B|231:278|273:313|252:320|293:351|345:332,1,157.500006008148,4|0,1:0|0:0,0:0:0:0:
347,337,55760,2,0,L|371:232,1,105.000004005432,8|2,1:0|2:0,0:0:0:0:
383,226,56041,1,0,3:0:0:0:
395,216,56135,2,0,L|419:111,1,105.000004005432,0|0,1:0|3:0,3:3:0:0:
370,45,56510,1,8,1:0:0:0:
181,45,56697,1,2,3:0:0:0:
181,234,56885,1,8,1:0:0:0:
370,234,57072,5,0,0:0:0:0:
390,238,57166,1,8,3:0:0:0:
410,242,57260,2,0,P|445:314|350:301,1,210.000008010865,4|8,1:0|0:0,0:0:0:0:
276,325,57822,5,2,2:0:0:0:
272,300,57916,1,0,3:0:0:0:
283,276,58010,1,0,1:0:0:0:
228,215,58197,5,0,3:0:0:0:
251,194,58291,1,0,0:0:0:0:
283,194,58385,1,8,1:0:0:0:
299,111,58572,5,8,1:0:0:0:
337,124,58666,1,8,1:0:0:0:
356,157,58760,1,8,3:0:0:0:
438,128,58947,5,8,1:0:0:0:
447,178,59041,1,8,1:0:0:0:
423,219,59135,1,4,0:0:0:0:
348,237,59322,1,2,2:0:0:0:
283,194,59510,1,8,0:0:0:0:
294,116,59697,1,2,2:0:0:0:
304,80,59791,1,0,3:0:0:0:
290,45,59885,1,0,1:0:0:0:
223,10,60072,1,2,2:0:0:0:
154,41,60260,1,8,0:0:0:0:
153,115,60447,1,2,3:0:0:0:
220,152,60635,1,8,0:0:0:0:
294,116,60822,5,2,2:0:0:0:
330,111,60916,1,8,3:0:0:0:
362,128,61010,1,4,1:0:0:0:
414,186,61197,1,0,0:0:0:0:
402,262,61385,1,8,0:0:0:0:
330,293,61572,1,2,2:0:0:0:
330,293,61666,1,0,0:0:0:0:
261,260,61853,1,2,2:0:0:0:
261,260,61947,1,0,1:0:0:0:
257,183,62135,1,8,0:0:0:0:
192,139,62322,1,2,3:0:0:0:
121,170,62510,1,8,0:0:0:0:
27,243,62697,5,2,2:0:0:0:
40,281,62791,1,8,3:0:0:0:
76,302,62885,2,0,P|113:311|194:291,1,105.000004005432,4|2,0:0|2:0,0:0:0:0:
251,334,63260,1,8,0:0:0:0:
254,183,63447,1,2,2:0:0:0:
185,221,63635,1,0,1:0:0:0:
320,292,63822,1,2,2:0:0:0:
328,261,63916,1,0,3:0:0:0:
320,230,64010,1,8,1:0:0:0:
250,259,64197,1,2,3:0:0:0:
398,312,64385,2,0,P|408:260|382:187,1,105.000004005432,8|2,1:0|2:0,0:0:0:0:
479,188,64760,5,4,0:0:0:0:
476,30,64947,1,2,2:0:0:0:
318,31,65135,1,8,0:0:0:0:
282,100,65322,1,2,2:0:0:0:
322,112,65416,1,0,3:0:0:0:
362,97,65510,1,0,1:0:0:0:
226,40,65697,1,0,3:0:0:0:
186,28,65791,1,0,0:0:0:0:
146,43,65885,2,0,P|143:73|147:103,1,52.5000020027161,8|8,1:0|1:0,0:0:0:0:
84,149,66072,5,8,1:0:0:0:
117,174,66166,1,8,1:0:0:0:
158,177,66260,1,0,3:0:0:0:
195,158,66353,1,0,0:0:0:0:
230,135,66447,1,8,0:0:0:0:
271,138,66541,1,8,0:0:0:0:
302,165,66635,6,0,P|315:218|298:294,1,105.000004005432,4|2,3:1|2:0,0:0:0:0:
363,326,67010,1,8,0:0:0:0:
234,330,67197,1,2,2:0:0:0:
234,330,67291,1,0,3:0:0:0:
234,330,67385,1,0,0:0:0:0:
108,329,67572,1,2,2:0:0:0:
61,267,67760,2,0,B|44:219|44:219|75:175,1,105.000004005432,8|2,0:0|3:0,0:0:0:0:
78,82,68135,2,0,L|240:83,1,157.500006008148,8|8,0:0|3:0,0:0:0:0:
251,94,68510,6,0,B|276:144|276:144|250:195,1,105.000004005432,4|2,0:0|2:0,0:0:0:0:
320,226,68885,1,8,0:0:0:0:
255,288,69072,1,2,2:0:0:0:
218,308,69166,1,0,3:0:0:0:
175,306,69260,1,0,1:0:0:0:
142,279,69353,1,0,3:0:0:0:
108,253,69447,1,2,2:0:0:0:
65,254,69541,1,0,3:0:0:0:
29,275,69635,2,0,P|13:316|31:376,1,105.000004005432,8|2,1:0|3:0,0:0:0:0:
206,229,70010,2,0,P|222:188|204:128,1,105.000004005432,8|0,1:0|0:0,0:0:0:0:
215,118,70291,1,8,3:0:0:0:
225,105,70385,6,0,L|89:103,1,105.000004005432,4|2,1:0|2:0,0:0:0:0:
125,25,70760,1,8,1:0:0:0:
296,34,70947,1,2,2:0:0:0:
296,34,71041,1,0,3:0:0:0:
296,34,71135,1,0,1:0:0:0:
298,201,71322,1,0,3:0:0:0:
222,129,71510,1,8,1:0:0:0:
374,129,71697,1,2,3:0:0:0:
374,281,71885,1,8,1:0:0:0:
222,281,72072,5,0,0:0:0:0:
213,287,72166,1,8,3:0:0:0:
205,293,72260,2,0,P|155:328|136:381,1,105.000004005432,4|2,1:0|2:0,0:0:0:0:
59,380,72635,1,8,0:0:0:0:
23,287,72822,1,2,2:0:0:0:
23,287,72916,1,0,3:0:0:0:
73,196,73103,1,0,0:0:0:0:
73,196,73197,1,0,3:0:0:0:
8,112,73385,1,8,1:0:0:0:
56,93,73478,1,0,1:0:0:0:
108,97,73572,1,8,1:0:0:0:
147,132,73666,1,8,1:0:0:0:
166,181,73760,1,8,3:0:0:0:
200,219,73853,1,0,0:0:0:0:
250,235,73947,1,8,1:0:0:0:
301,225,74041,1,8,1:0:0:0:
319,191,74135,6,0,P|312:126|326:46,1,140,4|8,0:2|0:0,0:0:0:0:
431,63,74697,1,2,2:0:0:0:
431,63,74791,1,0,3:0:0:0:
431,63,74885,2,0,P|437:128|424:208,1,140,2|10,1:2|1:2,0:0:0:0:
484,257,75447,1,2,3:0:0:0:
376,323,75635,5,6,0:2:0:0:
278,314,75822,1,2,2:0:0:0:
180,301,76010,1,8,1:0:0:0:
134,229,76197,5,2,2:0:0:0:
132,218,76291,1,0,3:0:0:0:
129,207,76385,1,0,3:0:0:0:
126,196,76478,1,0,3:0:0:0:
123,185,76572,1,2,3:0:0:0:
121,174,76666,1,8,3:0:0:0:
118,163,76760,1,8,1:0:0:0:
145,76,76947,1,8,3:0:0:0:
292,62,77135,6,0,B|378:77|327:110|430:133,1,140,4|8,0:2|1:0,0:0:0:0:
506,111,77697,1,2,0:2:0:0:
503,99,77791,1,0,3:0:0:0:
491,104,77885,1,8,3:0:0:0:
426,58,78072,1,2,2:2:0:0:
415,47,78166,1,8,0:0:0:0:
293,141,78353,1,2,2:2:0:0:
282,152,78447,1,8,0:0:0:0:
292,62,78635,5,6,0:2:0:0:
408,133,78822,1,2,2:0:0:0:
353,191,79010,2,0,L|354:306,1,105,8|0,0:0|3:0,0:0:0:0:
291,343,79385,2,0,L|243:350,1,35,0|8,3:0|3:0,0:0:0:0:
249,274,79572,2,0,L|201:281,1,35,0|8,3:0|3:0,3:3:0:0:
136,277,79760,1,8,0:0:0:0:
64,156,79947,1,2,3:0:0:0:
172,74,80135,5,6,0:2:0:0:
264,105,80322,1,2,0:2:0:0:
200,149,80510,1,8,1:0:0:0:
200,149,80603,1,0,0:0:0:0:
242,37,80791,1,8,1:0:0:0:
242,37,80885,1,0,3:0:0:0:
344,115,81072,5,2,3:0:0:0:
347,203,81260,1,8,0:0:0:0:
350,293,81447,1,2,3:0:0:0:
467,332,81635,6,0,B|429:321|391:342|417:352|380:381|328:363,1,140,6|8,0:2|0:0,0:0:0:0:
250,363,82197,1,2,2:0:0:0:
243,342,82291,1,0,3:0:0:0:
245,321,82385,1,8,3:0:0:0:
289,255,82572,1,2,2:0:0:0:
291,234,82666,1,0,3:0:0:0:
284,213,82760,1,8,0:0:0:0:
226,140,82947,1,2,3:0:0:0:
258,53,83135,5,6,0:2:0:0:
341,1,83322,1,2,2:0:0:0:
422,57,83510,1,8,0:0:0:0:
346,116,83697,1,2,2:0:0:0:
346,116,83791,1,8,3:0:0:0:
346,116,83885,1,8,1:0:0:0:
163,66,84072,6,0,L|163:31,2,35,2|8|8,0:2|3:0|0:0,0:0:0:0:
86,128,84447,1,2,1:2:0:0:
158,195,84635,1,6,0:2:0:0:
234,133,84822,1,2,2:0:0:0:
250,215,85010,6,0,L|237:322,1,105,8|8,0:0|3:0,0:0:0:0:
245,336,85385,2,0,L|295:357,1,35,8|0,0:0|3:0,0:0:0:0:
346,311,85572,1,8,1:0:0:0:
346,311,85666,1,0,3:0:0:0:
346,311,85760,2,0,L|396:290,1,35,8|0,1:0|3:0,0:0:0:0:
451,329,85947,5,8,1:0:0:0:
467,282,86041,1,8,1:0:0:0:
447,236,86135,2,0,P|413:201|316:193,1,140,4|8,0:0|0:0,0:0:0:0:
267,137,86697,1,2,2:0:0:0:
166,238,86885,2,0,P|120:260|67:235,1,105,8|0,3:0|0:0,0:0:0:0:
50,243,87260,1,8,0:0:0:0:
50,145,87447,1,2,3:0:0:0:
50,45,87635,6,0,B|116:20|116:20|209:60,1,140,4|8,3:0|0:0,0:0:0:0:
263,13,88197,1,2,2:0:0:0:
271,28,88291,1,0,3:0:0:0:
256,30,88385,1,8,3:0:0:0:
347,18,88572,1,0,3:0:0:0:
347,53,88666,1,0,3:0:0:0:
327,82,88760,1,8,0:0:0:0:
252,107,88947,1,2,3:0:0:0:
202,172,89135,6,0,P|205:232|201:317,1,140,4|8,0:0|0:0,0:0:0:0:
285,368,89697,1,2,2:0:0:0:
285,368,89791,1,0,3:0:0:0:
285,368,89885,1,8,3:0:0:0:
363,319,90072,1,0,3:0:0:0:
363,319,90166,1,0,3:0:0:0:
363,319,90260,1,8,0:0:0:0:
433,376,90447,1,2,3:0:0:0:
488,228,90635,6,0,P|467:199|354:175,1,140,4|8,3:0|0:0,0:0:0:0:
281,108,91197,1,2,2:0:0:0:
277,131,91291,1,0,3:0:0:0:
274,154,91385,1,8,3:0:0:0:
271,177,91478,1,0,3:0:0:0:
268,200,91572,1,0,3:0:0:0:
265,223,91665,1,0,3:0:0:0:
262,246,91759,1,8,0:0:0:0:
185,201,91947,1,2,3:0:0:0:
359,96,92135,6,0,P|416:102|448:173,1,140,4|8,0:0|0:0,0:0:0:0:
496,234,92697,1,2,2:0:0:0:
492,243,92791,1,0,3:0:0:0:
487,252,92885,1,8,3:0:0:0:
405,347,93072,1,2,2:3:0:0:
334,242,93260,1,8,0:0:0:0:
266,347,93447,1,2,3:0:0:0:
122,320,93635,6,0,L|123:164,1,140,4|8,3:0|0:0,0:0:0:0:
43,171,94197,1,2,2:0:0:0:
50,151,94291,1,0,3:0:0:0:
56,130,94385,1,8,3:0:0:0:
190,136,94572,1,0,3:0:0:0:
196,157,94666,1,0,3:0:0:0:
203,177,94760,1,8,0:0:0:0:
123,77,94947,1,2,3:0:0:0:
287,24,95135,6,0,B|367:24|333:88|400:108,1,140,4|8,0:0|0:0,0:0:0:0:
388,182,95697,1,2,2:0:0:0:
405,184,95791,1,0,3:0:0:0:
421,177,95885,1,8,3:0:0:0:
468,112,96072,1,2,2:3:0:0:
312,143,96260,1,8,0:0:0:0:
432,265,96447,1,2,3:0:0:0:
405,184,96635,6,0,L|386:348,1,140,4|8,3:0|0:0,0:0:0:0:
257,333,97197,5,2,2:0:0:0:
269,350,97291,1,0,3:0:0:0:
284,336,97385,1,8,3:0:0:0:
263,295,97478,1,0,3:0:0:0:
222,274,97572,1,0,3:0:0:0:
176,272,97666,1,0,3:0:0:0:
141,302,97760,1,8,1:0:0:0:
110,335,97853,1,8,1:0:0:0:
65,343,97947,1,8,1:0:0:0:
22,327,98041,1,8,1:0:0:0:
7,287,98135,6,0,L|9:122,1,157.500006008148,4|0,0:0|0:0,0:0:0:0:
1,109,98510,1,8,0:0:0:0:
98,71,98697,1,2,2:0:0:0:
98,71,98791,1,0,3:0:0:0:
98,71,98885,1,8,3:0:0:0:
82,148,99072,1,2,0:2:0:0:
13,27,99260,1,8,0:0:0:0:
180,44,99447,1,2,3:0:0:0:
232,108,99635,6,0,B|310:112|267:184|344:217,1,157.500006008148,4|0,0:0|0:0,0:0:0:0:
346,228,100010,1,8,0:0:0:0:
425,243,100197,1,2,2:0:0:0:
430,222,100291,1,0,3:0:0:0:
420,202,100385,1,8,3:0:0:0:
380,128,100572,1,2,0:2:0:0:
366,141,100666,1,0,3:0:0:0:
217,187,100853,1,0,2:0:0:0:
203,200,100947,1,2,3:0:0:0:
336,213,101135,5,4,0:0:0:0:
232,108,101322,1,2,0:2:0:0:
263,253,101510,5,8,0:0:0:0:
417,196,101697,1,2,2:0:0:0:
417,196,101791,1,0,3:0:0:0:
417,196,101885,1,8,3:0:0:0:
305,68,102072,1,2,0:2:0:0:
158,132,102259,1,8,0:0:0:0:
285,159,102447,1,2,3:0:0:0:
180,38,102635,6,0,P|136:132|80:240,1,210.000008010865,4|8,0:0|0:0,0:0:0:0:
10,227,103197,1,2,2:0:0:0:
17,252,103291,1,0,3:0:0:0:
17,278,103385,1,8,3:0:0:0:
106,315,103572,1,2,0:2:0:0:
85,331,103666,1,0,3:0:0:0:
73,354,103760,1,8,0:0:0:0:
204,303,103947,1,2,3:0:0:0:
323,343,104135,6,0,P|390:351|486:379,1,157.500006008148,4|0,0:0|0:0,0:0:0:0:
488,368,104510,1,8,0:0:0:0:
480,273,104697,1,2,2:0:0:0:
463,252,104791,1,0,3:0:0:0:
438,241,104885,1,8,3:0:0:0:
343,256,105072,1,2,0:2:0:0:
403,322,105260,1,8,0:0:0:0:
375,183,105447,1,2,3:0:0:0:
245,271,105635,5,4,0:0:0:0:
223,360,105822,1,2,0:2:0:0:
167,234,106010,5,8,0:0:0:0:
159,214,106103,1,0,2:0:0:0:
231,98,106291,1,0,3:0:0:0:
239,118,106384,1,8,3:0:0:0:
264,191,106572,1,2,0:2:0:0:
134,141,106760,1,8,0:0:0:0:
284,183,106947,1,2,3:0:0:0:
111,148,107135,6,0,P|131:92|136:42,1,105.000004005432,4|2,0:0|0:2,0:0:0:0:
21,111,107510,1,8,0:0:0:0:
167,221,107697,5,2,2:0:0:0:
167,221,107791,1,0,3:0:0:0:
167,221,107885,2,0,P|187:277|192:327,1,105.000004005432,8|2,3:0|0:2,0:0:0:0:
55,250,108260,1,8,0:0:0:0:
111,148,108447,1,2,3:0:0:0:
251,4,108635,6,0,P|256:71|255:183,1,157.500006008148,4|0,0:0|0:0,0:0:0:0:
331,180,109010,2,8,P|320:223|318:272,1,52.5000020027161,0|0,0:0|0:0,0:0:0:0:
242,246,109197,2,0,P|253:289|255:338,1,52.5000020027161,2|8,0:2|0:0,0:0:0:0:
195,348,109385,5,0,3:0:0:0:
227,374,109478,1,0,3:0:0:0:
269,375,109572,1,0,0:0:0:0:
308,359,109666,1,0,3:0:0:0:
329,322,109760,1,8,0:0:0:0:
360,294,109853,1,8,0:0:0:0:
400,283,109947,1,8,0:0:0:0:
440,294,110041,1,8,0:0:0:0:
474,318,110135,6,0,P|481:280|504:220,1,70,4|2,3:1|2:0,0:0:0:0:
400,202,110510,2,0,P|391:115|390:98,1,105,8|0,0:0|3:0,0:0:0:0:
401,83,110885,1,0,0:0:0:0:
294,51,111072,1,0,2:0:0:0:
294,51,111166,1,0,0:0:0:0:
294,51,111260,1,8,0:0:0:0:
214,118,111447,2,0,P|213:135|212:152,1,35,2|0,3:0|0:0,0:0:0:0:
256,214,111635,1,8,0:0:0:0:
54,161,111822,5,0,0:0:0:0:
54,161,111916,1,8,3:0:0:0:
54,161,112010,2,0,P|62:105|61:14,1,140,4|8,0:0|0:0,0:0:0:0:
130,190,112572,1,2,2:0:0:0:
130,190,112666,1,0,3:0:0:0:
130,190,112760,2,0,P|172:166|211:156,1,70,0|2,1:0|2:0,0:0:0:0:
84,262,113041,1,0,3:0:0:0:
84,262,113135,2,0,P|130:274|165:295,1,70,8|2,1:0|3:0,0:0:0:0:
40,329,113510,1,8,1:0:0:0:
263,371,113791,5,8,3:0:0:0:
263,371,113885,2,0,P|307:360|357:346,1,70,4|2,1:0|2:0,0:0:0:0:
377,266,114260,1,8,1:0:0:0:
422,349,114447,1,2,2:0:0:0:
286,279,114635,2,0,L|296:236,1,35,0|0,1:0|3:0,0:0:0:0:
249,186,114822,1,0,3:0:0:0:
249,186,114916,1,0,3:0:0:0:
249,186,115010,1,8,1:0:0:0:
300,96,115197,1,2,3:0:0:0:
186,18,115385,2,0,P|189:64|191:132,1,105,8|8,1:0|3:0,0:0:0:0:
182,145,115760,5,4,1:0:0:0:
260,223,115947,1,2,2:0:0:0:
342,147,116135,1,8,0:0:0:0:
272,72,116323,1,2,2:0:0:0:
272,72,116416,1,0,3:0:0:0:
272,72,116510,1,0,1:0:0:0:
260,146,116697,1,0,3:0:0:0:
436,149,116885,5,8,1:0:0:0:
436,149,116978,1,0,1:0:0:0:
436,149,117072,1,8,1:0:0:0:
430,183,117166,1,8,1:0:0:0:
425,217,117260,1,8,3:0:0:0:
421,255,117353,1,0,0:0:0:0:
391,281,117447,1,8,1:0:0:0:
413,313,117541,1,8,1:0:0:0:
438,289,117635,1,4,0:0:0:0:
114,303,118010,6,0,P|97:252|85:216,1,70,8|2,0:0|2:0,0:0:0:0:
57,229,118291,1,0,3:0:0:0:
23,217,118385,2,0,P|34:178|40:144,1,70,0|2,1:0|2:0,0:0:0:0:
30,115,118666,1,0,0:0:0:0:
54,89,118760,1,8,0:0:0:0:
40,15,118947,1,2,3:0:0:0:
156,63,119135,1,8,0:0:0:0:
361,13,119416,5,8,3:0:0:0:
361,13,119510,2,0,P|315:10|283:4,1,70,4|0,1:0|0:0,0:0:0:0:
270,81,119885,2,0,P|336:89|426:108,1,140,8|0,0:0|3:0,0:0:0:0:
488,78,120447,1,0,3:0:0:0:
488,78,120541,1,0,0:0:0:0:
488,78,120635,2,0,P|488:132|490:166,1,70,8|2,0:0|3:0,0:0:0:0:
428,184,121010,1,8,0:0:0:0:
503,343,121197,5,2,2:0:0:0:
503,343,121291,1,8,3:0:0:0:
503,343,121385,2,0,P|493:278|486:224,1,105,4|0,0:0|0:0,0:0:0:0:
461,262,121760,2,0,P|431:275|393:288,1,70,8|2,0:0|2:0,0:0:0:0:
303,241,122135,1,0,1:0:0:0:
268,234,122228,1,0,0:0:0:0:
233,226,122322,1,2,2:0:0:0:
179,175,122510,1,8,1:0:0:0:
29,232,122697,1,2,3:0:0:0:
30,155,122885,2,0,P|72:166|104:173,1,70,8|2,1:0|2:0,0:0:0:0:
136,242,123166,5,8,3:0:0:0:
136,242,123260,2,0,P|121:307|113:386,1,140,4|8,0:0|0:0,0:0:0:0:
192,363,123822,1,2,2:0:0:0:
47,288,124010,1,0,1:0:0:0:
47,288,124103,1,0,3:0:0:0:
47,288,124197,1,0,3:0:0:0:
198,207,124385,1,8,1:0:0:0:
198,207,124478,1,8,1:0:0:0:
189,172,124572,1,8,1:0:0:0:
181,137,124666,1,8,1:0:0:0:
255,42,124853,1,0,0:0:0:0:
255,42,124947,1,8,0:0:0:0:
262,76,125041,1,8,0:0:0:0:
269,110,125135,5,4,0:0:0:0:
356,158,125322,1,2,2:0:0:0:
378,69,125510,2,0,P|436:87|471:95,1,70,8|2,0:0|2:0,0:0:0:0:
444,89,125791,1,0,3:0:0:0:
444,89,125885,1,0,1:0:0:0:
489,214,126072,5,2,2:0:0:0:
424,175,126260,1,8,0:0:0:0:
417,254,126447,1,2,3:0:0:0:
349,213,126635,1,8,0:0:0:0:
277,337,126822,5,2,2:0:0:0:
277,337,126916,1,8,3:0:0:0:
277,337,127010,2,0,P|234:327|141:307,1,140,4|8,1:0|0:0,0:0:0:0:
78,208,127572,1,2,2:0:0:0:
191,199,127760,1,0,0:0:0:0:
78,208,127947,1,0,1:0:0:0:
78,208,128041,1,0,0:0:0:0:
78,208,128135,2,0,P|68:144|65:106,1,70,8|2,0:0|3:0,0:0:0:0:
186,49,128510,2,0,P|181:83|175:118,1,70,8|2,0:0|2:0,0:0:0:0:
246,144,128791,5,8,3:0:0:0:
246,144,128885,2,0,P|290:129|349:122,1,105,4|0,0:0|0:0,0:0:0:0:
373,98,129260,2,0,P|381:155|392:185,1,70,8|2,0:0|2:0,0:0:0:0:
471,220,129635,1,0,1:0:0:0:
395,275,129822,1,2,2:0:0:0:
395,275,129916,1,0,3:0:0:0:
395,275,130010,1,8,1:0:0:0:
306,222,130197,1,2,3:0:0:0:
395,275,130385,2,0,P|387:332|376:362,1,70,8|2,1:0|2:0,0:0:0:0:
207,331,130760,6,0,P|187:292|175:221,1,105,4|0,0:0|0:0,0:0:0:0:
140,228,131135,2,0,P|161:176|166:140,1,70,8|2,0:0|2:0,0:0:0:0:
111,96,131510,1,0,1:0:0:0:
118,72,131603,1,0,0:0:0:0:
125,48,131697,1,0,3:0:0:0:
133,24,131791,1,0,0:0:0:0:
142,1,131885,1,8,1:0:0:0:
207,46,132072,1,8,1:0:0:0:
217,23,132166,1,8,1:0:0:0:
225,0,132260,1,0,3:0:0:0:
271,90,132447,1,8,0:0:0:0:
281,67,132541,1,8,0:0:0:0:
289,44,132635,1,4,3:1:0:0:
469,249,133010,6,0,P|414:232|380:226,1,70,8|2,0:0|2:0,0:0:0:0:
370,159,133385,2,0,P|318:173|258:196,1,105
246,184,133760,2,0,P|229:229|225:262,1,70,8|2,0:0|3:0,0:0:0:0:
144,285,134135,2,0,P|161:330|165:363,1,70,8|0,0:0|0:0,0:0:0:0:
61,277,134416,5,8,3:0:0:0:
61,277,134510,2,0,P|62:233|29:132,1,140,4|8,0:0|0:0,0:0:0:0:
104,67,135072,1,2,2:0:0:0:
146,152,135260,2,0,P|177:125|189:95,1,70,0|2,1:0|2:0,0:0:0:0:
193,74,135541,1,0,3:0:0:0:
206,53,135635,1,8,1:0:0:0:
289,99,135822,1,2,3:0:0:0:
338,22,136010,2,0,P|374:37|409:48,1,70,8|0,1:0|0:0,0:0:0:0:
501,165,136385,6,0,P|477:230|474:300,1,140,4|8,1:0|1:0,0:0:0:0:
398,362,136947,1,2,2:0:0:0:
336,280,137135,1,0,1:0:0:0:
390,205,137322,1,0,3:0:0:0:
390,205,137416,1,0,0:0:0:0:
390,205,137510,2,0,P|376:162|368:123,1,70,8|2,1:0|3:0,0:0:0:0:
251,127,137885,1,8,1:0:0:0:
307,32,138072,1,0,0:0:0:0:
251,127,138260,6,0,P|195:134|104:143,1,140,4|8,1:0|0:0,0:0:0:0:
22,101,138822,1,2,2:0:0:0:
22,101,138916,1,0,3:0:0:0:
22,101,139010,1,0,0:0:0:0:
29,203,139197,1,0,3:0:0:0:
29,203,139291,1,0,0:0:0:0:
29,203,139385,1,8,1:0:0:0:
40,224,139478,1,0,1:0:0:0:
51,245,139572,1,8,1:0:0:0:
59,268,139666,1,8,1:0:0:0:
62,292,139760,1,8,3:0:0:0:
145,337,139947,5,8,1:0:0:0:
165,323,140041,1,8,1:0:0:0:
189,323,140135,2,0,P|237:328|339:358,1,140,4|8,0:2|0:0,0:0:0:0:
411,265,140697,1,2,2:0:0:0:
411,265,140791,2,0,P|356:248|289:235,1,105,0|0,3:0|0:0,0:0:0:0:
245,120,141260,2,0,P|294:128|337:143,1,70,10|2,1:2|3:0,0:0:0:0:
383,67,141635,5,6,0:2:0:0:
478,114,141822,1,2,2:0:0:0:
385,112,142010,1,8,1:0:0:0:
478,74,142197,1,2,2:0:0:0:
319,20,142385,5,0,3:0:0:0:
295,25,142478,1,0,3:0:0:0:
271,31,142572,1,2,3:0:0:0:
247,37,142666,1,8,3:0:0:0:
223,43,142760,1,8,1:0:0:0:
140,18,142947,1,8,3:0:0:0:
39,93,143135,5,4,0:2:0:0:
191,256,143510,1,8,1:0:0:0:
113,285,143697,1,2,0:2:0:0:
113,285,143791,1,0,3:0:0:0:
113,285,143885,2,0,P|118:243|116:202,1,70,8|2,3:0|2:2,0:0:0:0:
32,172,144166,1,8,0:0:0:0:
32,172,144260,2,0,P|31:206|36:241,1,70,0|8,0:0|0:0,0:0:0:0:
121,285,144541,1,0,0:0:0:0:
121,285,144635,6,0,P|116:250|116:215,1,70,6|2,0:2|2:0,0:0:0:0:
175,155,144916,1,0,0:0:0:0:
175,155,145010,1,8,0:0:0:0:
254,224,145197,1,0,0:0:0:0:
346,175,145385,1,0,3:0:0:0:
429,206,145572,1,0,3:0:0:0:
339,160,145760,1,8,0:0:0:0:
257,240,145947,1,2,3:0:0:0:
163,139,146135,6,0,P|170:80|175:9,1,105,6|0,0:2|0:0,0:0:0:0:
171,10,146510,2,0,P|216:27|246:38,1,70,8|0,1:0|0:0,0:0:0:0:
286,94,146791,1,8,1:0:0:0:
286,94,146885,2,0,P|337:82|381:79,1,70,0|2,3:0|3:0,0:0:0:0:
436,18,147260,1,8,0:0:0:0:
508,150,147447,5,2,3:0:0:0:
508,150,147541,1,0,0:0:0:0:
508,150,147635,2,0,P|451:144|418:140,1,70,6|0,0:2|0:0,0:0:0:0:
377,257,148010,2,0,P|434:251|467:247,1,70,8|2,0:0|2:0,0:0:0:0:
346,186,148291,1,0,3:0:0:0:
346,186,148385,2,0,P|340:129|336:96,1,70,8|2,3:0|2:0,0:0:0:0:
278,227,148666,1,0,3:0:0:0:
278,227,148760,2,0,P|221:233|188:237,1,70,8|2,0:0|3:0,0:0:0:0:
173,221,149041,1,0,0:0:0:0:
138,256,149135,5,6,0:2:0:0:
138,256,149510,1,8,0:0:0:0:
160,127,149697,1,2,2:0:0:0:
160,127,149791,1,8,3:0:0:0:
160,127,149885,1,8,1:0:0:0:
284,186,150072,1,2,0:2:0:0:
284,186,150166,1,8,3:0:0:0:
284,186,150260,1,8,0:0:0:0:
255,310,150447,1,2,1:2:0:0:
195,250,150635,5,6,0:2:0:0:
321,365,150822,1,2,2:0:0:0:
331,262,151010,1,8,0:0:0:0:
178,355,151197,1,0,0:0:0:0:
115,302,151385,1,8,0:0:0:0:
107,278,151478,1,0,3:0:0:0:
101,254,151572,1,8,1:0:0:0:
95,230,151666,1,0,3:0:0:0:
90,205,151760,1,8,1:0:0:0:
85,181,151853,1,0,3:0:0:0:
80,156,151947,1,8,1:0:0:0:
75,131,152041,1,8,1:0:0:0:
70,106,152135,2,0,P|86:60|88:24,1,70,4|0,0:0|0:0,0:0:0:0:
185,9,152510,6,0,P|190:43|203:75,1,70,8|2,0:0|2:0,0:0:0:0:
260,126,152791,1,0,0:0:0:0:
260,126,152885,2,0,P|250:183|246:219,1,70,8|0,3:0|0:0,0:0:0:0:
293,253,153260,2,0,P|330:239|370:233,1,70,8|2,0:0|3:0,0:0:0:0:
407,174,153635,1,4,3:0:0:0:
482,251,153822,1,0,0:0:0:0:
501,172,154010,1,8,0:0:0:0:
359,233,154197,2,0,P|324:239|217:294,1,140,2|0,2:0|3:0,0:0:0:0:
130,223,154760,1,8,0:0:0:0:
209,122,154947,1,2,3:0:0:0:
359,233,155135,6,0,P|324:239|217:294,1,140,4|8,0:0|0:0,0:0:0:0:
163,362,155697,1,2,2:0:0:0:
126,268,155885,2,0,P|91:245|57:224,1,70,8|0,3:0|3:0,0:0:0:0:
204,189,156260,1,8,0:0:0:0:
204,189,156447,1,2,3:0:0:0:
298,60,156635,6,0,P|229:70|159:91,1,140,4|8,3:0|0:0,0:0:0:0:
304,217,157197,1,2,2:0:0:0:
304,217,157291,1,0,3:0:0:0:
304,217,157385,1,8,3:0:0:0:
347,132,157572,1,0,3:0:0:0:
261,138,157760,1,8,0:0:0:0:
386,206,157947,1,2,3:0:0:0:
298,60,158135,6,0,P|229:70|159:91,1,140,4|8,0:0|0:0,0:0:0:0:
60,47,158697,1,2,2:0:0:0:
60,47,158791,1,0,3:0:0:0:
60,47,158885,1,8,3:0:0:0:
44,167,159072,1,2,2:3:0:0:
165,194,159260,1,8,0:0:0:0:
181,69,159447,1,2,3:0:0:0:
14,248,159635,6,0,P|83:258|153:279,1,140,4|8,3:0|0:0,0:0:0:0:
293,229,160197,1,2,2:0:0:0:
293,229,160291,1,0,3:0:0:0:
293,229,160385,1,8,3:0:0:0:
309,349,160572,1,0,3:0:0:0:
188,376,160760,1,8,0:0:0:0:
172,251,160947,1,2,3:0:0:0:
398,282,161135,6,0,P|391:235|386:209,1,70,4|0,0:0|0:0,0:0:0:0:
264,69,161510,2,0,P|256:113|248:164,1,70,8|2,0:0|2:0,0:0:0:0:
244,158,161791,1,0,3:0:0:0:
249,175,161885,1,8,3:0:0:0:
339,118,162072,1,2,2:3:0:0:
258,25,162260,1,8,0:0:0:0:
161,94,162447,1,2,3:0:0:0:
233,229,162635,6,0,P|238:194|245:160,1,70,4|0,3:0|0:0,0:0:0:0:
74,64,163010,6,0,P|80:98|90:172,1,105,8|0,0:0|3:0,0:0:0:0:
164,190,163385,2,0,P|154:212|144:251,1,35,8|0,3:0|3:0,0:0:0:0:
76,243,163572,2,0,P|86:263|96:304,1,35,0|0,3:0|3:0,0:0:0:0:
62,347,163759,1,8,1:0:0:0:
89,348,163853,1,8,1:0:0:0:
114,356,163947,1,8,1:0:0:0:
133,335,164040,1,8,1:0:0:0:
157,323,164134,1,4,0:0:0:0:
245,280,164322,5,0,0:0:0:0:
286,366,164510,2,0,P|353:359|383:358,1,70,8|2,0:0|2:0,0:0:0:0:
418,311,164791,1,0,3:0:0:0:
435,325,164885,2,0,P|423:278|412:237,1,70,8|2,3:0|0:2,0:0:0:0:
336,194,165260,2,0,P|346:141|352:80,1,105,8|0,0:0|0:0,0:0:0:0:
350,68,165635,2,0,P|389:79|429:89,1,70,4|0,0:0|0:0,0:0:0:0:
289,17,166010,1,8,0:0:0:0:
224,120,166197,1,2,2:0:0:0:
352,166,166385,1,8,3:0:0:0:
303,97,166572,5,2,0:2:0:0:
148,150,166760,1,0,0:0:0:0:
80,112,166947,1,2,3:0:0:0:
11,243,167135,2,0,P|56:233|100:229,1,70,4|2,0:0|0:2,0:0:0:0:
222,189,167510,2,0,P|258:200|298:216,1,70,8|2,0:0|2:0,0:0:0:0:
338,319,167885,1,8,3:0:0:0:
241,292,168072,1,2,0:2:0:0:
241,292,168166,1,0,0:0:0:0:
241,292,168260,1,8,0:0:0:0:
391,231,168447,1,2,3:0:0:0:
447,306,168635,6,0,P|451:348|453:379,1,70,4|0,0:0|0:0,0:0:0:0:
287,223,169010,2,0,P|289:188|292:153,1,70,8|2,0:0|2:0,0:0:0:0:
313,139,169291,1,0,3:0:0:0:
303,116,169385,1,8,3:0:0:0:
328,45,169572,1,2,0:2:0:0:
254,10,169760,1,8,0:0:0:0:
250,34,169853,1,0,0:0:0:0:
252,58,169947,1,2,3:0:0:0:
256,82,170041,1,0,0:0:0:0:
258,106,170135,1,4,0:0:0:0:
192,192,170322,5,0,0:0:0:0:
286,258,170510,2,0,P|281:301|276:345,1,70,8|2,0:0|2:0,0:0:0:0:
255,336,170791,1,0,3:0:0:0:
260,359,170885,1,8,3:0:0:0:
363,299,171072,5,2,0:2:0:0:
211,239,171260,1,8,0:0:0:0:
351,167,171447,1,2,3:0:0:0:
281,99,171635,2,0,P|269:60|263:24,1,70,4|2,0:0|0:2,0:0:0:0:
194,88,172010,1,8,0:0:0:0:
194,88,172103,1,0,2:0:0:0:
371,71,172291,1,0,3:0:0:0:
371,71,172385,2,0,P|414:84|448:94,1,70,8|2,3:0|0:2,0:0:0:0:
486,160,172666,1,0,0:0:0:0:
486,160,172760,2,0,P|443:173|409:183,1,70,8|2,0:0|3:0,0:0:0:0:
299,307,173135,6,0,P|246:295|162:279,1,140,4|8,0:0|0:0,0:0:0:0:
56,213,173697,1,2,2:0:0:0:
56,213,173791,1,0,3:0:0:0:
56,213,173885,2,0,P|109:201|193:185,1,140,8|8,3:0|0:0,0:0:0:0:
259,106,174447,1,2,3:0:0:0:
378,208,174635,2,0,P|424:220|456:230,1,70,4|0,0:0|0:0,0:0:0:0:
342,104,175010,1,0,0:0:0:0:
194,199,175197,1,2,0:2:0:0:
244,262,175385,5,0,3:0:0:0:
274,236,175478,1,0,3:0:0:0:
310,234,175572,1,0,0:0:0:0:
340,244,175666,1,0,3:0:0:0:
364,267,175760,1,10,0:0:0:0:
393,276,175853,1,8,0:0:0:0:
424,276,175947,1,10,0:0:0:0:
452,263,176041,1,8,0:0:0:0:
479,234,176135,5,4,3:1:0:0:
402,196,176322,1,2,0:2:0:0:
302,312,176510,5,8,0:0:0:0:
163,334,176697,1,2,0:2:0:0:
15,194,176885,5,8,3:0:0:0:
15,194,177260,1,8,0:0:0:0:
109,178,177447,1,2,0:0:0:0:
75,271,177635,5,6,0:0:0:0:
49,106,177822,1,2,0:0:0:0:
171,232,178010,5,10,0:0:0:0:
131,384,178197,1,2,0:2:0:0:
267,254,178385,5,8,3:0:0:0:
265,231,178478,1,0,3:0:0:0:
198,91,178666,1,0,3:0:0:0:
196,68,178760,1,8,0:0:0:0:
349,151,178947,1,10,3:0:0:0:
170,192,179135,5,4,0:0:0:0:
291,69,179322,1,2,0:2:0:0:
354,234,179510,1,8,0:0:0:0:
268,156,179697,1,2,0:2:0:0:
443,190,179885,5,8,3:0:0:0:
392,376,180072,1,2,0:2:0:0:
460,198,180260,1,8,0:0:0:0:
409,384,180447,1,2,0:0:0:0:
512,289,180635,5,6,0:0:0:0:
411,69,180822,5,2,0:0:0:0:
317,253,181010,5,10,0:0:0:0:
228,100,181197,5,2,0:0:0:0:
150,226,181385,5,10,3:0:0:0:
3,189,181572,5,2,0:0:0:0:
3,189,181666,1,0,3:0:0:0:
3,189,181760,2,0,L|90:177,1,70,10|2,0:0|0:0,0:0:0:0:
293,142,182135,1,4,0:0:0:0:
164,325,182322,1,2,0:0:0:0:
154,99,182510,1,8,0:0:0:0:
307,258,182697,1,2,0:2:0:0:
86,213,182885,1,8,3:0:0:0:
86,213,183260,1,8,0:0:0:0:
184,189,183447,1,2,0:2:0:0:
104,115,183635,5,6,0:0:0:0:
2,239,183822,1,0,0:0:0:0:
158,306,184010,1,10,0:0:0:0:
256,165,184197,1,2,0:2:0:0:
130,202,184385,5,8,3:0:0:0:
130,202,184478,1,0,3:0:0:0:
291,282,184666,1,0,3:0:0:0:
291,282,184760,1,8,0:0:0:0:
294,98,184947,1,10,3:0:0:0:
215,320,185135,6,0,P|291:325|374:332,1,136.499993751526,4|0,0:0|2:0,0:0:0:0:
364,347,185510,1,8,0:0:0:0:
146,384,185697,1,2,0:0:0:0:
271,206,185885,5,8,3:0:0:0:
453,362,186072,1,2,0:0:0:0:
215,320,186260,5,8,0:0:0:0:
228,96,186447,1,2,0:0:0:0:
413,239,186635,5,4,0:0:0:0:
84,189,186916,5,0,3:0:0:0:
84,189,187010,1,4,0:0:0:0:
224,115,187197,1,4,0:0:0:0:
142,250,187385,5,4,0:0:0:0:
124,279,187479,1,8,3:0:0:0:
16,134,187666,5,0,3:0:0:0:
34,105,187760,1,4,0:0:0:0:
258,35,187947,5,8,0:0:0:0:
258,35,188041,1,8,0:0:0:0:
258,35,188135,1,4,0:0:0:0:
288,53,188228,1,0,0:0:0:0:
306,84,188322,1,0,0:0:0:0:
305,120,188416,1,0,0:0:0:0:
285,151,188510,1,8,0:0:0:0:
255,171,188603,1,0,0:0:0:0:
227,194,188697,1,0,0:0:0:0:
207,224,188791,1,0,0:0:0:0:
203,260,188885,1,8,3:0:0:0:
220,291,188978,1,0,0:0:0:0:
252,307,189072,5,0,0:0:0:0:
287,297,189166,1,0,0:0:0:0:
321,307,189260,1,8,0:0:0:0:
355,296,189353,1,0,0:0:0:0:
388,311,189447,1,0,0:0:0:0:
421,296,189541,1,0,0:0:0:0:
454,311,189635,5,4,0:0:0:0:
484,290,189728,1,0,0:0:0:0:
504,259,189822,1,0,0:0:0:0:
504,222,189916,1,0,0:0:0:0:
486,190,190010,1,8,0:0:0:0:
457,168,190103,1,0,0:0:0:0:
421,158,190197,1,0,0:0:0:0:
386,170,190291,1,0,0:0:0:0:
354,189,190385,1,8,3:0:0:0:
318,193,190478,1,0,0:0:0:0:
282,183,190572,1,0,0:0:0:0:
254,159,190666,1,0,0:0:0:0:
227,176,190760,5,10,0:0:0:0:
197,154,190853,5,2,0:0:0:0:
166,174,190947,5,2,0:0:0:0:
132,159,191041,5,2,0:0:0:0:
97,170,191135,6,2,L|87:240,3,45.4999979171754,6|0|2|2,0:0|0:0|0:0|0:0,0:0:0:0:
154,295,191510,5,10,0:0:0:0:
192,317,191603,5,2,0:0:0:0:
232,295,191697,5,2,0:0:0:0:
272,315,191791,5,2,0:0:0:0:
313,302,191885,5,8,3:0:0:0:
320,290,191978,1,0,0:0:0:0:
324,277,192072,1,0,0:0:0:0:
328,264,192166,1,0,0:0:0:0:
332,251,192260,2,0,L|310:184,3,45.4999979171754,8|0|0|0,0:0|0:0|0:0|0:0,0:0:0:0:
401,227,192635,2,0,L|379:160,3,45.4999979171754,4|0|0|0,0:0|0:0|0:0|0:0,0:0:0:0:
467,155,193010,6,0,L|496:84,1,45.4999979171754,8|0,0:0|0:0,0:0:0:0:
438,21,193197,1,0,0:0:0:0:
438,21,193291,1,0,0:0:0:0:
438,21,193385,1,8,3:0:0:0:
406,20,193478,1,0,0:0:0:0:
374,21,193572,1,0,0:0:0:0:
342,24,193666,1,0,3:0:0:0:
310,28,193760,6,0,L|287:99,1,45.4999979171754,8|0,0:0|0:0,0:0:0:0:
206,101,193947,6,0,L|229:172,1,45.4999979171754,8|0,0:0|0:0,0:0:0:0:
291,210,194135,6,0,L|268:280,1,45.4999979171754,4|0,0:0|0:0,0:0:0:0:
250,333,194322,1,0,0:0:0:0:
250,333,194416,1,0,0:0:0:0:
250,333,194510,5,10,0:0:0:0:
204,361,194603,1,2,0:0:0:0:
151,347,194697,1,2,0:0:0:0:
132,295,194791,1,2,0:0:0:0:
164,250,194885,1,8,3:0:0:0:
217,246,194978,1,0,0:0:0:0:
251,203,195072,1,2,0:0:0:0:
237,150,195166,1,2,0:0:0:0:
185,133,195260,1,10,0:0:0:0:
143,168,195353,1,2,0:0:0:0:
150,222,195447,1,0,0:0:0:0:
200,239,195541,1,0,0:0:0:0:
242,211,195635,5,6,0:0:0:0:
284,236,195728,5,2,0:0:0:0:
327,211,195822,5,2,0:0:0:0:
362,239,195916,5,2,0:0:0:0:
406,215,196010,6,0,L|416:170,3,45.4999979171754,10|0|0|0,0:0|0:0|0:0|0:0,0:0:0:0:
490,99,196385,5,8,3:0:0:0:
479,55,196478,1,0,0:0:0:0:
450,23,196572,1,0,0:0:0:0:
405,14,196666,1,0,0:0:0:0:
361,27,196760,1,8,0:0:0:0:
331,60,196853,1,0,0:0:0:0:
327,107,196947,1,0,3:0:0:0:
349,146,197041,1,0,0:0:0:0:
399,166,197135,5,6,0:0:0:0:
445,201,197228,5,2,0:0:0:0:
452,259,197322,5,2,0:0:0:0:
418,308,197416,5,2,0:0:0:0:
359,316,197510,5,10,0:0:0:0:
309,285,197603,5,2,0:0:0:0:
303,229,197697,5,2,0:0:0:0:
335,195,197791,5,2,0:0:0:0:
381,190,197885,5,10,3:0:0:0:
415,214,197978,5,2,0:0:0:0:
415,250,198072,5,2,0:0:0:0:
393,269,198166,5,2,0:0:0:0:
372,268,198260,5,10,0:0:0:0:
362,261,198353,5,2,0:0:0:0:
359,253,198447,5,2,0:0:0:0:
365,248,198541,5,2,0:0:0:0:
370,245,198635,6,0,L|388:302,1,45.4999979171754,2|8,3:1|3:0,3:3:0:0:
321,337,198822,2,0,L|262:323,1,45.4999979171754,2|8,3:1|3:0,3:3:0:0:
265,248,199010,2,0,L|305:203,1,45.4999979171754,2|8,3:1|3:0,3:3:0:0:
386,169,199197,5,2,3:1:0:0:
386,169,199291,1,2,3:1:0:0:
386,169,199385,2,0,P|356:164|331:150,1,59.5000011348725,2|8,3:1|3:1,3:3:0:0:
194,272,199572,2,0,P|204:300|205:330,1,59.5000011348725,2|8,3:1|3:0,3:3:0:0:
379,388,199760,2,0,P|398:365|424:350,1,59.5000011348725,10|0,3:1|3:0,3:3:0:0:
326,277,199947,5,8,0:0:0:0:
326,277,200041,1,8,0:0:0:0:
326,277,203647,5,4,0:0:0:0:
256,192,213647,12,0,217397,0:0:0:0:
256,192,217647,5,4,0:1:0:0:
256,192,217772,1,0,3:0:0:0:
323,266,218022,5,8,3:0:0:0:
369,253,218147,1,8,3:0:0:0:
419,310,218272,1,4,3:0:0:0:
450,315,218397,1,0,3:0:0:0:
500,378,218522,1,4,3:0:0:0:
500,378,218647,2,0,P|501:317|508:227,1,146.999995513916,4|0,3:0|0:0,0:0:0:0:
507,231,223147,6,0,L|398:214,1,105.000004005432,4|0,0:0|0:0,0:0:0:0:
344,143,223522,1,8,0:0:0:0:
323,333,223709,1,2,2:0:0:0:
323,333,223803,1,0,0:0:0:0:
323,333,223897,1,8,3:0:0:0:
430,121,224084,1,0,0:0:0:0:
430,121,224178,1,0,0:0:0:0:
430,121,224272,2,0,P|439:88|473:55,1,52.5000020027161,8|0,0:0|0:0,0:0:0:0:
364,65,224459,2,0,P|364:30|388:-9,1,52.5000020027161,2|0,3:0|0:0,0:0:0:0:
286,81,224647,6,0,L|137:84,1,105.000004005432,4|0,3:0|0:0,0:0:0:0:
126,32,225022,1,8,0:0:0:0:
124,219,225209,1,2,2:0:0:0:
144,221,225303,1,0,3:0:0:0:
164,223,225397,1,8,3:0:0:0:
184,225,225490,1,0,0:0:0:0:
204,227,225584,1,0,3:0:0:0:
224,230,225678,1,0,3:0:0:0:
244,233,225772,1,8,0:0:0:0:
219,150,225959,1,2,3:0:0:0:
91,294,226147,2,0,L|-22:303,1,105.000004005432,4|0,0:0|0:0,0:0:0:0:
41,208,226522,5,8,0:0:0:0:
178,321,226709,1,2,2:0:0:0:
178,321,226803,1,0,3:0:0:0:
178,321,226897,1,8,3:0:0:0:
327,239,227084,1,0,3:0:0:0:
327,239,227178,1,0,3:0:0:0:
327,239,227272,1,8,0:0:0:0:
197,132,227459,1,2,3:0:0:0:
224,246,227647,6,0,P|298:267|368:306,1,157.500006008148,4|0,3:0|0:0,0:0:0:0:
385,309,228022,1,8,0:0:0:0:
479,287,228209,1,2,2:0:0:0:
479,287,228303,1,0,3:0:0:0:
502,198,228490,1,0,3:0:0:0:
502,198,228584,1,0,3:0:0:0:
438,127,228772,1,8,0:0:0:0:
346,151,228959,1,2,3:0:0:0:
165,130,229147,5,4,0:0:0:0:
256,44,229334,1,0,0:0:0:0:
342,135,229522,1,8,0:0:0:0:
251,221,229709,1,2,2:0:0:0:
239,207,229803,1,0,3:0:0:0:
260,206,229897,2,0,L|280:265,1,52.5000020027161,8|0,3:0|0:0,0:0:0:0:
83,352,230178,5,0,0:0:0:0:
66,347,230272,2,0,L|37:266,1,52.5000020027161,8|0,0:0|0:0,0:0:0:0:
102,239,230459,2,0,L|73:158,1,52.5000020027161,2|0,3:0|0:0,0:0:0:0:
165,284,230647,5,4,3:0:0:0:
256,370,230834,1,0,0:0:0:0:
342,279,231022,1,8,0:0:0:0:
251,193,231209,1,2,2:0:0:0:
239,207,231303,1,0,3:0:0:0:
260,208,231397,2,0,L|280:149,1,52.5000020027161,8|0,3:0|0:0,0:0:0:0:
429,32,231678,5,0,3:0:0:0:
446,37,231772,2,0,L|475:118,1,52.5000020027161,8|0,0:0|0:0,0:0:0:0:
410,145,231959,2,0,L|439:226,1,52.5000020027161,2|0,3:0|0:0,0:0:0:0:
457,274,232147,5,4,0:0:0:0:
305,316,232334,1,0,0:0:0:0:
263,163,232522,1,8,0:0:0:0:
353,256,232709,1,2,2:0:0:0:
353,256,232803,1,0,3:0:0:0:
353,256,232897,1,8,3:0:0:0:
187,204,233084,1,2,2:3:0:0:
187,204,233178,1,0,0:0:0:0:
187,204,233272,1,8,0:0:0:0:
346,164,233459,5,2,3:0:0:0:
262,245,233647,1,4,3:0:0:0:
178,326,233834,1,0,0:0:0:0:
181,161,234022,5,8,0:0:0:0:
345,328,234209,1,2,2:0:0:0:
350,339,234303,1,0,3:0:0:0:
342,349,234397,1,8,3:0:0:0:
324,347,234490,1,0,3:0:0:0:
312,326,234584,1,0,3:0:0:0:
314,297,234678,1,0,3:0:0:0:
333,268,234772,1,8,1:0:0:0:
374,251,234865,1,8,1:0:0:0:
410,213,234959,1,8,1:0:0:0:
413,163,235053,1,8,1:0:0:0:
376,123,235147,6,0,B|284:74|230:159|230:159,1,157.500006008148,4|0,0:0|0:0,0:0:0:0:
213,146,235522,2,0,L|211:290,1,105.000004005432,8|2,0:0|2:0,0:0:0:0:
196,276,235803,1,0,3:0:0:0:
196,276,235897,1,8,3:0:0:0:
126,210,236084,1,2,0:2:0:0:
287,253,236272,1,8,0:0:0:0:
167,364,236459,1,2,3:0:0:0:
230,174,236647,5,4,0:0:0:0:
310,164,236834,1,0,0:0:0:0:
374,212,237022,1,8,0:0:0:0:
375,295,237209,1,2,2:0:0:0:
375,295,237303,1,0,3:0:0:0:
375,295,237397,1,8,3:0:0:0:
437,356,237584,1,2,0:2:0:0:
437,356,237678,1,0,3:0:0:0:
437,356,237772,1,0,0:0:0:0:
512,346,237959,1,2,3:0:0:0:
287,253,238147,6,0,P|240:258|130:314,1,157.500006008148,4|0,0:0|0:0,0:0:0:0:
76,347,238522,2,0,P|65:327|71:279,1,52.5000020027161,8|0,0:0|0:0,0:0:0:0:
107,235,238709,1,2,2:0:0:0:
112,226,238803,1,0,3:0:0:0:
117,214,238897,1,8,3:0:0:0:
68,157,239084,1,2,0:2:0:0:
256,139,239272,1,8,0:0:0:0:
274,327,239459,1,2,3:0:0:0:
319,241,239647,5,4,0:0:0:0:
185,276,239834,1,0,0:0:0:0:
336,381,240022,1,8,0:0:0:0:
348,364,240115,1,0,0:0:0:0:
353,343,240209,1,2,2:0:0:0:
241,226,240397,1,8,3:0:0:0:
245,204,240491,1,0,0:0:0:0:
257,187,240584,1,2,0:2:0:0:
319,241,240772,1,8,0:0:0:0:
274,327,240959,1,2,3:0:0:0:
185,276,241147,5,4,0:0:0:0:
409,293,241334,1,0,0:0:0:0:
129,332,241522,5,8,0:0:0:0:
108,307,241615,1,0,0:0:0:0:
465,237,241804,1,0,3:0:0:0:
486,262,241897,1,8,3:0:0:0:
271,358,242084,5,2,0:2:0:0:
271,358,242178,1,0,0:0:0:0:
271,358,242272,1,8,0:0:0:0:
217,272,242459,1,2,3:0:0:0:
328,214,242647,1,4,0:0:0:0:
151,140,242834,1,2,0:2:0:0:
401,97,243022,1,8,0:0:0:0:
401,97,243115,1,0,2:0:0:0:
88,22,243303,1,0,3:0:0:0:
88,22,243397,2,0,L|84:99,1,52.5000020027161,8|0,3:0|0:0,0:0:0:0:
35,194,243584,5,2,0:2:0:0:
35,194,243678,1,0,0:0:0:0:
35,194,243772,1,8,0:0:0:0:
254,349,243959,5,2,3:0:0:0:
504,187,244147,6,0,B|413:181|443:231|332:219,1,157.500006008148,4|0,0:0|0:0,0:0:0:0:
312,286,244522,2,0,P|282:262|286:216,1,52.5000020027161,8|0,0:0|0:0,0:0:0:0:
295,177,244709,1,2,2:0:0:0:
295,177,244803,1,0,3:0:0:0:
295,177,244897,1,8,3:0:0:0:
394,302,245084,1,2,0:2:0:0:
394,302,245178,1,0,0:0:0:0:
394,302,245272,1,8,0:0:0:0:
213,207,245459,5,2,3:0:0:0:
377,101,245647,1,4,0:0:0:0:
483,266,245834,1,0,0:0:0:0:
318,371,246022,1,0,0:0:0:0:
352,235,246209,5,2,0:2:0:0:
366,224,246303,1,8,0:0:0:0:
376,243,246397,1,0,3:0:0:0:
359,260,246490,1,0,3:0:0:0:
322,257,246584,1,0,0:0:0:0:
287,240,246678,1,0,3:0:0:0:
270,202,246772,1,8,0:0:0:0:
238,170,246865,1,8,0:0:0:0:
191,160,246959,1,8,0:0:0:0:
142,176,247053,1,8,0:0:0:0:
113,213,247147,6,0,L|113:358,1,140,4|8,3:1|0:0,0:0:0:0:
205,273,247709,1,0,0:0:0:0:
202,257,247803,1,0,3:0:0:0:
199,241,247897,1,0,0:0:0:0:
69,148,248084,1,0,2:0:0:0:
72,132,248178,1,0,0:0:0:0:
75,116,248272,1,8,0:0:0:0:
162,82,248459,1,2,3:0:0:0:
257,124,248647,1,8,0:0:0:0:
360,95,248834,1,0,0:0:0:0:
360,95,248928,1,8,3:0:0:0:
360,95,249022,2,0,L|367:220,1,105,4|0,0:0|0:0,0:0:0:0:
388,220,249397,5,8,0:0:0:0:
321,292,249584,1,2,2:0:0:0:
303,289,249678,1,0,3:0:0:0:
285,286,249772,1,0,1:0:0:0:
267,283,249865,1,0,0:0:0:0:
249,279,249959,1,2,2:0:0:0:
231,275,250053,1,0,3:0:0:0:
213,271,250147,1,8,1:0:0:0:
286,206,250334,1,2,3:0:0:0:
400,305,250522,1,8,1:0:0:0:
115,338,250803,5,8,3:0:0:0:
115,338,250897,2,0,P|108:260|69:182,1,140,4|8,1:0|1:0,0:0:0:0:
15,135,251459,1,2,2:0:0:0:
15,135,251553,1,0,0:0:0:0:
15,135,251647,1,0,1:0:0:0:
116,109,251834,1,0,3:0:0:0:
116,109,251928,1,0,3:0:0:0:
116,109,252022,1,8,1:0:0:0:
81,192,252209,1,2,3:0:0:0:
43,45,252397,1,8,1:0:0:0:
210,112,252584,5,0,0:0:0:0:
210,112,252678,1,8,3:0:0:0:
210,112,252772,2,0,B|284:124|251:174|331:183,1,140,4|8,1:0|0:0,0:0:0:0:
411,139,253334,1,2,2:0:0:0:
418,158,253428,1,0,3:0:0:0:
421,178,253522,1,0,1:0:0:0:
420,198,253615,1,0,0:0:0:0:
418,218,253709,1,0,3:0:0:0:
412,238,253803,2,0,L|352:253,1,45.4999979171754,0|8,0:0|1:0,0:0:0:0:
329,328,253990,5,0,1:0:0:0:
288,348,254084,1,8,1:0:0:0:
242,351,254178,1,8,1:0:0:0:
198,338,254272,2,0,P|175:325|152:295,1,45.4999979171754,8|0,3:0|0:0,0:0:0:0:
84,328,254459,1,8,1:0:0:0:
63,276,254553,1,8,1:0:0:0:
87,237,254647,6,0,L|93:117,1,90.9999958343508,4|0,0:0|0:0,0:0:0:0:
83,0,255022,1,8,0:0:0:0:
173,140,255209,1,2,2:0:0:0:
173,140,255303,1,0,3:0:0:0:
173,140,255397,1,0,1:0:0:0:
35,74,255584,1,2,2:0:0:0:
35,74,255678,1,0,0:0:0:0:
35,74,255772,1,8,0:0:0:0:
215,65,255959,1,2,3:0:0:0:
79,143,256147,1,8,0:0:0:0:
170,10,256334,1,0,0:0:0:0:
170,10,256428,1,8,3:0:0:0:
170,10,256522,6,0,P|226:47|348:72,1,181.999991668702,4|8,1:0|0:0,0:0:0:0:
461,78,257084,1,0,0:0:0:0:
434,82,257178,1,0,0:0:0:0:
411,97,257272,1,0,3:0:0:0:
392,116,257365,1,0,0:0:0:0:
378,139,257459,1,0,3:0:0:0:
370,165,257553,1,0,0:0:0:0:
376,196,257647,1,8,0:0:0:0:
512,149,257834,1,2,3:0:0:0:
336,72,258022,1,8,0:0:0:0:
455,258,258209,1,2,2:0:0:0:
455,258,258303,1,8,3:0:0:0:
455,258,258397,6,0,P|467:179|458:67,1,181.999991668702,4|8,0:0|0:0,0:0:0:0:
395,30,258959,1,2,2:0:0:0:
395,30,259053,1,0,0:0:0:0:
395,30,259147,1,0,1:0:0:0:
336,107,259334,1,2,2:0:0:0:
336,107,259428,1,0,0:0:0:0:
336,107,259522,1,8,1:0:0:0:
292,16,259709,1,2,3:0:0:0:
257,168,259897,1,8,1:0:0:0:
195,6,260084,1,2,2:0:0:0:
195,6,260178,1,8,3:0:0:0:
195,6,260272,6,0,L|167:206,1,181.999991668702,4|8,0:0|0:0,0:0:0:0:
95,196,260834,1,2,2:0:0:0:
102,217,260928,1,0,0:0:0:0:
33,243,261115,1,0,3:0:0:0:
47,271,261208,1,0,3:0:0:0:
60,297,261302,1,0,0:0:0:0:
16,356,261490,1,8,1:0:0:0:
47,374,261584,1,8,1:0:0:0:
83,374,261678,1,8,1:0:0:0:
114,355,261772,1,0,0:0:0:0:
139,329,261865,1,0,0:0:0:0:
174,320,261959,1,8,0:0:0:0:
210,325,262053,1,8,0:0:0:0:
237,348,262147,6,0,P|288:347|333:321,2,90.9999958343508,6|2|0,0:0|0:0|0:0,0:0:0:0:
261,273,262709,1,2,0:0:0:0:
261,273,262897,1,0,0:0:0:0:
384,384,263084,2,0,P|408:339|408:287,2,90.9999958343508,2|2|0,0:0|0:0|0:0,0:0:0:0:
488,274,263647,2,0,P|461:230|416:204,1,90.9999958343508,2|0,0:0|0:0,0:0:0:0:
261,273,264022,6,0,P|221:272|186:251,2,70,6|2|0,0:0|0:0|0:0,0:0:0:0:
243,198,264584,1,2,0:0:0:0:
243,198,264772,1,0,0:0:0:0:
133,315,264959,2,0,P|112:277|112:233,2,70,2|2|0,0:0|0:0|0:0,0:0:0:0:
30,233,265522,2,0,P|54:192|95:168,1,70,2|0,0:0|0:0,0:0:0:0:
305,49,265897,5,6,0:0:0:0:
375,86,266084,2,0,L|358:155,1,52.5000020027161,2|0,0:0|0:0,0:0:0:0:
389,100,266459,2,0,L|372:169,1,52.5000020027161,2|0,0:0|0:0,0:0:0:0:
198,115,266834,5,2,0:0:0:0:
128,152,267021,2,0,L|145:221,1,52.5000020027161,2|0,0:0|0:0,0:0:0:0:
114,166,267397,2,0,L|131:235,1,52.5000020027161,2|0,0:0|0:0,0:0:0:0:
256,363,267772,5,6,0:0:0:0:
329,332,267959,2,0,P|342:313|348:272,1,52.5000020027161,2|0,0:0|0:0,0:0:0:0:
183,332,268334,2,0,P|170:313|164:272,1,52.5000020027161,2|0,0:0|0:0,0:0:0:0:
256,363,268709,5,6,0:0:0:0:
320,333,268896,2,0,P|331:316|337:280,1,52.5000020027161,2|0,0:0|0:0,0:0:0:0:
191,333,269271,2,0,P|180:316|174:280,1,52.5000020027161,2|0,0:0|0:0,0:0:0:0:
