osu file format v14

[General]
AudioFilename: gun cut.mp3
AudioLeadIn: 0
PreviewTime: 7004
Countdown: 0
SampleSet: Soft
StackLeniency: 0.4
Mode: 0
LetterboxInBreaks: 0
WidescreenStoryboard: 1

[Editor]
DistanceSpacing: 1
BeatDivisor: 4
GridSize: 8
TimelineZoom: 1.5

[Metadata]
Title:Gun
TitleUnicode:gun~群~
Artist:Chata
ArtistUnicode:茶太
Creator:Canderos
Version:YukiZura-'s Hard
Source:東方輝針城 ~ Double Dealing Character.
Tags:ビョウ byou rock touhou kawasagihime ミストレイク mist lake 東方project touhou GreenHue YukiZura-
BeatmapID:1514236
BeatmapSetID:715275

[Difficulty]
HPDrainRate:6
CircleSize:4
OverallDifficulty:6
ApproachRate:8
SliderMultiplier:1.7
SliderTickRate:1

[Events]
//Background and Video events
0,0,"gun1.jpg",0,0
//Break Periods
//Storyboard Layer 0 (Background)
//Storyboard Layer 1 (Fail)
//Storyboard Layer 2 (Pass)
//Storyboard Layer 3 (Foreground)
//Storyboard Sound Samples

[TimingPoints]
196,428.571428571429,4,2,0,35,1,0
196,-100,4,2,1,35,0,0
3088,-100,4,2,0,40,0,0
3517,-100,4,2,0,5,0,0
3624,-100,4,2,0,50,0,0
5553,-100,4,2,0,55,0,0
5981,-100,4,2,0,60,0,0
6410,-100,4,2,0,65,0,0
7053,-100,4,2,0,70,0,1
13481,-100,4,2,0,60,0,0
13910,-100,4,2,0,70,0,1
20338,-100,4,2,0,60,0,0
20767,-100,4,2,0,50,0,0
24517,-100,4,2,0,5,0,0
24624,-100,4,2,0,50,0,0
24946,-100,4,2,0,5,0,0
25053,-100,4,2,0,50,0,0
28588,-100,4,2,0,5,0,0
28696,-100,4,2,0,50,0,0
29338,-100,4,2,0,40,0,0
32767,-100,4,2,0,30,0,0
34481,-100,4,2,0,15,0,0
36196,-100,4,2,0,5,0,0

[Colours]
Combo1 : 30,157,213
Combo2 : 46,102,112
Combo3 : 37,185,239
Combo4 : 50,74,160

[HitObjects]
80,112,196,5,0,0:0:0:0:
96,112,838,1,0,0:0:0:0:
128,128,1910,5,0,0:0:0:0:
144,128,2553,1,0,0:0:0:0:
216,84,3142,2,0,P|300:68|360:84,1,148.75
359,83,3624,5,0,0:0:0:0:
416,152,3838,2,0,P|428:200|416:248,1,85
344,196,4267,2,0,P|256:204|184:276,1,170
176,336,4910,1,0,0:0:0:0:
48,120,5553,6,0,P|88:128|136:112,1,85
192,56,5981,2,0,P|232:44|273:51,1,85
328,120,6410,2,0,P|368:128|416:112,1,85
496,136,6838,1,0,0:0:0:0:
496,136,6946,1,0,0:0:0:0:
496,136,7053,6,0,L|496:248,1,85,14|0,0:0|0:0,0:0:0:0:
416,288,7481,2,0,L|416:192,1,85,8|0,0:0|0:0,0:0:0:0:
352,120,7910,1,8,0:0:0:0:
288,200,8124,1,0,0:0:0:0:
224,120,8338,6,0,P|184:128|128:120,1,85,8|0,0:0|0:0,0:0:0:0:
40,104,8767,2,0,P|48:144|40:200,1,85,8|0,0:0|0:0,0:0:0:0:
16,288,9196,2,0,P|56:280|112:288,1,85,8|0,0:0|0:0,0:0:0:0:
184,344,9624,1,8,0:0:0:0:
224,248,9838,1,0,0:0:0:0:
288,328,10053,2,0,P|336:336|392:320,1,85,8|0,0:0|0:0,0:0:0:0:
468,296,10481,6,0,P|476:248|460:192,1,85,8|0,0:0|0:0,0:0:0:0:
368,200,10910,2,0,P|361:158|369:116,1,85,8|0,0:0|0:0,0:0:0:0:
408,24,11338,2,0,P|366:17|324:25,1,85,8|0,0:0|0:0,0:0:0:0:
268,112,11767,1,8,0:0:0:0:
184,52,11981,1,0,0:0:0:0:
88,96,12196,2,0,L|80:216,1,85,8|0,0:0|0:0,0:0:0:0:
168,232,12624,2,0,L|173:147,1,85,8|0,0:0|0:0,0:0:0:0:
268,112,13053,2,0,L|260:232,1,85,8|0,0:0|0:0,0:0:0:0:
336,240,13481,5,2,0:0:0:0:
336,240,13588,1,2,0:0:0:0:
336,240,13696,2,2,L|336:184,1,42.5
380,312,13910,6,0,P|332:320|276:304,1,85,14|0,0:0|0:0,0:0:0:0:
216,248,14338,2,0,P|174:241|132:249,1,85,8|0,0:0|0:0,0:0:0:0:
32,280,14767,1,8,0:0:0:0:
68,184,14981,1,0,0:0:0:0:
20,92,15195,6,0,P|60:80|116:92,1,85,8|0,0:0|0:0,0:0:0:0:
196,44,15624,2,0,P|204:84|196:140,1,85,8|0,0:0|0:0,0:0:0:0:
148,216,16053,2,0,P|189:224|231:219,1,85,8|0,0:0|0:0,0:0:0:0:
304,144,16481,1,8,0:0:0:0:
368,224,16695,1,0,0:0:0:0:
416,136,16910,2,0,L|408:32,1,85,8|0,0:0|0:0,0:0:0:0:
496,104,17338,6,0,L|504:208,1,85,8|0,0:0|0:0,0:0:0:0:
408,224,17767,2,0,L|408:328,1,85,8|0,0:0|0:0,0:0:0:0:
312,344,18195,2,0,P|270:350|228:342,1,85,8|0,0:0|0:0,0:0:0:0:
184,248,18624,2,0,P|142:239|100:246,1,85,8|0,0:0|0:0,0:0:0:0:
8,280,19053,2,0,B|8:240|8:240|13:195,1,85,8|0,0:0|0:0,0:0:0:0:
96,136,19481,2,0,B|101:91|101:91|101:51,1,85,8|0,0:0|0:0,0:0:0:0:
192,8,19910,2,0,L|276:13,1,85,8|0,0:0|0:0,0:0:0:0:
368,64,20338,5,2,0:0:0:0:
368,64,20446,1,2,0:0:0:0:
368,64,20553,2,2,L|376:16,1,42.5
440,120,20767,6,0,P|376:152|288:112,1,170,14|0,0:0|0:0,0:0:0:0:
200,72,21410,1,0,0:0:0:0:
200,72,21517,1,0,0:0:0:0:
200,72,21624,2,0,P|126:35|50:67,1,170
120,136,22267,6,0,L|112:224,1,85
192,288,22696,2,0,L|200:200,1,85
280,144,23124,1,0,0:0:0:0:
280,144,23231,1,0,0:0:0:0:
280,144,23338,2,0,L|280:248,2,85
344,64,23981,1,0,0:0:0:0:
424,128,24196,1,14,0:0:0:0:
432,332,24624,6,0,P|392:340|312:324,1,85
260,284,25053,2,0,P|197:273|136:289,2,127.5
348,336,25910,2,0,P|360:288|348:240,1,85
264,204,26338,2,0,P|258:162|270:121,1,85
316,32,26767,2,0,P|275:20|233:25,1,85
168,104,27196,1,0,0:0:0:0:
84,48,27410,1,0,0:0:0:0:
40,140,27624,2,0,B|36:192|36:192|40:244,2,85,14|0|0,0:0|0:0|0:0,0:0:0:0:
128,192,28267,1,0,0:0:0:0:
268,36,28696,5,0,0:0:0:0:
368,60,28910,2,0,L|400:28,3,42.5
408,80,29338,2,0,P|416:124|412:164,1,85,14|0,0:0|0:0,0:0:0:0:
360,252,29767,2,0,P|316:260|276:256,1,85
192,196,30196,2,0,P|184:152|188:112,1,85
248,32,30624,2,0,P|292:24|332:28,1,85
408,96,31053,6,0,L|416:208,1,85,14|0,0:0|0:0,0:0:0:0:
472,264,31481,1,0,0:0:0:0:
472,264,31696,1,0,0:0:0:0:
400,336,31910,2,0,P|356:344|304:332,1,85
240,272,32338,1,0,0:0:0:0:
240,272,32767,1,0,0:0:0:0:
256,192,32874,12,0,35767,0:0:0:0:
