osu file format v14

[General]
AudioFilename: gun cut.mp3
AudioLeadIn: 0
PreviewTime: 7004
Countdown: 0
SampleSet: Soft
StackLeniency: 0.4
Mode: 0
LetterboxInBreaks: 0
WidescreenStoryboard: 1

[Editor]
DistanceSpacing: 1.5
BeatDivisor: 4
GridSize: 16
TimelineZoom: 1

[Metadata]
Title:Gun
TitleUnicode:gun~群~
Artist:Chata
ArtistUnicode:茶太
Creator:Canderos
Version:Rainbow
Source:東方輝針城 ~ Double Dealing Character.
Tags:ビョウ byou rock touhou kawasagihime ミストレイク mist lake 東方project touhou GreenHue YukiZura-
BeatmapID:1511481
BeatmapSetID:715275

[Difficulty]
HPDrainRate:5.5
CircleSize:4
OverallDifficulty:8
ApproachRate:8.5
SliderMultiplier:1.7
SliderTickRate:1

[Events]
//Background and Video events
0,0,"gun1.jpg",0,0
//Break Periods
2,29538,30378
2,31253,32092
//Storyboard Layer 0 (Background)
//Storyboard Layer 1 (Fail)
//Storyboard Layer 2 (Pass)
//Storyboard Layer 3 (Foreground)
//Storyboard Sound Samples

[TimingPoints]
196,428.571428571429,4,2,0,35,1,0
196,-200,4,2,1,35,0,0
3142,-200,4,2,0,40,0,0
3517,-200,4,2,0,5,0,0
3624,-100,4,2,0,50,0,0
5553,-100,4,2,0,55,0,0
5981,-100,4,2,0,60,0,0
6410,-100,4,2,0,65,0,0
7053,-100,4,2,0,70,0,1
13481,-166.666666666667,4,2,0,60,0,0
13910,-100,4,2,0,70,0,1
20338,-100,4,2,0,60,0,0
20767,-100,4,2,0,50,0,0
24517,-100,4,2,0,5,0,0
24624,-100,4,2,0,50,0,0
24946,-100,4,2,0,5,0,0
25053,-133.333333333333,4,2,0,50,0,0
26874,-133.333333333333,4,2,0,5,0,0
26981,-133.333333333333,4,2,0,50,0,0
28588,-133.333333333333,4,2,0,5,0,0
28696,-133.333333333333,4,2,0,50,0,0
29338,-133.333333333333,4,2,0,40,0,0
32767,-133.333333333333,4,2,0,30,0,0
34481,-133.333333333333,4,2,0,15,0,0
36196,-133.333333333333,4,2,0,5,0,0

[Colours]
Combo1 : 30,157,213
Combo2 : 46,102,112
Combo3 : 37,185,239
Combo4 : 50,74,160

[HitObjects]
148,73,196,6,0,L|136:204,1,127.5
178,101,1910,2,0,L|166:232,1,127.5
215,352,3142,6,0,P|248:364|289:351,1,74.375
291,348,3624,5,0,0:0:0:0:
69,320,3838,1,0,0:0:0:0:
64,339,4267,1,0,0:0:0:0:
69,352,4696,1,0,0:0:0:0:
96,105,4910,6,0,B|142:89|179:117|179:117|218:143|268:127,1,170
368,117,5553,5,0,0:0:0:0:
318,260,5767,1,0,0:0:0:0:
468,231,5981,1,0,0:0:0:0:
237,189,6196,5,0,0:0:0:0:
474,244,6410,1,0,0:0:0:0:
277,96,6624,1,0,0:0:0:0:
370,371,6838,1,0,0:0:0:0:
419,41,7053,6,0,L|408:152,1,85,14|0,0:0|0:0,0:0:0:0:
226,384,7481,2,0,L|215:273,1,85,8|0,0:0|0:0,0:0:0:0:
197,120,7910,5,8,0:0:0:0:
318,260,8124,1,0,0:0:0:0:
271,63,8338,1,8,0:0:0:0:
149,236,8553,1,0,0:0:0:0:
396,222,8767,6,0,P|405:274|380:320,1,85,8|0,0:0|0:0,0:0:0:0:
106,162,9196,2,0,P|96:109|121:63,1,85,8|0,0:0|0:0,0:0:0:0:
271,63,9624,1,8,0:0:0:0:
37,39,9838,1,0,0:0:0:0:
197,120,10053,2,0,P|207:173|182:219,1,85,8|0,0:0|0:0,0:0:0:0:
84,362,10481,6,0,L|-6:352,1,85,8|0,0:0|0:0,0:0:0:0:
237,275,10910,2,0,L|321:265,1,85,8|0,0:0|0:0,0:0:0:0:
124,163,11338,2,0,B|103:190|103:190|116:308,1,127.5,8|0,0:0|0:0,0:0:0:0:
113,282,11767,1,8,0:0:0:0:
35,56,11981,1,0,0:0:0:0:
27,234,12196,5,8,0:0:0:0:
224,96,12410,1,0,0:0:0:0:
1,140,12624,1,8,0:0:0:0:
263,189,12838,1,0,0:0:0:0:
35,56,13053,1,8,0:0:0:0:
237,275,13267,1,0,0:0:0:0:
107,9,13481,5,2,0:0:0:0:
116,32,13588,1,2,0:0:0:0:
119,57,13695,1,2,0:0:0:0:
115,82,13802,1,2,0:0:0:0:
104,105,13910,6,0,L|200:110,1,85,14|0,0:0|0:0,0:0:0:0:
425,268,14338,2,0,L|329:273,1,85,8|0,0:0|0:0,0:0:0:0:
117,282,14767,5,8,0:0:0:0:
294,181,14981,1,0,0:0:0:0:
271,384,15196,1,8,0:0:0:0:
231,129,15410,1,0,0:0:0:0:
43,241,15624,6,0,P|32:284|55:340,1,85,8|0,0:0|0:0,0:0:0:0:
368,219,16053,2,0,P|379:176|356:120,1,85,8|0,0:0|0:0,0:0:0:0:
231,129,16481,1,8,0:0:0:0:
444,85,16696,1,0,0:0:0:0:
294,181,16910,2,0,P|283:224|306:280,1,85,8|0,0:0|0:0,0:0:0:0:
370,381,17338,6,0,L|460:371,1,85,8|0,0:0|0:0,0:0:0:0:
208,301,17767,2,0,L|123:291,1,85,8|0,0:0|0:0,0:0:0:0:
294,181,18196,2,0,B|315:208|315:208|306:315,1,127.5,8|0,0:0|0:0,0:0:0:0:
308,301,18624,1,8,0:0:0:0:
385,74,18838,1,0,0:0:0:0:
404,274,19053,5,8,0:0:0:0:
208,92,19267,1,0,0:0:0:0:
312,305,19481,1,8,0:0:0:0:
294,51,19696,1,0,0:0:0:0:
224,275,19910,1,8,0:0:0:0:
385,74,20124,1,0,0:0:0:0:
408,374,20338,5,2,0:0:0:0:
382,377,20446,1,2,0:0:0:0:
356,380,20553,1,2,0:0:0:0:
330,383,20660,1,2,0:0:0:0:
304,383,20767,6,0,P|250:362|221:314,1,85,14|0,0:0|0:0,0:0:0:0:
264,165,21196,1,0,0:0:0:0:
313,306,21410,1,0,0:0:0:0:
313,306,21517,1,0,0:0:0:0:
313,306,21624,1,0,0:0:0:0:
194,94,21838,1,0,0:0:0:0:
121,231,22053,2,0,L|234:240,1,85
476,219,22481,5,0,0:0:0:0:
398,158,22696,1,0,0:0:0:0:
385,257,22910,1,0,0:0:0:0:
479,124,23124,1,0,0:0:0:0:
490,101,23231,1,0,0:0:0:0:
494,75,23338,2,0,P|487:28|447:-9,1,85
249,21,23767,1,0,0:0:0:0:
398,72,23981,1,0,0:0:0:0:
279,205,24196,6,0,P|266:263|302:342,1,127.5,14|0,0:0|0:0,0:0:0:0:
362,356,24624,2,0,L|214:363,1,127.5
112,288,25053,6,0,B|133:315|133:315|128:387,2,95.6250036478044
26,120,25910,1,0,0:0:0:0:
26,120,26017,1,0,0:0:0:0:
26,120,26124,1,0,0:0:0:0:
13,224,26338,1,0,0:0:0:0:
285,145,26553,6,0,P|235:131|180:147,1,95.6250036478044
135,193,26981,1,0,0:0:0:0:
146,58,27196,1,0,0:0:0:0:
230,232,27410,1,0,0:0:0:0:
227,19,27624,5,14,0:0:0:0:
221,245,27838,1,0,0:0:0:0:
384,188,28053,1,0,0:0:0:0:
135,193,28267,2,0,P|120:245|132:305,1,95.6250036478044
163,353,28696,1,0,0:0:0:0:
261,143,28910,5,2,0:0:0:0:
238,101,29017,1,2,0:0:0:0:
201,71,29124,1,2,0:0:0:0:
156,56,29231,1,2,0:0:0:0:
108,60,29338,1,14,0:0:0:0:
108,60,31053,5,14,0:0:0:0:
256,192,32767,12,0,36196,0:0:0:0:
