osu file format v14

[General]
AudioFilename: gun cut.mp3
AudioLeadIn: 0
PreviewTime: 7004
Countdown: 0
SampleSet: Soft
StackLeniency: 0.4
Mode: 0
LetterboxInBreaks: 0
WidescreenStoryboard: 1

[Editor]
DistanceSpacing: 0.2
BeatDivisor: 4
GridSize: 4
TimelineZoom: 1.5

[Metadata]
Title:Gun
TitleUnicode:gun~群~
Artist:Chata
ArtistUnicode:茶太
Creator:Canderos
Version:GreenHue's Light Insane
Source:東方輝針城 ~ Double Dealing Character.
Tags:ビョウ byou rock touhou kawasagihime ミストレイク mist lake 東方project touhou GreenHue YukiZura-
BeatmapID:1521156
BeatmapSetID:715275

[Difficulty]
HPDrainRate:5
CircleSize:4
OverallDifficulty:7
ApproachRate:8
SliderMultiplier:2
SliderTickRate:1

[Events]
//Background and Video events
0,0,"gun1.jpg",0,0
//Break Periods
//Storyboard Layer 0 (Background)
//Storyboard Layer 1 (Fail)
//Storyboard Layer 2 (Pass)
//Storyboard Layer 3 (Foreground)
//Storyboard Sound Samples

[TimingPoints]
196,428.571428571429,4,2,0,20,1,0
196,-166.666666666667,4,2,1,20,0,0
624,-166.666666666667,4,2,1,5,0,0
838,-166.666666666667,4,2,1,20,0,0
1267,-166.666666666667,4,2,1,5,0,0
1910,-166.666666666667,4,2,1,20,0,0
2338,-166.666666666667,4,2,1,5,0,0
2553,-166.666666666667,4,2,1,20,0,0
2981,-166.666666666667,4,2,1,5,0,0
3088,-125,4,2,0,20,0,0
3517,-100,4,2,0,5,0,0
3624,-100,4,2,0,50,0,0
5553,-100,4,2,0,55,0,0
5981,-100,4,2,0,60,0,0
6410,-100,4,2,0,65,0,0
7053,-83.3333333333333,4,2,0,70,0,1
13481,-100,4,2,0,60,0,0
13910,-83.3333333333333,4,2,0,70,0,1
20338,-100,4,2,0,60,0,0
20767,-100,4,2,0,50,0,0
24517,-100,4,2,0,5,0,0
24624,-100,4,2,0,50,0,0
24946,-100,4,2,0,5,0,0
25053,-100,4,2,0,50,0,0
28588,-100,4,2,0,5,0,0
28696,-100,4,2,0,50,0,0
29338,-125,4,2,0,40,0,0
31053,-111.111111111111,4,2,0,40,0,0
32767,-100,4,2,0,30,0,0
34481,-100,4,2,0,15,0,0
36196,-100,4,2,0,5,0,0

[Colours]
Combo1 : 30,157,213
Combo2 : 46,102,112
Combo3 : 37,185,239
Combo4 : 50,74,160

[HitObjects]
64,192,196,6,0,P|124:212|184:189,1,119.999996337891
246,139,838,2,0,P|301:120|358:142,1,119.999996337891
355,321,1910,6,0,P|300:340|242:317,1,119.999996337891
179,256,2553,2,0,P|124:237|66:259,1,119.999996337891
68,257,3142,6,0,B|51:221|70:181|70:181|89:145|70:110,1,140
68,113,3624,5,12,0:0:0:0:
154,27,3838,2,0,B|205:13|205:13|264:28,1,100
345,80,4267,2,0,L|462:69,1,100,8|0,0:0|0:0,0:0:0:0:
444,70,4696,1,0,0:0:0:0:
430,178,4910,2,0,B|403:324|403:324|449:271,1,200,8|0,0:0|0:0,0:0:0:0:
345,223,5553,5,0,0:0:0:0:
345,223,5767,1,0,0:0:0:0:
294,282,5981,2,0,L|238:277,1,50,8|0,0:0|0:0,0:0:0:0:
198,218,6196,2,0,L|142:213,1,50,8|0,0:0|0:0,0:0:0:0:
114,204,6410,1,8,0:0:0:0:
84,184,6517,1,0,0:0:0:0:
65,154,6624,1,8,0:0:0:0:
63,119,6731,1,0,0:0:0:0:
76,86,6838,1,8,0:0:0:0:
104,65,6945,1,0,0:0:0:0:
144,51,7053,6,0,B|186:51|186:51|228:63|228:63|269:63,1,119.999996337891,14|0,0:0|0:0,0:0:0:0:
425,5,7481,1,8,0:0:0:0:
506,109,7696,1,0,0:0:0:0:
411,270,7910,2,0,L|275:280,1,119.999996337891,8|0,0:0|0:0,0:0:0:0:
171,223,8338,2,0,B|107:183|51:228,1,119.999996337891,8|0,0:0|0:0,0:0:0:0:
291,278,8767,6,0,B|304:225|304:225|289:161,1,119.999996337891,8|0,0:0|0:0,0:0:0:0:
205,58,9196,2,0,P|279:11|360:68,1,179.999994506836,8|0,0:0|0:0,0:0:0:0:
377,86,9624,1,8,0:0:0:0:
289,161,9838,1,0,0:0:0:0:
99,25,10053,1,8,0:0:0:0:
205,58,10267,1,0,0:0:0:0:
114,154,10481,6,0,L|124:284,1,119.999996337891,8|0,0:0|0:0,0:0:0:0:
222,361,10910,2,0,P|279:377|349:353,1,119.999996337891,8|0,0:0|0:0,0:0:0:0:
442,283,11338,2,0,P|471:199|443:115,1,179.999994506836,8|0,0:0|0:0,0:0:0:0:
416,79,11767,2,0,B|354:93|354:93|295:79,1,119.999996337891,8|0,0:0|0:0,0:0:0:0:
176,31,12196,6,0,L|40:44,1,119.999996337891,8|0,0:0|0:0,0:0:0:0:
7,165,12624,1,8,0:0:0:0:
84,271,12838,2,0,P|146:281|208:245,1,119.999996337891,0|8,0:0|0:0,0:0:0:0:
253,138,13267,1,0,0:0:0:0:
445,202,13481,1,8,0:0:0:0:
413,218,13588,1,0,0:0:0:0:
379,225,13695,1,0,0:0:0:0:
345,217,13802,1,0,0:0:0:0:
316,196,13910,6,0,L|327:322,1,119.999996337891,12|0,0:0|0:0,0:0:0:0:
145,346,14338,1,8,0:0:0:0:
191,217,14553,1,0,0:0:0:0:
112,122,14767,2,0,P|53:111|-19:157,1,119.999996337891,8|0,0:0|0:0,0:0:0:0:
81,240,15196,2,0,P|139:246|190:217,1,119.999996337891,8|0,0:0|0:0,0:0:0:0:
298,141,15624,6,0,L|424:135,1,119.999996337891,8|0,0:0|0:0,0:0:0:0:
485,249,16053,2,0,P|463:312|386:253,1,179.999994506836,8|0,0:0|0:0,0:0:0:0:
383,227,16481,1,8,0:0:0:0:
375,55,16696,1,0,0:0:0:0:
308,247,16910,1,8,0:0:0:0:
450,32,17124,1,0,0:0:0:0:
256,93,17338,6,0,P|189:112|127:86,1,119.999996337891,8|0,0:0|0:0,0:0:0:0:
24,36,17767,2,0,L|9:177,1,119.999996337891,8|0,0:0|0:0,0:0:0:0:
53,281,18196,2,0,P|129:325|214:291,1,179.999994506836,8|0,0:0|0:0,0:0:0:0:
241,254,18624,2,0,B|301:243|301:243|378:256,1,119.999996337891,8|0,0:0|0:0,0:0:0:0:
472,184,19053,6,0,L|337:166,1,119.999996337891,8|0,0:0|0:0,0:0:0:0:
263,71,19481,2,0,L|444:96,1,179.999994506836,8|0,0:0|0:0,0:0:0:0:
485,101,19910,1,8,0:0:0:0:
353,168,20124,1,0,0:0:0:0:
263,71,20338,1,8,0:0:0:0:
234,73,20445,1,0,0:0:0:0:
206,76,20552,1,0,0:0:0:0:
179,78,20659,1,0,0:0:0:0:
154,82,20767,6,0,P|104:100|72:142,1,100,12|0,0:0|0:0,0:0:0:0:
50,240,21196,2,0,L|61:364,1,100,8|0,0:0|0:0,0:0:0:0:
61,343,21517,1,0,0:0:0:0:
63,347,21624,2,0,P|157:309|251:357,1,200,0|2,0:0|0:0,0:0:0:0:
365,382,22267,2,0,L|352:263,1,100
445,221,22696,6,0,L|433:104,1,100,0|2,0:0|0:0,0:0:0:0:
349,51,23124,1,0,0:0:0:0:
349,51,23231,1,0,0:0:0:0:
349,51,23338,1,0,0:0:0:0:
169,37,23553,1,0,0:0:0:0:
106,202,23767,1,2,0:0:0:0:
253,88,23981,1,0,0:0:0:0:
39,162,24196,6,0,P|28:214|57:264,1,100
153,278,24624,2,0,P|186:194|92:108,1,200,0|10,0:0|0:0,0:0:0:0:
267,172,25374,5,0,0:0:0:0:
390,282,25696,1,2,0:0:0:0:
208,304,25910,5,0,0:0:0:0:
208,304,26017,1,0,0:0:0:0:
208,304,26124,1,0,0:0:0:0:
111,178,26338,1,0,0:0:0:0:
184,55,26553,2,0,P|268:17|370:74,1,200,8|0,0:0|0:0,0:0:0:0:
421,183,27196,2,0,L|428:295,1,100,8|0,0:0|0:0,0:0:0:0:
245,329,27624,5,0,0:0:0:0:
130,208,27838,1,0,0:0:0:0:
278,160,28053,1,2,0:0:0:0:
245,329,28267,2,0,L|120:336,1,100,8|0,0:0|0:0,0:0:0:0:
44,288,28696,1,0,0:0:0:0:
130,208,28910,2,0,L|181:162,3,50,8|0|0|0,0:0|0:0|0:0|0:0,0:0:0:0:
133,113,29338,6,0,P|187:106|235:193,1,160,4|0,0:0|0:0,0:0:0:0:
214,272,29981,1,0,0:0:0:0:
300,253,30196,2,0,P|338:245|382:257,1,80,2|0,0:0|0:0,0:0:0:0:
457,218,30624,2,0,L|476:132,1,80
378,34,31053,6,0,P|286:62|197:26,1,179.999994506836,2|0,0:0|0:0,0:0:0:0:
209,35,31696,1,0,0:0:0:0:
144,101,31910,2,0,P|130:141|133:194,1,89.9999972534181,2|0,0:0|0:0,0:0:0:0:
201,258,32338,2,0,L|306:253,1,89.9999972534181
404,192,32767,1,4,0:0:0:0:
256,192,33196,12,0,36196,0:0:0:0:
