osu file format v14

[General]
AudioFilename: audio.mp3
AudioLeadIn: 0
PreviewTime: 62825
Countdown: 0
SampleSet: Soft
StackLeniency: 0.7
Mode: 0
LetterboxInBreaks: 0
WidescreenStoryboard: 1

[Editor]
Bookmarks: 1403,7767,19049,41649,64237,86825,98119,98472,103767,109414,125649
DistanceSpacing: 0.1
BeatDivisor: 2
GridSize: 16
TimelineZoom: 1.7

[Metadata]
Title:Glitter
TitleUnicode:Glitter
Artist:Chata
ArtistUnicode:茶太
Creator:chaser01
Version:lewski's Normal
Source:BLUE REFLECTION TIE/帝
Tags:resahc lewski fsjallink ブルー リフレクション 帝/タイ Tie Second Light video game op opening short ver version Japanese pop
BeatmapID:3706908
BeatmapSetID:1796930

[Difficulty]
HPDrainRate:3
CircleSize:3
OverallDifficulty:4
ApproachRate:5
SliderMultiplier:1
SliderTickRate:1

[Events]
//Background and Video events
0,0,"biome.jpg",0,0
//Break Periods
//Storyboard Layer 0 (Background)
//Storyboard Layer 1 (Fail)
//Storyboard Layer 2 (Pass)
//Storyboard Layer 3 (Foreground)
//Storyboard Layer 4 (Overlay)
//Storyboard Sound Samples

[TimingPoints]
1415,352.941176470588,4,2,1,56,1,0
1415,-100,4,2,1,56,0,0
2120,352.941176470588,4,2,1,75,1,0
3355,-100,4,2,1,70,0,0
4590,-100,4,2,1,67,0,0
4943,-100,4,2,1,65,0,0
7767,-100,4,2,1,75,0,0
16237,-100,4,2,1,65,0,0
18355,-100,4,2,1,70,0,0
19061,-100,4,2,1,72,0,0
61414,-100,4,2,1,75,0,0
62914,-100,4,2,1,60,0,0
64237,-90.9090909090909,4,2,1,78,0,1
98472,-90.9090909090909,4,2,1,82,0,1
103767,-90.9090909090909,4,2,1,78,0,1
109414,-100,4,2,1,78,0,0
115061,-100,4,2,1,75,0,0
117884,-100,4,2,1,68,0,0
120708,-100,4,2,1,55,0,0
121767,-100,4,2,1,30,0,0

[Colours]
Combo1 : 122,211,245
Combo2 : 255,208,145

[HitObjects]
324,0,2120,6,0,L|222:26,1,100,6|8,3:2|0:0,0:0:0:0:
199,65,2649,2,0,L|97:91,1,100,2|8,3:0|0:0,0:0:0:0:
29,176,3355,2,0,L|131:202,1,100,6|8,3:2|0:0,0:0:0:0:
202,275,4061,2,0,L|358:310,1,150,2|0,3:0|3:0,0:0:0:0:
425,384,4943,5,6,3:2:0:0:
503,222,5649,1,8,0:0:0:0:
331,151,6355,1,2,3:0:0:0:
331,151,6531,1,8,0:0:0:0:
330,284,7061,1,10,0:0:0:0:
103,307,7767,6,0,P|75:332|48:369,2,75,6|2|2,3:2|0:0|0:0,0:0:0:0:
102,260,8472,2,0,P|66:248|20:243,2,75,2|2|2,3:2|0:0|3:2,0:0:0:0:
140,234,9178,1,2,0:0:0:0:
230,114,9708,1,2,0:0:0:0:
230,114,9884,1,2,3:2:0:0:
450,112,10590,6,0,P|483:128|518:157,2,75,2|2|2,3:2|0:0|0:0,0:0:0:0:
442,65,11295,2,0,P|473:44|515:27,2,75,2|2|2,3:2|0:0|3:2,0:0:0:0:
399,38,12001,1,2,0:0:0:0:
251,0,12531,1,2,0:0:0:0:
251,0,12708,1,2,3:2:0:0:
173,58,13061,1,10,0:0:0:0:
85,8,13414,6,0,P|46:20|0:64,1,100,4|8,3:2|0:0,0:0:0:0:
0,166,14119,2,0,P|39:178|85:222,1,100,2|8,3:2|0:0,0:0:0:0:
146,311,14825,2,0,P|181:276|228:259,1,100,2|8,0:0|0:0,0:0:0:0:
317,326,15531,2,0,P|352:360|399:377,2,100,2|8|6,3:2|0:0|3:2,0:0:0:0:
256,192,16414,12,10,18355,0:0:0:0:
437,169,19061,6,0,P|447:136|493:66,2,100,6|8|0,3:2|0:0|3:0,0:0:0:0:
491,255,20119,1,10,0:0:0:0:
444,346,20472,2,0,P|414:358|331:373,1,100,2|10,0:0|0:0,0:0:0:0:
259,325,21178,1,2,3:2:0:0:
213,237,21531,1,10,0:0:0:0:
110,212,21884,6,0,P|55:242|32:304,1,100,2|8,3:2|0:0,0:0:0:0:
29,329,22414,1,2,0:0:0:0:
29,329,22590,2,0,P|85:340|179:392,1,150,2|0,3:2|3:0,0:0:0:0:
272,382,23472,2,0,L|357:368,1,50,0|8,3:0|0:0,0:0:0:0:
362,341,23825,2,0,P|329:272|325:198,1,150,2|8,0:0|0:0,0:0:0:0:
415,142,24708,6,0,P|469:156|520:162,2,100,2|8|0,3:2|0:0|3:0,0:0:0:0:
379,47,25767,1,10,0:0:0:0:
284,0,26119,2,0,P|230:13|180:35,1,100,2|10,0:0|0:0,0:0:0:0:
105,93,26825,1,2,3:2:0:0:
0,69,27178,1,10,0:0:0:0:
0,173,27531,6,0,P|64:223|121:250,1,100,2|8,3:2|0:0,0:0:0:0:
192,243,28237,1,0,3:0:0:0:
285,187,28590,1,8,0:0:0:0:
285,187,28767,2,0,P|350:165|454:152,1,150,0|8,3:0|0:0,0:0:0:0:
512,218,29649,1,0,3:0:0:0:
490,319,30002,2,0,L|426:311,1,50,8|0,0:0|3:0,0:0:0:0:
400,294,30355,6,0,P|345:301|276:330,1,100,6|8,3:2|0:0,0:0:0:0:
211,376,31061,1,2,3:2:0:0:
211,376,31237,2,0,P|187:321|161:283,1,100,2|2,3:2|3:2,0:0:0:0:
132,253,31767,1,2,0:0:0:0:
183,162,32119,1,10,0:0:0:0:
291,173,32472,1,2,3:2:0:0:
342,82,32824,1,10,0:0:0:0:
269,5,33178,6,0,P|193:9|146:26,1,100,2|10,3:2|0:0,0:0:0:0:
51,17,33884,2,0,P|75:77|80:129,1,100,2|8,3:2|0:0,0:0:0:0:
70,159,34414,2,0,P|3:186|13:267,1,150,2|8,3:2|0:0,0:0:0:0:
64,340,35296,6,0,P|27:362|-3:391,2,75,2|0|2,3:2|0:0|3:2,0:0:0:0:
111,343,36002,1,2,3:2:0:0:
242,258,36531,1,2,0:0:0:0:
242,258,36708,2,0,P|285:266|339:300,1,100,2|8,3:2|0:0,0:0:0:0:
415,373,37414,1,2,0:0:0:0:
511,326,37767,1,10,0:0:0:0:
496,220,38119,1,2,3:2:0:0:
389,200,38472,1,10,0:0:0:0:
333,294,38825,6,0,P|280:315|215:323,1,100,2|8,3:2|0:0,0:0:0:0:
128,306,39531,1,0,3:0:0:0:
128,306,39708,1,0,3:0:0:0:
91,207,40061,2,0,L|114:28,1,150,6|12,3:2|0:2,0:0:0:0:
147,33,40767,2,0,L|326:10,1,150,0|8,0:0|0:0,0:0:0:0:
407,3,41649,5,2,3:2:0:0:
486,72,42002,1,14,0:2:0:0:
433,162,42355,1,2,3:2:0:0:
512,231,42708,1,10,0:0:0:0:
459,321,43061,2,0,P|416:352|359:373,1,100,2|8,0:0|0:0,0:0:0:0:
270,342,43767,6,0,L|208:356,2,50,2|2|10,3:2|3:2|0:0,0:0:0:0:
322,247,44472,2,0,P|352:186|305:57,1,200,2|0,3:2|3:0,0:0:0:0:
193,38,45531,2,0,P|206:110|96:132,1,200,10|8,0:0|0:0,0:0:0:0:
37,58,46590,6,0,P|24:35|-8:0,2,75,2|2|2,3:2|0:0|3:2,0:0:0:0:
10,94,47296,1,2,3:2:0:0:
134,220,47825,1,2,0:0:0:0:
134,220,48002,2,0,P|127:280|98:335,1,100,2|8,3:2|0:0,0:0:0:0:
8,350,48708,5,2,0:0:0:0:
0,242,49061,1,10,0:0:0:0:
51,148,49414,1,2,3:2:0:0:
147,102,49767,1,10,0:0:0:0:
258,108,50119,2,0,P|324:111|376:101,1,100,2|8,3:2|0:0,0:0:0:0:
461,70,50825,6,0,L|474:-7,2,75,2|2|2,3:2|0:0|3:2,0:0:0:0:
486,108,51531,2,0,L|496:222,1,100,2|10,0:0|0:0,0:0:0:0:
512,313,52237,1,2,3:2:0:0:
431,383,52590,1,10,0:0:0:0:
347,310,52943,6,0,P|331:273|265:237,1,100,6|10,3:2|0:0,0:0:0:0:
176,227,53649,1,2,3:2:0:0:
150,335,54002,1,10,0:0:0:0:
150,335,54178,2,0,P|95:381|29:353,1,150,2|8,3:2|0:0,0:0:0:0:
12,259,55061,5,2,3:2:0:0:
12,259,55237,1,2,3:2:0:0:
12,259,55414,1,10,0:0:0:0:
44,158,55767,2,0,P|83:118|222:166,1,200,2|2,3:2|3:2,0:0:0:0:
277,234,56825,2,0,P|316:274|455:226,1,200,14|8,0:0|0:0,0:0:0:0:
509,168,57884,1,0,3:0:0:0:
451,89,58237,1,8,0:0:0:0:
509,8,58590,5,4,3:2:0:0:
285,12,59296,1,10,0:0:0:0:
392,210,60002,2,0,L|509:187,2,100,2|0|10,3:2|3:0|0:0,0:0:0:0:
199,346,61414,6,0,P|184:282|98:266,1,150,14|10,0:2|0:0,0:0:0:0:
65,279,62119,1,2,3:2:0:0:
65,279,62296,1,0,3:0:0:0:
22,376,62649,1,0,3:0:0:0:
22,376,62826,1,4,3:2:0:0:
18,1,64237,6,0,L|44:116,1,110.000003356934,6|8,3:2|0:0,0:0:0:0:
144,172,64943,2,0,L|170:287,1,110.000003356934,0|8,3:0|0:0,0:0:0:0:
185,330,65472,1,0,3:0:0:0:
185,330,65649,2,0,P|242:370|300:364,1,110.000003356934,2|8,0:0|0:0,0:0:0:0:
398,374,66355,2,0,P|438:317|432:259,1,110.000003356934,2|8,3:2|0:0,0:0:0:0:
505,183,67061,5,2,3:2:0:0:
426,100,67414,1,8,0:0:0:0:
321,158,67767,1,0,3:0:0:0:
242,75,68120,1,8,0:0:0:0:
242,75,68296,2,0,P|260:15|309:-7,1,110.000003356934,0|0,3:0|3:0,0:0:0:0:
345,0,68825,2,0,P|397:14|431:16,1,55.0000016784668,10|0,0:0|0:0,0:0:0:0:
442,17,69178,1,2,3:2:0:0:
512,104,69531,1,10,0:0:0:0:
477,213,69884,6,0,L|359:236,1,110.000003356934,6|8,3:2|0:0,0:0:0:0:
325,247,70414,1,0,0:0:0:0:
325,247,70590,1,0,3:0:0:0:
275,355,70943,1,10,0:0:0:0:
157,384,71296,2,0,P|113:337|59:325,1,110.000003356934,2|8,0:0|0:0,0:0:0:0:
19,217,72002,2,0,P|63:170|117:158,1,110.000003356934,2|8,3:2|0:0,0:0:0:0:
169,58,72708,2,0,P|125:11|71:-1,1,110.000003356934,2|8,3:2|0:0,0:0:0:0:
38,8,73237,1,2,0:0:0:0:
0,107,73590,5,0,3:0:0:0:
0,107,73767,1,8,0:0:0:0:
0,107,73943,1,0,3:0:0:0:
110,255,74472,2,0,P|171:269|189:269,1,55.0000016784668,10|2,0:0|0:0,0:0:0:0:
207,263,74825,1,2,3:2:0:0:
249,158,75178,1,10,0:0:0:0:
366,128,75531,6,0,L|341:7,2,110.000003356934,6|8|0,3:2|0:0|3:0,0:0:0:0:
490,161,76590,1,10,0:0:0:0:
490,161,76767,1,0,3:0:0:0:
490,161,76943,2,0,L|468:286,1,110.000003356934,2|8,0:0|0:0,0:0:0:0:
395,365,77649,2,0,L|270:387,1,110.000003356934,2|8,3:2|0:0,0:0:0:0:
248,353,78178,1,2,0:0:0:0:
248,353,78355,6,0,L|52:333,1,165.000005035401,2|2,3:2|0:0,0:0:0:0:
37,332,79061,1,0,3:0:0:0:
4,222,79414,1,8,0:0:0:0:
100,148,79767,1,0,0:0:0:0:
100,148,79943,1,0,3:0:0:0:
208,201,80296,1,0,0:0:0:0:
208,201,80472,1,0,3:0:0:0:
313,146,80825,5,10,0:0:0:0:
412,209,81178,2,0,P|472:207|518:119,1,165.000005035401,6|2,3:2|0:0,0:0:0:0:
504,80,81884,1,0,3:0:0:0:
430,2,82237,1,10,0:0:0:0:
430,2,82414,1,2,3:2:0:0:
430,2,82590,2,0,P|376:56|294:27,1,165.000005035401,2|2,0:0|0:0,0:0:0:0:
274,0,83296,1,0,3:0:0:0:
173,57,83649,5,10,0:0:0:0:
173,57,83825,1,2,3:2:0:0:
173,57,84002,2,0,P|112:76|44:86,1,110.000003356934,2|8,3:2|0:0,0:0:0:0:
0,180,84708,2,0,P|61:199|129:209,1,110.000003356934,2|8,3:2|0:0,0:0:0:0:
227,168,85414,5,6,0:2:0:0:
314,262,85767,1,10,0:0:0:0:
412,185,86119,1,10,0:0:0:0:
502,276,86472,2,0,L|489:335,1,55.0000016784668,10|0,3:0|3:0,0:0:0:0:
475,373,86825,6,0,L|349:386,1,110.000003356934,6|8,3:2|0:0,0:0:0:0:
252,327,87531,2,0,L|126:340,1,110.000003356934,4|8,3:0|0:0,0:0:0:0:
106,360,88061,1,0,3:0:0:0:
106,360,88237,1,6,0:0:0:0:
14,287,88590,1,8,0:0:0:0:
0,170,88943,2,0,P|17:102|54:69,1,110.000003356934,2|8,3:2|0:0,0:0:0:0:
154,19,89649,5,6,3:2:0:0:
181,137,90002,1,8,0:0:0:0:
208,255,90355,1,0,3:0:0:0:
235,373,90708,1,8,0:0:0:0:
235,373,90884,2,0,P|301:382|350:369,1,110.000003356934,0|0,3:0|3:0,0:0:0:0:
376,340,91414,6,0,P|433:317|447:315,1,55.0000016784668,10|0,0:0|0:0,0:0:0:0:
471,318,91767,1,2,3:2:0:0:
512,215,92119,1,10,0:0:0:0:
445,120,92472,2,0,L|313:140,2,110.000003356934,6|8|0,3:2|0:0|3:0,0:0:0:0:
465,11,93531,1,10,0:0:0:0:
347,3,93884,6,0,P|306:16|260:71,1,110.000003356934,2|8,0:0|0:0,0:0:0:0:
155,118,94590,2,0,P|145:160|170:227,1,110.000003356934,2|8,3:2|0:0,0:0:0:0:
156,341,95296,2,0,P|187:370|258:382,1,110.000003356934,2|8,3:2|0:0,0:0:0:0:
288,368,95825,2,0,P|337:348|451:336,1,165.000005035401,2|8,0:0|0:0,0:0:0:0:
470,358,96531,6,0,P|412:344|383:229,1,165.000005035401,4|10,3:2|0:0,0:0:0:0:
466,176,97414,2,0,P|494:146|498:58,1,110.000003356934,10|10,0:0|0:0,0:0:0:0:
407,4,98119,5,6,3:2:0:0:
355,113,98471,1,8,0:0:0:0:
304,223,98824,1,8,0:0:0:0:
253,333,99177,1,10,0:0:0:0:
211,352,99355,1,0,3:0:0:0:
170,374,99531,2,0,L|107:274,1,110.000003356934,10|8,0:0|0:0,0:0:0:0:
117,236,100061,1,2,3:2:0:0:
117,236,100237,2,0,L|54:136,1,110.000003356934,10|8,0:0|0:0,0:0:0:0:
0,36,100943,5,14,0:0:0:0:
115,1,101296,1,8,0:0:0:0:
237,0,101649,1,8,0:0:0:0:
356,35,102002,1,8,0:0:0:0:
443,124,102355,1,8,0:0:0:0:
499,234,102708,1,8,0:0:0:0:
498,356,103061,1,8,0:0:0:0:
386,378,103414,5,14,0:0:0:0:
386,378,103590,1,2,0:0:0:0:
386,378,103767,2,0,P|390:338|293:274,1,165.000005035401,4|2,3:2|0:0,0:0:0:0:
261,292,104472,1,0,3:0:0:0:
166,361,104825,1,10,0:0:0:0:
166,361,105001,1,2,3:2:0:0:
166,361,105178,2,0,P|129:377|38:304,1,165.000005035401,2|2,0:0|0:0,0:0:0:0:
45,268,105883,1,0,3:0:0:0:
111,177,106237,5,10,0:0:0:0:
111,177,106414,1,2,3:2:0:0:
111,177,106590,2,0,P|68:137|19:108,1,110.000003356934,6|8,3:2|0:0,0:0:0:0:
3,2,107296,2,0,P|63:-2|122:5,1,110.000003356934,2|8,3:2|0:0,0:0:0:0:
235,39,108002,5,6,0:2:0:0:
229,158,108355,1,10,0:0:0:0:
318,241,108708,1,10,0:0:0:0:
312,360,109061,1,10,0:0:0:0:
431,366,109414,6,0,P|464:370|505:383,2,75,6|2|2,3:2|0:0|0:0,0:0:0:0:
433,322,110119,2,0,P|461:305|502:292,2,75,2|2|2,3:2|0:0|3:2,0:0:0:0:
409,281,110825,1,2,0:0:0:0:
272,214,111355,1,2,0:0:0:0:
272,214,111531,1,2,3:2:0:0:
421,58,112237,6,0,P|443:26|460:-13,2,75,2|2|2,3:2|0:0|0:0,0:0:0:0:
443,101,112943,2,0,P|480:93|520:78,2,75,2|2|2,3:2|0:0|3:2,0:0:0:0:
443,149,113649,1,0,0:0:0:0:
374,282,114178,1,2,0:0:0:0:
374,282,114354,1,2,3:2:0:0:
302,352,114708,1,10,0:0:0:0:
203,380,115061,6,0,P|176:336|130:309,1,100,6|8,3:2|0:0,0:0:0:0:
25,296,115767,2,0,P|47:252|48:202,1,100,2|8,3:2|0:0,0:0:0:0:
116,116,116472,2,0,P|116:66|139:22,1,100,2|8,0:0|0:0,0:0:0:0:
248,0,117178,2,0,P|278:39|287:88,2,100,2|8|6,3:2|0:0|3:2,0:0:0:0:
256,192,118061,12,10,120002,0:0:0:0:
296,247,120708,5,6,3:2:0:0:
