osu file format v14

[General]
AudioFilename: audio.mp3
AudioLeadIn: 0
PreviewTime: 234608
Countdown: 1
SampleSet: Normal
StackLeniency: 0.7
Mode: 0
LetterboxInBreaks: 0
WidescreenStoryboard: 0

[Editor]
Bookmarks: 46762,59454
DistanceSpacing: 0.5
BeatDivisor: 4
GridSize: 4
TimelineZoom: 1.7

[Metadata]
Title:Fantastic Nerve
TitleUnicode:ファンタスティック・ナーヴ
Artist:Chata
ArtistUnicode:茶太
Creator:Ireiisu
Version:
Source:燐光とその他 2+1
Tags:
BeatmapID:984406
BeatmapSetID:459507

[Difficulty]
HPDrainRate:5
CircleSize:4
OverallDifficulty:6
ApproachRate:8.8
SliderMultiplier:1.8
SliderTickRate:1

[Events]
//Background and Video events
//Break Periods
2,127762,139993
//Storyboard Layer 0 (Background)
//Storyboard Layer 1 (Fail)
//Storyboard Layer 2 (Pass)
//Storyboard Layer 3 (Foreground)
//Storyboard Sound Samples

[TimingPoints]
147,461.538461538462,4,1,0,20,1,0
1993,-100,4,1,0,20,0,0
3839,-100,4,1,0,20,0,0
7531,-133.333333333333,4,1,0,40,0,0
22300,-100,4,1,0,40,0,0
51839,-111.111111111111,4,1,0,35,0,0
65223,-133.333333333333,4,1,0,35,0,0
65685,-153.846153846153,4,1,0,35,0,0
66608,-111.111111111111,4,1,0,38,0,0
77685,-111.111111111111,4,1,0,40,0,0
96147,-166.666666666667,4,1,0,30,0,0
96608,-133.333333333333,4,1,0,35,0,0
97993,-100,4,1,0,40,0,1
110916,-166.666666666667,4,1,0,30,0,1
111377,-133.333333333333,4,1,0,35,0,1
112762,-100,4,1,0,40,0,1
118762,-90.9090909090909,4,1,0,35,0,1
120147,-100,4,1,0,40,0,1
127531,-100,4,1,0,40,0,0
142300,-111.111111111111,4,1,0,35,0,0
155223,-133.333333333333,4,1,0,30,0,0
155916,-153.846153846153,4,1,0,30,0,0
156608,-90.9090909090909,4,1,0,35,0,0
157070,-100,4,1,0,35,0,0
171839,-100,4,1,0,35,0,0
186608,-166.666666666667,4,1,0,30,0,0
187070,-133.333333333333,4,1,0,35,0,0
188454,-100,4,1,0,40,0,1
201377,-166.666666666667,4,1,0,30,0,1
201839,-133.333333333333,4,1,0,35,0,1
203223,-100,4,1,0,40,0,1
209223,-90.9090909090909,4,1,0,35,0,1
210608,-100,4,1,0,40,0,1
217993,-90.9090909090909,4,1,0,40,0,0
231839,-90.9090909090909,4,1,0,40,0,0
234608,-166.666666666667,4,1,0,30,0,0
235070,-133.333333333333,4,1,0,35,0,0
236454,-100,4,1,0,40,0,1
249377,-166.666666666667,4,1,0,40,0,1
249839,-133.333333333333,4,1,0,35,0,1
251223,-100,4,1,0,40,0,1
257223,-90.9090909090909,4,1,0,35,0,1
258608,-100,4,1,0,40,0,1
265993,-100,4,1,0,40,0,0
295531,-100,4,1,0,40,0,0

[HitObjects]
256,192,147,12,0,7070,0:0:0:0:
308,48,7531,5,0,0:0:0:0:
372,196,7993,2,0,P|340:252|300:272,1,101.250003862381
268,268,8454,1,0,0:0:0:0:
180,212,8685,1,0,0:0:0:0:
232,104,8916,2,0,L|316:68,1,67.5000025749208
352,148,9377,5,0,0:0:0:0:
264,192,9608,1,0,0:0:0:0:
232,104,9839,2,0,L|156:60,1,67.5000025749208
140,72,10185,1,0,0:0:0:0:
104,96,10300,1,0,0:0:0:0:
184,212,10532,1,0,0:0:0:0:
336,268,10762,2,0,B|360:232|360:232|360:180|340:172,1,101.250003862381
328,152,11224,5,0,0:0:0:0:
256,64,11455,1,0,0:0:0:0:
192,164,11685,2,0,L|200:276,1,101.250003862381
216,300,12147,2,0,L|288:324,2,67.5000025749208
336,232,12839,2,0,P|388:208|412:144,1,101.250003862381
368,96,13300,1,0,0:0:0:0:
256,64,13531,1,0,0:0:0:0:
192,164,13762,2,0,L|84:224,1,101.250003862381
100,240,14223,1,0,0:0:0:0:
184,344,14454,1,0,0:0:0:0:
244,224,14685,1,0,0:0:0:0:
408,204,14916,6,0,P|388:136|348:100,1,101.250003862381
328,88,15377,2,0,L|244:76,1,67.5000025749208
224,76,15723,1,0,0:0:0:0:
184,88,15839,1,0,0:0:0:0:
104,184,16070,2,0,L|104:264,1,67.5000025749208
380,172,16532,6,0,L|380:256,1,67.5000025749208
368,268,16878,1,0,0:0:0:0:
336,296,16993,1,0,0:0:0:0:
184,312,17223,1,0,0:0:0:0:
248,208,17454,1,0,0:0:0:0:
145,160,17685,2,0,P|169:108|217:96,1,101.250003862381
232,92,18147,1,0,0:0:0:0:
392,132,18377,1,0,0:0:0:0:
380,239,18608,6,0,L|276:287,1,101.250003862381
256,291,19070,2,0,P|212:291|172:271,1,67.5000025749208
152,168,19531,1,0,0:0:0:0:
248,84,19762,1,0,0:0:0:0:
376,136,19993,2,0,L|444:200,2,67.5000025749208
152,120,21377,5,0,0:0:0:0:
128,164,21493,1,0,0:0:0:0:
164,200,21608,1,0,0:0:0:0:
268,176,21839,1,0,0:0:0:0:
308,148,21954,1,0,0:0:0:0:
352,172,22070,1,0,0:0:0:0:
456,224,22300,6,0,P|468:168|452:112,1,90
384,56,22762,1,0,0:0:0:0:
348,168,22993,1,0,0:0:0:0:
240,148,23223,2,0,L|216:236,2,90
156,60,23916,1,0,0:0:0:0:
80,160,24147,2,0,P|88:216|132:280,1,135
144,304,24608,2,0,P|200:352|232:352,1,90
364,336,25070,1,0,0:0:0:0:
214,282,25300,1,0,0:0:0:0:
364,208,25531,1,0,0:0:0:0:
214,166,25762,1,0,0:0:0:0:
184,92,25993,6,0,P|140:140|149:205,1,135
180,248,26454,1,0,0:0:0:0:
316,272,26685,1,0,0:0:0:0:
404,160,26916,2,0,P|444:104|452:56,1,90
424,64,27262,1,0,0:0:0:0:
384,56,27377,1,0,0:0:0:0:
160,110,27608,6,0,P|145:177|152:228,1,90
390,312,28070,2,0,P|404:244|392:192,1,90
146,198,28531,2,0,P|183:255|232:290,1,90
396,187,28993,2,0,P|357:128|316:101,1,90
232,124,29455,1,0,0:0:0:0:
146,198,29685,6,0,P|126:250|114:298,2,90
252,128,30377,1,0,0:0:0:0:
360,224,30608,2,0,P|380:172|392:124,1,90
372,108,30954,1,0,0:0:0:0:
340,76,31070,1,0,0:0:0:0:
228,48,31300,2,0,P|172:64|128:96,1,90
252,128,31762,1,0,0:0:0:0:
244,240,31993,2,0,P|300:224|344:192,2,90
141,236,32685,1,0,0:0:0:0:
255,139,32916,1,0,0:0:0:0:
141,68,33147,1,0,0:0:0:0:
312,68,33377,6,0,P|356:96|392:180,1,135
380,208,33839,1,0,0:0:0:0:
308,296,34070,1,0,0:0:0:0:
184,288,34300,2,0,P|144:236|152:192,2,90
260,188,34993,1,0,0:0:0:0:
228,48,35223,2,0,L|124:48,1,90
104,64,35570,1,0,0:0:0:0:
80,92,35685,1,0,0:0:0:0:
112,216,35916,2,0,P|160:240|216:232,1,90
244,92,36377,2,0,P|304:112|332:160,1,90
332,160,36723,1,0,0:0:0:0:
344,200,36839,1,0,0:0:0:0:
216,248,37070,6,0,L|124:264,2,90
344,316,37762,1,0,0:0:0:0:
376,192,37993,2,0,P|416:136|407:101,2,90
272,96,38685,2,0,P|240:124|224:204,2,90
376,192,39377,1,0,0:0:0:0:
304,284,39608,2,0,P|272:316|208:308,1,90
108,236,40070,1,0,0:0:0:0:
172,128,40300,1,0,0:0:0:0:
243,230,40531,1,0,0:0:0:0:
336,76,40762,6,0,P|392:104|400:208,1,135
416,200,41223,2,0,P|388:272|356:300,1,90
241,271,41685,1,0,0:0:0:0:
158,195,41916,1,0,0:0:0:0:
187,84,42147,1,0,0:0:0:0:
323,47,42377,2,0,L|415:95,1,90
221,247,42839,2,0,L|141:191,1,90
383,138,43300,2,0,L|414:237,1,90
160,240,43761,2,0,L|129:141,2,90
340,100,44454,6,0,B|376:140|376:140|308:244,1,135
316,232,44916,2,0,L|228:280,1,90
248,152,45377,1,0,0:0:0:0:
380,164,45608,1,0,0:0:0:0:
364,288,45839,2,0,P|432:272|452:236,1,90
380,164,46300,1,0,0:0:0:0:
276,212,46531,1,0,0:0:0:0:
220,124,46762,2,0,P|152:140|132:176,1,90
156,284,47223,1,0,0:0:0:0:
207,196,47454,1,0,0:0:0:0:
272,284,47685,1,0,0:0:0:0:
324,196,47916,1,0,0:0:0:0:
344,60,48147,6,0,L|232:108,1,90
144,68,48608,1,0,0:0:0:0:
100,172,48839,2,0,L|156:252,1,90
248,212,49300,1,0,0:0:0:0:
332,296,49531,1,0,0:0:0:0:
408,204,49762,2,0,P|444:136|452:88,1,90
308,152,50223,1,0,0:0:0:0:
216,96,50454,2,0,P|184:176|192:208,1,90
188,208,50800,5,0,0:0:0:0:
208,240,50916,1,0,0:0:0:0:
364,280,51147,1,0,0:0:0:0:
300,144,51377,1,0,0:0:0:0:
204,280,51608,1,0,0:0:0:0:
300,144,51839,5,0,0:0:0:0:
384,288,52070,1,0,0:0:0:0:
232,268,52300,2,0,P|216:216|240:160,1,80.9999975280763
130,180,52762,1,0,0:0:0:0:
120,304,52993,1,0,0:0:0:0:
232,268,53223,2,0,L|316:220,2,80.9999975280763
120,304,53916,5,0,0:0:0:0:
130,180,54146,1,0,0:0:0:0:
244,224,54377,1,0,0:0:0:0:
264,116,54608,2,0,P|304:116|348:172,1,80.9999975280763
364,236,55070,1,0,0:0:0:0:
256,212,55300,2,0,L|156:160,1,80.9999975280763
115,169,55762,5,0,0:0:0:0:
185,236,55993,2,0,L|256:275,2,80.9999975280763
115,169,56685,1,0,0:0:0:0:
236,185,56916,1,0,0:0:0:0:
329,124,57147,2,0,L|419:67,1,80.9999975280763
236,185,57608,5,0,0:0:0:0:
329,124,57839,1,0,0:0:0:0:
374,256,58070,2,0,L|455:307,1,80.9999975280763
329,124,58531,1,0,0:0:0:0:
374,256,58762,1,0,0:0:0:0:
252,262,58993,2,0,L|172:332,1,80.9999975280763
374,256,59454,5,0,0:0:0:0:
260,148,59685,2,0,L|164:148,1,80.9999975280763
252,280,60147,2,0,L|296:368,2,80.9999975280763
204,176,60839,1,0,0:0:0:0:
336,152,61070,1,0,0:0:0:0:
372,288,61300,1,0,0:0:0:0:
252,280,61531,6,0,L|180:348,2,80.9999975280763
312,172,62223,1,0,0:0:0:0:
372,288,62454,1,0,0:0:0:0:
444,164,62685,2,0,P|444:123|426:87,1,80.9999975280763
296,72,63147,5,0,0:0:0:0:
216,164,63377,1,0,0:0:0:0:
324,228,63608,2,0,L|344:320,2,80.9999975280763
424,136,64300,1,0,0:0:0:0:
304,104,64531,2,0,L|208:48,1,80.9999975280763
228,204,64993,2,0,L|308:220,1,80.9999975280763
176,296,65454,2,0,L|108:304,1,67.5000025749208
24,224,65916,5,0,0:0:0:0:
32,180,66031,1,0,0:0:0:0:
56,140,66147,2,0,L|100:88,1,58.4999973220826
362,132,66608,6,0,L|402:224,1,80.9999975280763
236,280,67070,2,0,L|152:240,1,80.9999975280763
152,120,67531,1,0,0:0:0:0:
283,111,67762,2,0,L|375:135,1,80.9999975280763
352,268,68223,2,0,P|312:308|264:316,1,80.9999975280763
176,128,68685,2,0,P|216:84|264:80,1,80.9999975280763
272,234,69147,1,0,0:0:0:0:
168,324,69378,1,0,0:0:0:0:
75,220,69609,1,0,0:0:0:0:
176,128,69839,1,0,0:0:0:0:
252,248,70070,6,0,L|308:316,2,80.9999975280763
176,128,70762,1,0,0:0:0:0:
312,64,70993,1,0,0:0:0:0:
400,168,71223,2,0,L|396:276,2,80.9999975280763
292,68,71916,6,0,P|224:60|208:76,1,80.9999975280763
319,241,72377,2,0,P|380:242|396:226,1,80.9999975280763
292,68,72839,1,0,0:0:0:0:
323,245,73070,1,0,0:0:0:0:
292,68,73300,1,0,0:0:0:0:
140,152,73531,1,0,0:0:0:0:
260,292,73762,6,0,P|324:276|360:248,1,80.9999975280763
184,108,74223,2,0,P|120:124|84:152,2,80.9999975280763
332,108,74916,1,0,0:0:0:0:
392,224,75147,2,0,L|336:304,1,80.9999975280763
248,284,75608,5,0,0:0:0:0:
132,312,75839,1,0,0:0:0:0:
96,196,76070,2,0,P|128:156|180:140,1,80.9999975280763
132,312,76531,1,0,0:0:0:0:
96,196,76762,1,0,0:0:0:0:
208,128,76993,2,0,P|252:163|271:216,1,80.9999975280763
292,240,77454,5,0,0:0:0:0:
208,128,77685,2,0,P|172:168|180:228,1,80.9999975280763
292,240,78147,1,0,0:0:0:0:
392,252,78378,2,0,P|389:305|341:342,1,80.9999975280763
292,240,78839,5,0,0:0:0:0:
232,144,79070,1,0,0:0:0:0:
332,100,79300,2,0,P|396:112|412:144,1,80.9999975280763
288,264,79762,2,0,P|236:264|200:252,1,80.9999975280763
368,84,80223,2,0,P|408:86|440:120,1,80.9999975280763
268,328,80685,5,0,0:0:0:0:
232,328,80800,1,0,0:0:0:0:
196,320,80916,2,0,P|144:280|128:252,1,80.9999975280763
88,176,81377,2,0,P|96:104|128:72,1,80.9999975280763
204,144,81839,1,0,0:0:0:0:
272,56,82070,2,0,P|320:56|348:76,1,80.9999975280763
424,160,82531,1,0,0:0:0:0:
368,272,82762,5,0,0:0:0:0:
288,160,82993,2,0,L|261:271,1,80.9999975280763
116,254,83454,2,0,L|144:152,1,80.9999975280763
360,149,83916,2,0,L|296:240,1,80.9999975280763
120,200,84377,2,0,L|160:124,2,80.9999975280763
204,280,85070,6,0,P|280:300|312:300,1,80.9999975280763
408,240,85531,1,0,0:0:0:0:
344,120,85762,1,0,0:0:0:0:
281,300,85993,6,0,P|348:260|371:237,1,80.9999975280763
344,120,86454,1,0,0:0:0:0:
212,64,86685,2,0,L|163:148,1,80.9999975280763
96,196,87147,2,0,L|116:284,1,80.9999975280763
220,280,87608,1,0,0:0:0:0:
264,176,87839,1,0,0:0:0:0:
392,104,88070,6,0,L|436:196,2,80.9999975280763
264,176,88762,2,0,L|248:280,1,80.9999975280763
116,180,89223,2,0,L|128:99,1,80.9999975280763
272,68,89685,1,0,0:0:0:0:
376,116,89916,2,0,L|416:196,1,80.9999975280763
350,259,90377,6,0,P|286:299|256:293,2,80.9999975280763
288,228,91070,1,0,0:0:0:0:
162,91,91300,6,0,P|226:51|264:51,2,80.9999975280763
224,128,91993,1,0,0:0:0:0:
328,232,92223,1,0,0:0:0:0:
192,336,92454,6,0,L|116:272,1,80.9999975280763
104,164,92916,1,0,0:0:0:0:
212,112,93147,1,0,0:0:0:0:
316,184,93377,2,0,L|392:244,1,80.9999975280763
428,96,93839,1,0,0:0:0:0:
256,192,94070,12,0,95685,0:0:0:0:
208,64,96147,6,0,P|140:84|132:100,1,80.9999975280763
112,124,96608,2,0,P|92:148|92:188,1,67.5000025749208
168,240,97070,5,0,0:0:0:0:
216,248,97185,1,0,0:0:0:0:
264,244,97300,2,0,P|304:240|332:212,1,67.5000025749208
356,200,97647,1,0,0:0:0:0:
392,192,97762,1,0,0:0:0:0:
424,224,97877,1,0,0:0:0:0:
424,260,97993,6,0,P|404:316|344:336,1,90
176,204,98454,2,0,P|200:140|224:128,1,90
380,184,98916,1,0,0:0:0:0:
276,324,99147,2,0,P|204:292|192:272,1,90
32,102,99608,5,0,0:0:0:0:
195,106,99839,1,0,0:0:0:0:
46,212,100070,1,0,0:0:0:0:
118,34,100300,1,0,0:0:0:0:
156,212,100531,1,0,0:0:0:0:
272,300,100762,1,0,0:0:0:0:
264,160,100993,2,0,P|228:120|160:104,1,90
72,192,101454,1,0,0:0:0:0:
120,268,101685,6,0,L|68:356,1,90
188,336,102147,1,0,0:0:0:0:
304,312,102377,2,0,L|364:228,1,90
312,128,102839,1,0,0:0:0:0:
200,104,103070,2,0,L|124:188,1,90
236,327,103531,5,0,0:0:0:0:
236,186,103762,1,0,0:0:0:0:
320,128,103993,1,0,0:0:0:0:
152,260,104224,1,0,0:0:0:0:
336,260,104455,1,0,0:0:0:0:
184,128,104685,1,0,0:0:0:0:
236,327,104916,1,0,0:0:0:0:
320,128,105147,1,0,0:0:0:0:
416,200,105377,6,0,P|428:260|410:296,2,90
300,223,106070,1,0,0:0:0:0:
132,276,106300,1,0,0:0:0:0:
100,104,106531,1,0,0:0:0:0:
281,120,106762,2,0,P|345:128|381:168,1,90
416,192,107223,5,0,0:0:0:0:
248,192,107454,1,0,0:0:0:0:
348,320,107685,1,0,0:0:0:0:
344,120,107916,1,0,0:0:0:0:
348,336,108147,1,0,0:0:0:0:
344,100,108377,1,0,0:0:0:0:
312,92,108493,1,0,0:0:0:0:
284,104,108608,2,0,P|232:136|192:184,1,90
248,280,109070,5,0,0:0:0:0:
399,280,109300,1,0,0:0:0:0:
322,150,109531,1,0,0:0:0:0:
248,280,109762,1,0,0:0:0:0:
99,280,109992,1,0,0:0:0:0:
176,150,110223,1,0,0:0:0:0:
248,280,110454,1,0,0:0:0:0:
322,117,110685,1,0,0:0:0:0:
156,84,110916,6,0,L|108:128,1,53.9999983520508
112,152,111262,1,0,0:0:0:0:
124,192,111377,2,0,P|168:224|160:252,1,67.5000025749208
149,270,111723,1,0,0:0:0:0:
145,313,111839,1,0,0:0:0:0:
196,321,111954,1,0,0:0:0:0:
233,348,112070,1,0,0:0:0:0:
277,330,112185,1,0,0:0:0:0:
305,298,112300,2,0,P|335:237|328:217,1,67.5000025749208
135,106,112762,6,0,P|117:147|116:191,1,90
335,241,113223,2,0,P|352:199|353:155,1,90
188,112,113685,1,0,0:0:0:0:
308,304,113916,1,0,0:0:0:0:
280,80,114147,1,0,0:0:0:0:
224,316,114377,1,0,0:0:0:0:
364,112,114608,2,0,P|396:60|396:24,1,90
172,248,115070,2,0,P|120:304|120:328,1,90
119,313,115416,1,0,0:0:0:0:
119,313,115531,1,0,0:0:0:0:
360,112,115762,1,0,0:0:0:0:
196,316,115993,6,0,P|172:360|92:380,1,135
120,308,116454,2,0,P|72:284|80:236,1,90
296,64,116916,2,0,P|344:88|368:128,1,90
110,208,117377,1,0,0:0:0:0:
392,178,117608,1,0,0:0:0:0:
123,127,117839,1,0,0:0:0:0:
387,264,118070,1,0,0:0:0:0:
240,48,118300,6,0,B|256:36|256:36|304:12|284:36|284:36|296:52|316:48|316:48|336:84|320:112,1,135
328,83,118762,5,0,0:0:0:0:
165,200,118993,1,0,0:0:0:0:
376,110,119223,1,0,0:0:0:0:
125,160,119454,1,0,0:0:0:0:
404,170,119685,1,0,0:0:0:0:
114,98,119916,1,0,0:0:0:0:
411,249,120147,6,0,P|487:221|467:127,1,180
377,86,120839,1,0,0:0:0:0:
411,249,121070,1,0,0:0:0:0:
281,185,121300,2,0,P|226:153|163:158,1,90
85,75,121762,5,0,0:0:0:0:
200,150,121993,1,0,0:0:0:0:
85,75,122223,1,0,0:0:0:0:
277,79,122454,1,0,0:0:0:0:
85,75,122685,1,0,0:0:0:0:
317,79,122916,1,0,0:0:0:0:
85,75,123147,1,0,0:0:0:0:
345,79,123377,2,0,P|377:151|373:211,1,135
357,231,123839,5,0,0:0:0:0:
235,303,124070,2,0,P|183:279|167:239,1,90
168,120,124531,2,0,P|232:100|272:108,1,90
348,184,124993,1,0,0:0:0:0:
235,303,125223,1,0,0:0:0:0:
232,72,125454,6,0,L|140:100,1,90
256,188,125916,1,0,0:0:0:0:
410,170,126147,2,0,P|414:230|393:283,1,90
381,288,126493,1,0,0:0:0:0:
344,312,126608,1,0,0:0:0:0:
304,328,126723,1,0,0:0:0:0:
260,336,126839,2,0,P|212:336|160:320,1,90
124,188,127300,1,0,0:0:0:0:
256,192,127531,5,0,0:0:0:0:
292,100,140916,6,0,P|336:152|348:224,1,135
340,252,141377,1,0,0:0:0:0:
324,284,141493,1,0,0:0:0:0:
296,308,141608,2,0,P|248:300|204:304,1,90
168,304,141954,1,0,0:0:0:0:
132,280,142070,1,0,0:0:0:0:
152,236,142185,1,0,0:0:0:0:
196,236,142300,1,0,0:0:0:0:
292,344,142531,5,0,0:0:0:0:
408,288,142762,2,0,P|444:232|456:172,1,121.499996292114
444,140,143223,1,0,0:0:0:0:
296,120,143454,1,0,0:0:0:0:
192,208,143685,1,0,0:0:0:0:
296,284,143916,2,0,P|352:276|396:248,1,80.9999975280763
218,101,144377,2,0,P|274:109|318:137,1,80.9999975280763
424,200,144839,5,0,0:0:0:0:
328,296,145070,2,0,P|252:308|204:272,1,121.499996292114
192,256,145531,1,0,0:0:0:0:
160,128,145762,2,0,P|188:88|224:80,1,80.9999975280763
385,247,146223,2,0,P|357:287|321:295,1,80.9999975280763
344,152,146685,5,0,0:0:0:0:
184,204,146916,1,0,0:0:0:0:
216,60,147147,1,0,0:0:0:0:
76,100,147377,2,0,P|64:176|80:204,2,80.9999975280763
318,202,148070,2,0,P|330:126|314:98,2,80.9999975280763
262,152,148762,1,0,0:0:0:0:
133,158,148993,1,0,0:0:0:0:
199,282,149223,2,0,L|139:350,2,80.9999975280763
262,152,149916,1,0,0:0:0:0:
326,259,150147,6,0,P|358:223|390:183,1,80.9999975280763
270,67,150608,2,0,L|262:163,1,80.9999975280763
156,216,151070,1,0,0:0:0:0:
284,300,151300,2,0,L|380:336,1,80.9999975280763
376,224,151762,2,0,L|440:164,1,80.9999975280763
315,107,152223,5,0,0:0:0:0:
171,103,152454,1,0,0:0:0:0:
135,235,152685,1,0,0:0:0:0:
271,294,152916,2,0,P|363:278|375:271,2,80.9999975280763
135,235,153608,1,0,0:0:0:0:
205,194,153839,6,0,L|125:242,2,80.9999975280763
264,72,154531,1,0,0:0:0:0:
384,128,154762,1,0,0:0:0:0:
364,272,154993,2,0,L|264:312,1,80.9999975280763
180,264,155454,2,0,L|260:232,1,67.5000025749208
280,136,155916,2,0,L|184:180,1,87.749995983124
188,212,156377,1,0,0:0:0:0:
216,252,156493,1,0,0:0:0:0:
264,272,156608,1,0,0:0:0:0:
312,256,156723,1,0,0:0:0:0:
344,224,156839,5,0,0:0:0:0:
380,224,156954,1,0,0:0:0:0:
400,248,157070,2,0,P|392:316|360:352,1,90
144,168,157531,2,0,P|152:100|184:64,1,90
384,136,157993,1,0,0:0:0:0:
236,296,158223,2,0,P|192:272|172:216,1,90
384,140,158685,2,0,P|400:192|384:232,1,90
160,240,159147,2,0,P|144:188|160:148,1,90
384,140,159608,1,0,0:0:0:0:
154,155,159839,1,0,0:0:0:0:
408,204,160070,1,0,0:0:0:0:
184,76,160300,1,0,0:0:0:0:
352,268,160531,5,0,0:0:0:0:
440,276,160762,2,0,P|392:340|348:340,1,90
144,128,161223,2,0,P|192:64|236:64,1,90
364,192,161685,1,0,0:0:0:0:
168,312,161916,2,0,P|128:284|108:224,1,90
364,192,162377,2,0,L|388:296,1,90
120,272,162839,2,0,L|104:156,1,90
380,124,163300,1,0,0:0:0:0:
96,96,163531,1,0,0:0:0:0:
392,192,163762,1,0,0:0:0:0:
96,28,163993,1,0,0:0:0:0:
148,24,164108,5,0,0:0:0:0:
180,64,164223,1,0,0:0:0:0:
188,104,164339,1,0,0:0:0:0:
172,140,164454,2,0,P|156:188|168:240,1,90
340,244,164916,2,0,P|356:196|344:144,1,90
64,228,165377,2,0,P|108:288|132:308,2,90
420,220,166070,2,0,P|376:280|352:300,1,90
124,124,166531,2,0,P|168:64|192:44,1,90
240,304,166993,1,0,0:0:0:0:
124,124,167224,1,0,0:0:0:0:
320,236,167455,1,0,0:0:0:0:
216,64,167685,1,0,0:0:0:0:
360,128,167916,6,0,P|384:208|380:240,1,90
216,64,168377,1,0,0:0:0:0:
392,124,168608,2,0,P|416:204|412:236,1,90
216,64,169070,1,0,0:0:0:0:
432,116,169301,2,0,P|456:196|452:228,2,90
400,104,169877,1,0,0:0:0:0:
360,96,169993,1,0,0:0:0:0:
288,164,170223,5,0,0:0:0:0:
276,200,170339,1,0,0:0:0:0:
244,220,170454,1,0,0:0:0:0:
117,225,170685,1,0,0:0:0:0:
88,192,170800,1,0,0:0:0:0:
71,160,170916,2,0,P|92:107|131:84,1,90
208,63,171377,5,0,0:0:0:0:
248,50,171608,2,0,P|316:54|364:78,1,90
228,272,172070,2,0,L|132:224,1,90
320,92,172531,2,0,L|416:140,1,90
360,236,172993,1,0,0:0:0:0:
228,272,173223,1,0,0:0:0:0:
152,112,173454,6,0,L|252:92,1,90
308,288,173916,2,0,L|200:320,1,90
176,78,174377,2,0,L|277:93,1,90
272,299,174839,2,0,L|159:293,1,90
96,208,175300,1,0,0:0:0:0:
200,128,175531,1,0,0:0:0:0:
340,180,175762,6,0,L|336:280,2,90
200,128,176454,1,0,0:0:0:0:
340,180,176685,1,0,0:0:0:0:
220,268,176916,2,0,L|124:284,1,90
88,160,177377,2,0,L|152:76,1,90
304,92,177839,2,0,L|384:148,2,90
172,72,178531,5,0,0:0:0:0:
164,200,178762,1,0,0:0:0:0:
184,232,178877,1,0,0:0:0:0:
216,248,178993,2,0,P|292:264|336:268,1,90
296,80,179454,2,0,P|224:56|204:60,1,90
216,248,179916,1,0,0:0:0:0:
372,224,180147,2,0,P|412:168|428:124,1,90
248,68,180608,5,0,0:0:0:0:
384,88,180839,2,0,P|392:156|346:261,1,180
249,71,181531,1,0,0:0:0:0:
156,156,181762,2,0,P|148:224|204:335,1,180
331,375,182454,1,0,0:0:0:0:
353,255,182685,1,0,0:0:0:0:
276,88,182916,5,0,0:0:0:0:
160,176,183147,1,0,0:0:0:0:
264,280,183377,2,0,P|340:300|372:292,1,90
276,88,183839,5,0,0:0:0:0:
368,172,184070,1,0,0:0:0:0:
264,280,184300,2,0,P|188:300|156:292,1,90
256,192,184762,12,0,185916,0:0:0:0:
304,92,186147,5,0,0:0:0:0:
340,68,186262,1,0,0:0:0:0:
383,48,186377,1,0,0:0:0:0:
413,81,186493,1,0,0:0:0:0:
412,124,186608,2,0,B|396:164|360:172|340:168,1,80.9999975280763
312,156,187070,2,0,P|272:184|272:200,1,67.5000025749208
300,224,187416,1,0,0:0:0:0:
332,256,187531,5,0,0:0:0:0:
316,296,187647,1,0,0:0:0:0:
264,296,187762,1,0,0:0:0:0:
240,256,187877,1,0,0:0:0:0:
204,220,187993,5,0,0:0:0:0:
220,176,188108,1,0,0:0:0:0:
268,180,188223,1,0,0:0:0:0:
284,224,188339,1,0,0:0:0:0:
324,248,188454,2,0,P|368:192|384:152,1,90
328,56,188916,1,0,0:0:0:0:
184,88,189147,2,0,P|136:104|96:152,1,90
104,236,189608,1,0,0:0:0:0:
196,315,189839,1,0,0:0:0:0:
319,319,190070,6,0,P|359:307|409:272,1,90
306,94,190531,1,0,0:0:0:0:
279,246,190762,1,0,0:0:0:0:
181,94,190993,1,0,0:0:0:0:
129,246,191223,1,0,0:0:0:0:
247,62,191454,1,0,0:0:0:0:
279,246,191685,1,0,0:0:0:0:
396,62,191916,1,0,0:0:0:0:
456,240,192147,6,0,P|432:288|392:308,1,90
364,312,192493,1,0,0:0:0:0:
320,308,192608,1,0,0:0:0:0:
184,252,192839,2,0,P|164:184|180:136,1,90
288,160,193300,1,0,0:0:0:0:
400,192,193531,2,0,P|388:272|376:316,1,90
272,288,193993,2,0,B|256:240|220:268|220:268|192:252|180:296,1,90
352,72,194454,5,0,0:0:0:0:
151,204,194685,1,0,0:0:0:0:
387,138,194916,1,0,0:0:0:0:
122,139,195147,1,0,0:0:0:0:
380,205,195377,1,0,0:0:0:0:
130,63,195608,1,0,0:0:0:0:
403,96,195839,6,0,B|363:104|359:184|359:184|399:224,1,135
379,204,196300,2,0,B|399:248|391:272|391:272|367:284,1,90
357,298,196647,1,0,0:0:0:0:
317,314,196762,1,0,0:0:0:0:
173,306,196993,1,0,0:0:0:0:
116,188,197223,2,0,L|120:76,1,90
128,64,197570,1,0,0:0:0:0:
152,40,197685,1,0,0:0:0:0:
288,80,197916,5,0,0:0:0:0:
417,54,198147,1,0,0:0:0:0:
442,184,198377,1,0,0:0:0:0:
312,209,198608,1,0,0:0:0:0:
288,80,198839,5,0,0:0:0:0:
419,167,199070,1,0,0:0:0:0:
331,300,199300,1,0,0:0:0:0:
197,210,199531,1,0,0:0:0:0:
197,210,199647,1,0,0:0:0:0:
197,210,199762,1,0,0:0:0:0:
356,108,199993,1,0,0:0:0:0:
197,210,200223,1,0,0:0:0:0:
404,212,200454,1,0,0:0:0:0:
197,210,200685,1,0,0:0:0:0:
396,324,200916,2,0,L|520:370,1,90
104,296,201377,6,0,B|92:296|92:296|56:244|88:224,1,80.9999975280763
88,192,201839,2,0,B|80:156|96:132|116:128,1,67.5000025749208
128,120,202185,1,0,0:0:0:0:
164,108,202300,1,0,0:0:0:0:
352,184,202531,1,0,0:0:0:0:
164,108,202762,1,0,0:0:0:0:
404,204,202993,1,0,0:0:0:0:
164,108,203223,6,0,P|116:160|96:204,1,90
248,304,203685,2,0,P|292:332|348:308,1,90
424,168,204147,1,0,0:0:0:0:
288,44,204377,1,0,0:0:0:0:
224,208,204608,2,0,L|176:304,1,90
172,312,204954,5,0,0:0:0:0:
160,336,205070,1,0,0:0:0:0:
360,284,205300,2,0,P|400:252|436:192,1,90
212,140,205762,1,0,0:0:0:0:
160,336,205993,2,0,B|120:292|160:256|160:256|112:216,1,135
104,200,206454,2,0,B|76:168|80:128|80:128|124:104,1,90
336,116,206916,6,0,P|368:160|376:220,1,90
376,220,207262,1,0,0:0:0:0:
368,248,207377,1,0,0:0:0:0:
224,312,207608,2,0,P|164:300|120:280,1,90
249,93,208070,2,0,P|309:105|353:125,1,90
392,248,208531,1,0,0:0:0:0:
144,256,208762,2,0,P|102:231|91:179,1,90
203,78,209223,5,0,0:0:0:0:
249,61,209339,1,0,0:0:0:0:
291,86,209454,1,0,0:0:0:0:
328,124,209570,1,0,0:0:0:0:
361,154,209685,2,0,P|415:181|447:151,1,99.0000030212403
422,89,210147,2,0,P|483:98|515:149,1,99.0000030212403
380,192,210608,6,0,P|432:232|405:335,1,180
292,248,211300,1,0,0:0:0:0:
115,289,211531,2,0,P|63:249|101:122,1,180
291,246,212223,1,0,0:0:0:0:
294,75,212454,5,0,0:0:0:0:
165,174,212685,1,0,0:0:0:0:
389,83,212916,1,0,0:0:0:0:
142,107,213147,1,0,0:0:0:0:
425,173,213378,1,0,0:0:0:0:
142,107,213608,1,0,0:0:0:0:
440,268,213839,2,0,P|416:316|344:344,1,135
312,328,214300,6,0,P|276:272|308:160,1,180
380,92,214993,2,0,P|440:100|468:124,1,90
440,268,215454,1,0,0:0:0:0:
336,200,215685,1,0,0:0:0:0:
256,288,215916,1,0,0:0:0:0:
80,116,216147,6,0,P|129:56|168:40,1,90
168,36,216493,1,0,0:0:0:0:
204,48,216608,1,0,0:0:0:0:
344,168,216839,1,0,0:0:0:0:
380,200,216954,1,0,0:0:0:0:
364,248,217070,1,0,0:0:0:0:
324,276,217185,2,0,L|284:316,1,45
280,256,217416,2,0,L|232:276,1,45
244,216,217647,1,0,0:0:0:0:
200,188,217762,1,0,0:0:0:0:
184,140,217877,1,0,0:0:0:0:
196,92,217993,6,0,P|256:92|312:160,1,148.50000453186
312,192,218454,2,0,P|272:264|224:272,1,99.0000030212403
126,157,218916,2,0,P|182:97|256:84,1,148.50000453186
280,88,219377,2,0,P|352:128|368:164,1,99.0000030212403
300,272,219839,2,0,P|252:316|196:320,1,99.0000030212403
76,176,220300,2,0,P|104:112|152:76,1,99.0000030212403
376,192,220762,2,0,P|348:256|300:292,1,99.0000030212403
44,160,221223,2,0,P|60:108|160:64,1,148.50000453186
176,57,221685,5,0,0:0:0:0:
298,75,221916,1,0,0:0:0:0:
333,193,222147,1,0,0:0:0:0:
240,274,222377,1,0,0:0:0:0:
127,223,222608,2,0,P|56:216|36:128,1,148.50000453186
40,112,223070,2,0,P|92:68|192:68,1,148.50000453186
208,72,223531,1,0,0:0:0:0:
40,112,223762,2,0,P|128:24|296:64,1,297.000009063721
160,112,224685,5,0,0:0:0:0:
224,240,224916,1,0,0:0:0:0:
328,128,225147,1,0,0:0:0:0:
224,240,225377,1,0,0:0:0:0:
