osu file format v14

[General]
AudioFilename: audio.mp3
AudioLeadIn: 0
PreviewTime: 54441
Countdown: 0
SampleSet: Soft
StackLeniency: 0.7
Mode: 0
LetterboxInBreaks: 0
WidescreenStoryboard: 0

[Editor]
DistanceSpacing: 1.3
BeatDivisor: 4
GridSize: 4
TimelineZoom: 1

[Metadata]
Title:Eroiko (Short Ver.)
TitleUnicode:Eroiko (Short Ver.)
Artist:Chata
ArtistUnicode:茶太
Creator:Down
Version:Hard
Source:Dolphin Divers
Tags:eroge opening [c_u_r_i] bassy
BeatmapID:968215
BeatmapSetID:450546

[Difficulty]
HPDrainRate:6
CircleSize:4
OverallDifficulty:6
ApproachRate:7.5
SliderMultiplier:1.4
SliderTickRate:1

[Events]
//Background and Video events
0,0,"bg.jpg",0,0
//Break Periods
//Storyboard Layer 0 (Background)
//Storyboard Layer 1 (Fail)
//Storyboard Layer 2 (Pass)
//Storyboard Layer 3 (Foreground)
//Storyboard Sound Samples

[TimingPoints]
126,315.789473684211,4,2,0,55,1,0
11336,-100,4,2,1,60,0,0
54441,-100,4,2,1,65,0,1
79547,-100,4,2,1,60,0,0
92660,333.333333333333,4,2,1,60,1,0
93326,352.941176470588,4,2,1,60,1,0
94031,410.958904109589,4,2,1,60,1,0
94853,431.654676258993,4,2,1,60,1,0
95716,400,4,2,1,60,1,0

[Colours]
Combo1 : 247,240,166
Combo2 : 160,252,192
Combo3 : 180,215,254
Combo4 : 244,214,248

[HitObjects]
79,126,1073,5,0,1:0:0:0:
79,126,1231,6,0,L|223:143,1,140,4|0,0:0|0:0,0:0:0:0:
232,232,1704,2,0,L|145:223,1,70,2|0,0:0|0:0,0:0:0:0:
70,222,2020,2,0,P|82:269|164:318,1,140,2|0,0:0|0:0,0:0:0:0:
246,322,2494,1,0,0:0:0:0:
318,266,2652,6,0,B|339:229|339:229|309:121,1,140,2|0,0:0|0:0,0:0:0:0:
379,72,3126,2,0,P|306:45|235:85,1,140,2|0,0:0|0:0,0:0:0:0:
171,111,3599,2,0,P|190:136|224:155,1,70,2|0,0:0|0:0,0:0:0:0:
312,135,3915,6,0,L|379:156,1,70,0|0,0:0|0:0,0:0:0:0:
392,246,4231,2,0,L|325:225,1,70,2|0,0:0|0:0,0:0:0:0:
340,315,4547,2,0,P|397:333|473:271,1,140,2|0,0:0|0:0,0:0:0:0:
468,203,5020,1,0,0:0:0:0:
507,121,5178,6,0,P|453:83|362:75,1,140,2|0,0:0|0:0,0:0:0:0:
301,117,5652,2,0,P|232:107|175:68,1,140,2|0,0:0|0:0,0:0:0:0:
101,122,6126,1,0,1:0:0:0:
177,170,6283,6,0,P|100:211|50:195,1,140,4|0,0:0|0:0,0:0:0:0:
8,276,6757,2,0,L|104:300,1,70,2|0,0:0|0:0,0:0:0:0:
167,286,7073,2,0,B|249:244|249:244|307:265,1,140,2|0,0:0|0:0,0:0:0:0:
377,297,7547,1,0,0:0:0:0:
442,359,7704,6,0,P|462:274|429:226,1,140,2|0,0:0|0:0,0:0:0:0:
354,192,8178,2,0,P|325:129|353:64,1,140,2|0,0:0|0:0,0:0:0:0:
416,127,8652,2,0,L|509:126,1,70,2|0,0:0|0:0,0:0:0:0:
495,34,8968,6,0,L|381:54,1,105,0|0,0:0|0:0,0:0:0:0:
349,67,9283,1,4,0:3:0:0:
168,33,9599,2,0,P|144:79|146:131,1,105,0|0,0:0|0:0,0:0:0:0:
168,171,9915,1,4,0:3:0:0:
344,216,10231,6,0,L|348:90,1,105,0|0,0:0|0:0,0:0:0:0:
349,67,10547,1,0,0:3:0:0:
265,102,10704,1,0,0:0:0:0:
258,192,10862,2,0,P|260:247|304:293,1,105,0|0,0:0|0:0,0:0:0:0:
333,300,11178,1,4,0:3:0:0:
417,266,11336,6,0,P|445:215|419:124,1,140,12|0,0:2|0:0,0:0:0:0:
415,48,11810,2,0,L|325:70,1,70,0|0,1:0|0:0,0:0:0:0:
256,80,12126,2,0,L|204:27,2,70,8|8|0,0:0|0:0|1:0,0:0:0:0:
315,148,12599,1,0,0:0:0:0:
285,234,12757,6,0,P|249:214|229:173,1,70,8|0,0:0|0:0,0:0:0:0:
174,120,13073,1,0,1:0:0:0:
90,84,13231,2,0,P|81:126|104:174,2,70,0|8|8,0:0|0:0|0:0,0:0:0:0:
174,120,13704,1,0,1:0:0:0:
154,208,13862,6,0,B|118:281|118:281|126:341,1,140,12|0,0:0|0:0,0:0:0:0:
207,297,14336,2,0,L|289:325,1,70,0|0,1:0|0:0,0:0:0:0:
364,324,14652,2,0,L|446:296,1,70,8|8,0:0|0:0,0:0:0:0:
440,210,14968,2,0,L|373:232,1,70,0|0,1:0|0:0,0:0:0:0:
283,223,15283,6,0,P|288:156|351:110,1,140,8|0,0:0|1:0,0:0:0:0:
432,125,15757,1,0,0:0:0:0:
386,46,15915,2,0,P|358:33|292:50,1,70,8|8,0:0|0:0,0:0:0:0:
239,79,16231,1,0,1:0:0:0:
152,49,16389,6,0,P|91:81|70:152,1,140,12|0,0:0|0:0,0:0:0:0:
47,233,16862,2,0,L|67:313,1,70,0|0,1:0|0:0,0:0:0:0:
152,277,17178,2,0,L|135:209,2,70,8|8|0,0:0|0:0|1:0,0:0:0:0:
127,365,17652,1,0,0:0:0:0:
215,344,17810,6,0,P|249:338|279:320,1,70,8|0,0:0|0:0,0:0:0:0:
344,256,18126,1,0,1:0:0:0:
413,198,18283,2,0,P|442:180|477:174,2,70,0|8|8,0:0|0:0|0:0,0:0:0:0:
430,287,18757,1,0,1:0:0:0:
344,256,18915,6,0,P|280:215|283:134,1,140,12|0,0:0|0:0,0:0:0:0:
203,96,19389,2,0,P|239:70|290:68,1,70,0|0,1:0|0:0,0:0:0:0:
347,28,19704,1,8,0:0:0:0:
407,95,19862,1,8,0:0:0:0:
361,173,20020,1,0,1:0:0:0:
273,156,20178,6,0,P|228:198|123:209,1,140,2|2,0:0|0:0,0:0:0:0:
65,188,20652,1,0,0:0:0:0:
65,188,20810,2,0,P|120:237|115:320,1,140,2|2,0:0|0:0,0:0:0:0:
35,277,21283,1,8,0:0:0:0:
69,361,21441,6,0,L|221:314,1,140,12|0,0:0|0:0,0:0:0:0:
288,350,21915,2,0,L|325:272,1,70,0|0,1:0|0:0,0:0:0:0:
235,247,22231,1,8,0:0:0:0:
235,247,22389,1,8,0:0:0:0:
306,190,22547,1,0,1:0:0:0:
389,224,22704,6,0,P|384:147|327:102,1,140,8|8,0:0|0:0,0:0:0:0:
249,121,23178,2,0,L|161:92,1,70,0|0,1:0|0:0,0:0:0:0:
95,69,23494,1,8,0:0:0:0:
95,69,23652,1,8,0:0:0:0:
112,158,23810,1,0,1:0:0:0:
24,133,23968,6,0,L|25:280,1,140,8|8,0:0|0:0,0:0:0:0:
92,333,24441,2,0,P|130:307|149:271,1,70,0|0,1:0|0:0,0:0:0:0:
225,248,24757,2,0,L|225:158,2,70,8|8|0,0:0|0:0|1:0,0:0:0:0:
309,282,25231,6,0,P|329:309|430:326,1,140,8|8,0:0|0:0,0:0:0:0:
390,243,25704,1,0,1:0:0:0:
472,204,25862,2,0,P|451:176|351:160,1,140,0|8,0:0|0:0,0:0:0:0:
270,199,26336,1,0,1:0:0:0:
187,159,26494,6,0,B|150:130|150:130|138:28,1,140,8|0,0:0|0:0,0:0:0:0:
226,12,26968,2,0,L|235:95,1,70,0|0,1:0|0:0,0:0:0:0:
322,73,27283,1,8,0:0:0:0:
322,73,27441,1,8,0:0:0:0:
352,159,27599,1,0,1:0:0:0:
270,199,27757,6,0,P|198:204|152:280,1,140,8|0,0:0|0:0,0:0:0:0:
68,276,28231,2,0,P|83:308|136:337,1,70,0|0,1:0|0:0,0:0:0:0:
201,328,28547,1,8,0:0:0:0:
201,328,28704,1,8,0:0:0:0:
282,286,28862,1,0,1:0:0:0:
336,358,29020,6,0,P|369:305|343:220,1,140,8|0,0:0|0:0,0:0:0:0:
270,199,29494,2,0,L|205:137,1,70,0|0,1:0|0:0,0:0:0:0:
274,77,29810,2,0,L|235:10,2,70,8|8|0,0:0|0:0|1:0,0:0:0:0:
363,93,30283,6,0,L|353:250,1,140,8|8,0:0|0:0,0:0:0:0:
440,263,30757,1,0,1:0:0:0:
366,317,30915,2,0,P|299:298|270:222,1,140,8|0,0:0|0:0,0:0:0:0:
228,156,31389,1,0,1:0:0:0:
274,77,31547,6,0,P|190:73|148:113,1,140,12|8,0:0|0:0,0:0:0:0:
72,153,32020,2,0,L|91:237,1,70,0|0,1:0|0:0,0:0:0:0:
178,232,32336,2,0,L|159:316,1,70,8|8,0:0|0:0,0:0:0:0:
71,310,32652,1,0,1:0:0:0:
87,221,32810,6,0,P|131:197|239:217,1,140
299,245,33283,2,0,P|331:258|388:248,1,70,0|0,1:0|0:0,0:0:0:0:
347,168,33599,2,0,L|359:86,2,70,8|8|0,0:0|0:0|1:0,0:0:0:0:
433,197,34073,6,0,L|458:43,1,140,12|8,0:0|0:0,0:0:0:0:
373,16,34547,1,0,1:0:0:0:
373,16,34704,1,0,0:0:0:0:
288,50,34862,2,0,L|196:22,1,70,8|8,0:0|0:0,0:0:0:0:
169,105,35178,2,0,L|77:133,1,70,0|0,1:0|0:0,0:0:0:0:
33,186,35494,6,0,P|70:203|89:229,1,70,8|0,0:0|0:0,0:0:0:0:
176,202,35810,2,0,P|179:242|166:271,1,70,0|0,1:0|0:0,0:0:0:0:
235,331,36126,2,0,P|201:354|169:357,1,70,8|8,0:0|0:0,0:0:0:0:
92,317,36441,1,0,1:0:0:0:
168,268,36599,6,0,P|229:246|307:239,1,140,12|8,0:0|0:0,0:0:0:0:
362,308,37073,1,0,1:0:0:0:
362,308,37231,1,0,0:0:0:0:
451,292,37389,2,0,L|432:201,1,70,8|8,0:0|0:0,0:0:0:0:
361,171,37704,2,0,L|380:80,1,70,0|0,1:0|0:0,0:0:0:0:
309,38,38020,6,0,P|272:55|253:81,1,70,8|0,0:0|0:0,0:0:0:0:
166,54,38336,2,0,P|162:94|175:123,1,70,0|0,1:0|0:0,0:0:0:0:
107,183,38652,2,0,P|140:206|172:209,1,70,8|8,0:0|0:0,0:0:0:0:
250,169,38967,1,0,1:0:0:0:
330,124,39126,6,0,P|336:206|272:258,1,140,12|8,0:0|0:0,0:0:0:0:
220,289,39599,1,0,1:0:0:0:
220,289,39757,1,0,0:0:0:0:
296,337,39915,2,0,L|384:306,1,70,8|8,0:0|0:0,0:0:0:0:
448,283,40231,1,0,1:0:0:0:
448,283,40389,1,0,0:0:0:0:
502,210,40547,6,0,L|465:137,1,70,8|0,0:0|0:0,0:0:0:0:
379,147,40862,2,0,L|347:209,1,70,0|0,1:0|0:0,0:0:0:0:
255,208,41178,2,0,L|218:135,1,70,8|8,0:0|0:0,0:0:0:0:
131,143,41494,1,0,1:0:0:0:
179,65,41652,6,0,P|242:56|312:123,1,140,12|0,0:0|0:0,0:0:0:0:
223,145,42126,2,0,L|185:240,1,70,0|0,1:0|0:0,0:0:0:0:
107,225,42441,2,0,L|69:320,1,70,8|0,0:0|0:0,0:0:0:0:
145,354,42757,2,0,L|170:289,1,70,0|0,1:0|0:0,0:0:0:0:
261,275,43073,6,0,P|296:296|346:291,1,70,8|8,0:0|0:0,0:0:0:0:
393,357,43389,2,0,P|414:322|409:272,1,70,0|0,1:0|0:0,0:0:0:0:
478,227,43704,2,0,P|443:206|393:211,1,70,8|8,0:0|0:0,0:0:0:0:
323,208,44020,1,0,1:0:0:0:
234,190,44178,6,0,P|274:131|366:128,1,140,12|8,0:0|0:0,0:0:0:0:
428,128,44652,1,0,1:0:0:0:
428,128,44810,1,0,0:0:0:0:
379,51,44968,2,0,P|336:32|267:24,1,105,8|0,0:0|0:0,0:0:0:0:
234,31,45283,1,0,1:0:0:0:
180,104,45441,1,0,0:0:0:0:
93,76,45599,6,0,L|51:155,1,70,8|8,0:0|0:0,0:0:0:0:
139,182,45915,2,0,L|97:261,1,70,0|0,1:0|0:0,0:0:0:0:
101,335,46231,2,0,P|63:324|31:294,2,70,8|0|0,0:0|0:0|1:0,0:0:0:0:
183,295,46704,6,0,P|239:273|321:301,1,140,12|0,0:0|0:0,0:0:0:0:
393,339,47178,2,0,L|457:258,1,70,0|0,1:0|0:0,0:0:0:0:
407,197,47494,1,8,0:0:0:0:
407,197,47652,1,8,0:0:0:0:
316,204,47810,1,0,1:0:0:0:
353,121,47968,6,0,P|397:106|434:112,2,70,12|0|8,0:0|0:0|0:0,0:0:0:0:
316,204,48441,1,0,1:0:0:0:
262,130,48599,2,0,P|202:75|143:51,1,140,12|8,0:0|0:0,0:0:0:0:
57,43,49073,2,0,L|70:121,1,70,0|0,1:0|0:0,0:0:0:0:
9,182,49389,6,0,P|49:201|114:192,1,105,12|0,0:0|1:0,0:0:0:0:
143,166,49704,1,8,0:3:0:0:
224,205,49862,2,0,P|210:245|106:312,1,140,12|4,0:0|0:3,0:0:0:0:
58,257,50336,1,0,1:0:0:0:
69,347,50494,6,0,P|130:335|209:378,1,140,12|8,0:0|0:3,0:0:0:0:
273,313,50968,1,0,1:0:0:0:
347,365,51126,2,0,B|372:328|372:328|354:218,1,140,12|4,0:0|0:3,0:0:0:0:
447,244,51599,2,0,L|429:153,1,70,0|2,1:0|0:0,0:0:0:0:
481,97,51915,6,0,P|429:84|367:112,1,105,12|0,0:0|1:0,0:0:0:0:
351,134,52231,1,8,0:3:0:0:
275,185,52389,2,0,P|259:130|299:59,1,140,12|4,0:0|0:3,0:0:0:0:
351,134,52862,1,8,0:3:0:0:
360,224,53020,6,0,P|306:274|220:258,1,140,12|8,0:0|0:3,0:0:0:0:
181,204,53494,1,0,0:0:0:0:
95,173,53652,2,0,L|97:95,2,70,12|0|0,0:0|0:0|0:0,0:0:0:0:
25,232,54126,1,0,1:0:0:0:
25,232,54441,6,0,L|54:315,1,70,12|0,0:0|0:0,0:0:0:0:
138,283,54757,2,0,L|167:366,1,70,0|0,1:0|0:0,0:0:0:0:
252,346,55073,2,0,P|292:321|343:323,1,70,8|8,0:0|0:0,0:0:0:0:
403,338,55389,1,0,1:0:0:0:
453,261,55547,6,0,B|473:221|473:221|428:124,1,140,12|0,0:0|0:0,0:0:0:0:
459,47,56020,2,0,P|434:44|370:67,1,70,0|0,1:0|0:0,0:0:0:0:
328,121,56336,2,0,L|328:203,2,70,8|8|0,0:0|0:0|1:0,0:0:0:0:
251,69,56810,6,0,B|184:45|184:45|97:57,1,140,12|0,0:0|0:0,0:0:0:0:
39,104,57283,2,0,L|39:196,1,70,0|0,1:0|0:0,0:0:0:0:
122,211,57599,2,0,L|122:141,1,70,8|8,0:0|0:0,0:0:0:0:
206,176,57915,1,0,1:0:0:0:
190,265,58073,6,0,P|135:298|53:264,1,140,12|0,0:0|0:0,0:0:0:0:
122,211,58547,2,0,L|122:141,1,70,0|0,1:0|0:0,0:0:0:0:
199,93,58862,1,8,0:0:0:0:
199,93,59020,1,8,0:0:0:0:
282,128,59178,1,0,1:0:0:0:
278,37,59336,6,0,L|430:67,1,140,12|0,0:0|0:0,0:0:0:0:
430,154,59810,2,0,L|346:136,1,70,0|0,1:0|0:0,0:0:0:0:
380,229,60126,2,0,L|296:211,2,70,8|8|0,0:0|0:0|1:0,0:0:0:0:
470,235,60599,6,0,P|440:297|367:320,1,140,12|0,0:0|0:0,0:0:0:0:
288,293,61073,2,0,P|252:286|208:289,1,70,0|0,1:0|0:0,0:0:0:0:
141,336,61389,2,0,P|106:336|71:330,1,70,8|8,0:0|0:0,0:0:0:0:
22,253,61704,1,0,1:0:0:0:
44,164,61862,6,0,L|181:64,1,140,12|0,0:0|0:0,0:0:0:0:
198,60,62257,1,0,1:0:0:0:
198,60,62336,1,0,1:0:0:0:
266,119,62494,2,0,B|291:96|291:70|291:70|343:73|372:116,1,140,12|0,0:0|0:0,0:0:0:0:
387,144,62889,1,0,1:0:0:0:
387,144,62968,1,0,1:0:0:0:
458,200,63126,6,0,P|392:236|308:200,1,140,12|0,0:0|0:0,0:0:0:0:
289,204,63520,1,0,1:0:0:0:
289,204,63599,1,0,1:0:0:0:
200,180,63757,2,0,L|133:286,1,105,12|0,0:0|0:0,0:0:0:0:
115,305,64073,2,0,L|64:316,2,35,0|0|0,0:0|1:0|1:0,0:0:0:0:
202,331,64389,1,2,0:0:0:0:
282,289,64547,6,0,L|352:357,1,70,12|0,0:0|0:0,0:0:0:0:
423,337,64862,2,0,L|473:288,1,70,0|0,1:0|0:0,0:0:0:0:
434,205,65178,2,0,P|479:197|512:205,2,70,8|8|0,0:0|0:0|1:0,0:0:0:0:
368,268,65652,6,0,P|342:206|374:136,1,140,12|0,0:0|0:0,0:0:0:0:
457,120,66126,2,0,P|437:84|407:62,1,70,0|0,1:0|0:0,0:0:0:0:
324,60,66441,2,0,L|237:12,2,70,8|8|0,0:0|0:0|1:0,0:0:0:0:
367,141,66915,6,0,P|298:152|211:125,1,140,12|0,0:0|0:0,0:0:0:0:
144,104,67389,2,0,L|166:205,1,70,0|0,1:0|0:0,0:0:0:0:
67,170,67704,2,0,L|89:271,1,70,8|8,0:0|0:0,0:0:0:0:
155,292,68020,1,0,1:0:0:0:
223,231,68178,6,0,P|249:299|214:363,1,140,12|0,0:0|0:0,0:0:0:0:
155,292,68652,1,0,1:0:0:0:
81,238,68810,1,0,0:0:0:0:
155,185,68968,2,0,P|180:159|228:153,1,70,8|8,0:0|0:0,0:0:0:0:
297,183,69283,1,0,1:0:0:0:
363,245,69441,6,0,P|388:184|356:113,1,140,4|8,0:0|0:0,0:0:0:0:
273,94,69915,2,0,P|292:61|329:36,1,70,0|0,1:0|0:0,0:0:0:0:
408,40,70231,2,0,P|434:62|451:92,1,70,8|0,0:0|0:0,0:0:0:0:
473,181,70547,1,0,1:0:0:0:
466,271,70704,6,0,B|441:318|441:318|348:348,1,140,12|8,0:0|0:0,0:0:0:0:
270,317,71178,2,0,L|220:237,1,70,0|0,1:0|0:0,0:0:0:0:
144,280,71494,2,0,L|181:339,2,70,8|8|0,0:0|0:0|1:0,0:0:0:0:
56,253,71968,6,0,P|108:195|192:203,1,140,12|8,0:0|0:0,0:0:0:0:
255,176,72441,2,0,L|266:91,1,70,0|0,1:0|0:0,0:0:0:0:
347,143,72757,2,0,L|358:58,1,70,8|8,0:0|0:0,0:0:0:0:
441,41,73073,1,0,1:0:0:0:
433,131,73231,6,0,P|421:189|350:231,1,140,12|0,0:0|0:0,0:0:0:0:
299,302,73704,2,0,L|205:261,1,70,0|0,1:0|0:0,0:0:0:0:
292,202,74020,2,0,L|356:229,1,70,8|0,0:0|0:0,0:0:0:0:
396,311,74336,1,0,1:0:0:0:
450,237,74494,6,0,B|476:199|476:199|454:79,1,140,12|0,0:0|0:0,0:0:0:0:
381,57,74968,2,0,P|355:40|292:38,1,70,0|0,1:0|0:0,0:0:0:0:
319,124,75283,2,0,P|284:118|255:100,1,70,8|8,0:0|0:0,0:0:0:0:
180,47,75599,1,0,1:0:0:0:
89,34,75757,6,0,L|51:177,1,140,12|8,0:0|0:0,0:0:0:0:
131,216,76231,2,0,L|156:130,1,70,0|0,1:0|0:0,0:0:0:0:
240,130,76547,1,8,0:0:0:0:
240,130,76704,1,0,0:0:0:0:
291,205,76862,1,0,1:0:0:0:
220,262,77020,6,0,P|154:252|86:317,1,140,12|8,0:0|0:0,0:0:0:0:
173,342,77494,2,0,L|271:362,1,70,0|0,1:0|0:0,0:0:0:0:
308,293,77810,2,0,L|406:273,1,70,8|8,0:0|0:0,0:0:0:0:
465,258,78126,1,0,1:0:0:0:
471,167,78283,6,0,L|323:113,1,140,12|0,0:0|0:0,0:0:0:0:
295,105,78678,1,0,1:0:0:0:
295,105,78757,1,0,1:0:0:0:
212,143,78915,1,0,0:0:0:0:
289,190,79073,1,8,0:0:0:0:
204,224,79231,1,8,0:0:0:0:
283,268,79389,1,0,1:0:0:0:
199,305,79547,6,0,L|55:265,1,140,12|0,0:0|0:0,0:0:0:0:
31,182,80020,2,0,L|85:112,1,70,0|0,1:0|0:0,0:0:0:0:
154,83,80336,2,0,P|134:58|75:39,2,70,8|8|0,0:0|0:0|1:0,0:0:0:0:
154,174,80810,1,0,0:0:0:0:
229,123,80968,6,0,L|308:99,1,70,8|8,0:0|0:0,0:0:0:0:
387,103,81283,2,0,L|453:123,1,70,0|0,1:0|0:0,0:0:0:0:
461,214,81599,2,0,L|382:238,1,70,8|8,0:0|0:0,0:0:0:0:
302,234,81915,1,0,1:0:0:0:
212,248,82073,6,0,P|241:306|322:324,1,140,12|8,0:0|0:0,0:0:0:0:
397,304,82547,2,0,L|391:208,1,70,0|0,1:0|0:0,0:0:0:0:
329,169,82862,2,0,L|289:262,1,70,8|8,0:0|0:0,0:0:0:0:
245,160,83178,2,0,L|166:172,1,70,0|0,1:0|0:0,0:0:0:0:
126,93,83494,6,0,L|289:70,1,140,8|0,0:0|1:0,0:0:0:0:
355,86,83968,1,0,0:0:0:0:
426,142,84126,2,0,L|523:126,2,70,8|0|0,0:0|1:0|1:0,0:0:0:0:
376,218,84599,6,0,B|359:304|359:304|294:344,1,140,12|0,0:0|0:0,0:0:0:0:
232,290,85073,2,0,L|299:221,1,70,0|0,1:0|0:0,0:0:0:0:
311,153,85389,2,0,L|287:65,2,70,8|8|0,0:0|0:0|1:0,0:0:0:0:
280,239,85862,1,0,0:0:0:0:
222,168,86020,6,0,L|196:93,1,70,8|8,0:0|0:0,0:0:0:0:
125,156,86336,2,0,L|99:81,1,70,0|0,1:0|0:0,0:0:0:0:
165,24,86652,1,8,0:0:0:0:
165,24,86810,1,8,0:0:0:0:
255,37,86968,1,0,1:0:0:0:
295,118,87126,6,0,P|351:127|420:75,1,140,12|8,0:0|0:0,0:0:0:0:
485,141,87599,2,0,L|465:226,1,70,0|0,1:0|0:0,0:0:0:0:
389,255,87915,2,0,L|369:340,1,70,8|8,0:0|0:0,0:0:0:0:
282,306,88231,2,0,L|298:237,1,70,0|0,1:0|0:0,0:0:0:0:
272,149,88547,5,12,0:0:0:0:
203,208,88704,1,8,0:0:0:0:
184,118,88862,1,0,1:0:0:0:
256,62,89020,2,0,P|317:75|359:170,1,140,12|8,0:0|0:0,0:0:0:0:
272,149,89494,1,4,0:0:0:0:
207,319,89810,6,0,L|64:281,1,140,12|0,0:0|1:0,0:0:0:0:
130,213,90283,2,0,L|265:248,1,140,12|8,0:0|0:0,0:0:0:0:
302,332,90757,1,0,1:0:0:0:
407,183,91073,6,0,L|403:275,2,70,12|0|0,0:0|0:0|1:0,0:0:0:0:
486,137,91547,2,0,P|422:92|342:117,1,140,12|8,0:0|0:0,0:0:0:0:
311,177,92020,1,0,1:0:0:0:
256,192,92336,12,4,95716,0:0:0:0:
