osu file format v14

[General]
AudioFilename: audio.mp3
AudioLeadIn: 0
PreviewTime: 59429
Countdown: 1
SampleSet: Soft
StackLeniency: 0.7
Mode: 0
LetterboxInBreaks: 0
WidescreenStoryboard: 1

[Editor]
Bookmarks: 6202,14672,25966,37260,42907,48554,54202,59672,70966,82437,96554,105025,110672,116319,127613,138907,144554,150025,161319,172790,184084,195378,206672,217966,229084,234731,240378,251849,265966,274437
DistanceSpacing: 1.4
BeatDivisor: 4
GridSize: 32
TimelineZoom: 2

[Metadata]
Title:Engage
TitleUnicode:Engage
Artist:Chata
ArtistUnicode:茶太
Creator:Lasse
Version:Affection
Source:お嬢様と秘密の乙女
Tags:Ojou-sama to Himitsu no Otome eroge visual novel Moonstone Honey opening full version GWAVE 2015 1st Colors
BeatmapID:1830587
BeatmapSetID:875962

[Difficulty]
HPDrainRate:7.2
CircleSize:4
OverallDifficulty:8.4
ApproachRate:9
SliderMultiplier:1.76
SliderTickRate:1

[Events]
//Background and Video events
0,0,"ablobnom.jpg",0,0
//Break Periods
2,105225,109543
//Storyboard Layer 0 (Background)
//Storyboard Layer 1 (Fail)
//Storyboard Layer 2 (Pass)
//Storyboard Layer 3 (Foreground)
//Storyboard Sound Samples

[TimingPoints]
555,352.941176470588,4,2,2,40,1,0
555,-200,4,2,2,40,0,0
1966,-166.666666666667,4,2,2,45,0,0
3378,-142.857142857143,4,2,2,50,0,0
4790,-125,4,2,2,55,0,0
5496,-125,4,2,2,60,0,0
6202,-100,4,2,2,65,0,0
12731,-100,4,2,2,70,0,0
13172,-100,4,2,2,60,0,0
13613,-100,4,2,2,55,0,0
13966,-100,4,2,2,50,0,0
14319,-100,4,2,2,45,0,0
14496,-100,4,2,99,5,0,0
14672,-125,4,2,2,55,0,0
22790,-200,4,2,2,55,0,0
22878,-200,4,2,2,30,0,0
22966,-200,4,2,2,55,0,0
23054,-200,4,2,2,30,0,0
23143,-100,4,2,2,60,0,0
25966,-125,4,2,2,55,0,0
31613,-111.111111111111,4,2,2,58,0,0
34437,-100,4,2,2,60,0,0
34702,-100,4,2,2,30,0,0
34790,-100,4,2,2,60,0,0
35319,-100,4,2,1,60,0,0
36554,-100,4,2,2,60,0,0
37260,-125,4,2,2,58,0,0
48554,-111.111111111111,4,2,2,60,0,0
54202,-100,4,2,2,62,0,0
55613,-100,4,2,2,64,0,0
57025,-100,4,2,2,66,0,0
57202,-100,4,2,1,66,0,0
57554,-100,4,2,2,68,0,0
57731,-100,4,2,1,68,0,0
58084,-100,4,2,1,66,0,0
58437,-100,4,2,2,70,0,0
59496,-142.857142857143,4,2,2,50,0,0
59584,-142.857142857143,4,2,2,40,0,0
59672,-83.3333333333333,4,2,2,70,0,1
64172,-83.3333333333333,4,2,2,40,0,1
64260,-83.3333333333333,4,2,2,70,0,1
69554,-71.4285714285714,4,2,2,70,0,1
69819,-71.4285714285714,4,2,2,40,0,1
69907,-71.4285714285714,4,2,2,70,0,1
70613,-100,4,2,2,70,0,0
70790,-100,4,2,2,60,0,0
70966,-83.3333333333333,4,2,2,70,0,1
72996,-83.3333333333333,4,2,2,50,0,1
73084,-83.3333333333333,4,2,2,70,0,1
79437,-74.0740740740741,4,2,2,70,0,1
79702,-74.0740740740741,4,2,2,40,0,1
79790,-74.0740740740741,4,2,2,70,0,1
80849,-70.4225352112676,4,2,2,70,0,1
81113,-70.4225352112676,4,2,2,40,0,1
81202,-70.4225352112676,4,2,2,70,0,1
81554,-66.6666666666667,4,2,2,70,0,1
82084,-100,4,2,2,70,0,0
82437,-90.9090909090909,4,2,2,65,0,1
84113,-90.9090909090909,4,2,2,35,0,1
84202,-90.9090909090909,4,2,2,65,0,1
87996,-90.9090909090909,4,2,2,35,0,1
88084,-83.3333333333333,4,2,2,65,0,1
89760,-90.9090909090909,4,2,2,35,0,1
89849,-83.3333333333333,4,2,2,65,0,1
92319,-83.3333333333333,4,2,2,70,0,1
92584,-83.3333333333333,4,2,2,40,0,1
92672,-83.3333333333333,4,2,1,70,0,1
92849,-100,4,2,1,70,0,1
93202,-100,4,2,2,60,0,1
93378,-100,4,2,2,65,0,1
93731,-142.857142857143,4,2,2,60,0,0
93907,-142.857142857143,4,2,2,30,0,0
94790,-142.857142857143,4,2,2,50,0,0
95143,-125,4,2,2,55,0,0
95849,-125,4,2,2,60,0,0
96554,-100,4,2,2,65,0,0
103084,-100,4,2,2,70,0,0
103525,-100,4,2,2,60,0,0
103966,-100,4,2,2,55,0,0
104319,-100,4,2,2,50,0,0
104672,-100,4,2,2,45,0,0
105025,-200,4,2,99,40,0,0
110143,-125,4,2,2,50,0,0
110187,-125,4,2,99,5,0,0
110319,-100,4,2,2,50,0,0
110672,-100,4,2,1,50,0,0
111202,-125,4,2,2,55,0,0
111378,-125,4,2,2,30,0,0
111907,-125,4,2,2,40,0,0
112084,-125,4,2,2,50,0,0
112260,-125,4,2,2,52,0,0
112437,-125,4,2,2,54,0,0
112613,-125,4,2,2,56,0,0
112790,-125,4,2,2,58,0,0
112966,-125,4,2,2,60,0,0
113143,-125,4,2,2,62,0,0
113496,-100,4,2,2,60,0,0
116319,-125,4,2,2,55,0,0
121966,-111.111111111111,4,2,2,58,0,0
124790,-100,4,2,2,60,0,0
125054,-100,4,2,2,30,0,0
125143,-100,4,2,2,60,0,0
125672,-100,4,2,1,60,0,0
126907,-100,4,2,2,60,0,0
127613,-125,4,2,2,58,0,0
138907,-111.111111111111,4,2,2,60,0,0
144554,-100,4,2,2,62,0,0
145966,-100,4,2,2,64,0,0
147378,-100,4,2,2,66,0,0
147907,-100,4,2,2,68,0,0
148437,-100,4,2,2,66,0,0
148790,-100,4,2,2,70,0,0
149849,-142.857142857143,4,2,2,50,0,0
149937,-142.857142857143,4,2,2,40,0,0
150025,-83.3333333333333,4,2,2,70,0,1
154525,-83.3333333333333,4,2,2,40,0,1
154613,-83.3333333333333,4,2,2,70,0,1
159907,-71.4285714285714,4,2,2,70,0,1
160172,-71.4285714285714,4,2,2,40,0,1
160260,-71.4285714285714,4,2,2,70,0,1
160966,-100,4,2,2,70,0,0
161143,-100,4,2,2,60,0,0
161319,-83.3333333333333,4,2,2,70,0,1
161937,-83.3333333333333,4,2,2,50,0,1
162025,-83.3333333333333,4,2,2,70,0,1
169790,-74.0740740740741,4,2,2,70,0,1
170054,-74.0740740740741,4,2,2,40,0,1
170143,-74.0740740740741,4,2,2,70,0,1
171202,-70.4225352112676,4,2,2,70,0,1
171466,-70.4225352112676,4,2,2,40,0,1
171554,-70.4225352112676,4,2,2,70,0,1
171907,-66.6666666666667,4,2,2,70,0,1
172437,-100,4,2,2,70,0,0
172790,-90.9090909090909,4,2,2,65,0,1
174466,-90.9090909090909,4,2,2,35,0,1
174554,-90.9090909090909,4,2,2,65,0,1
178349,-90.9090909090909,4,2,2,35,0,1
178437,-83.3333333333333,4,2,2,65,0,1
180113,-90.9090909090909,4,2,2,35,0,1
180202,-83.3333333333333,4,2,2,65,0,1
182672,-83.3333333333333,4,2,2,70,0,1
182937,-83.3333333333333,4,2,2,40,0,1
183025,-83.3333333333333,4,2,1,70,0,1
183202,-100,4,2,1,70,0,1
183554,-100,4,2,2,60,0,1
183731,-142.857142857143,4,2,2,65,0,1
183996,-142.857142857143,4,2,2,35,0,1
184084,-90.909090909091,4,2,2,65,0,0
184437,-90.909090909091,4,2,1,65,0,0
184878,-90.909090909091,4,2,1,35,0,0
184966,-90.909090909091,4,2,2,65,0,0
185496,-90.909090909091,4,2,1,65,0,0
185849,-90.909090909091,4,2,2,65,0,0
186025,-90.909090909091,4,2,1,65,0,0
186290,-90.909090909091,4,2,1,35,0,0
186378,-90.909090909091,4,2,2,65,0,0
187260,-90.909090909091,4,2,1,65,0,0
187702,-90.909090909091,4,2,1,35,0,0
187790,-90.909090909091,4,2,2,65,0,0
188319,-90.909090909091,4,2,2,50,0,0
188496,-90.909090909091,4,2,1,65,0,0
188672,-90.909090909091,4,2,2,65,0,0
188849,-90.909090909091,4,2,1,65,0,0
189113,-90.909090909091,4,2,1,35,0,0
189202,-90.909090909091,4,2,2,65,0,0
190084,-90.909090909091,4,2,1,65,0,0
190525,-90.909090909091,4,2,1,35,0,0
190613,-90.909090909091,4,2,2,65,0,0
191143,-90.909090909091,4,2,1,65,0,0
191496,-90.909090909091,4,2,2,65,0,0
191672,-90.909090909091,4,2,1,65,0,0
191937,-90.909090909091,4,2,1,35,0,0
192025,-90.909090909091,4,2,2,65,0,0
192907,-90.909090909091,4,2,1,65,0,0
193349,-90.909090909091,4,2,1,35,0,0
193437,-90.909090909091,4,2,2,65,0,0
194760,-90.909090909091,4,2,1,35,0,0
194849,-90.909090909091,4,2,2,65,0,0
195378,-100,4,2,2,60,0,0
203849,-100,4,2,2,62,0,0
204378,-100,4,2,2,64,0,0
204643,-100,4,2,2,34,0,0
204731,-100,4,2,2,64,0,0
205260,-100,4,2,2,66,0,0
205349,-100,4,2,99,5,0,0
205790,-105.263157894737,4,2,2,68,0,0
205878,-100,4,2,99,5,0,0
206672,-125,4,2,2,55,0,0
216554,-125,4,2,2,58,0,0
217613,-166.666666666667,4,2,2,58,0,0
217966,-100,4,2,2,60,0,0
218231,-100,4,2,2,30,0,0
218319,-100,4,2,2,60,0,0
219643,-100,4,2,2,30,0,0
219731,-100,4,2,2,60,0,0
220437,-125,4,2,2,60,0,0
220702,-100,4,2,2,30,0,0
220790,-100,4,2,2,60,0,0
221054,-100,4,2,2,30,0,0
221143,-100,4,2,2,60,0,0
222466,-100,4,2,2,30,0,0
222554,-100,4,2,2,60,0,0
223613,-90.9090909090909,4,2,2,62,0,0
224937,-100,4,2,2,30,0,0
225025,-90.9090909090909,4,2,2,64,0,0
226437,-90.9090909090909,4,2,2,66,0,0
226613,-90.9090909090909,4,2,1,66,0,0
226966,-90.9090909090909,4,2,2,68,0,0
227143,-90.9090909090909,4,2,1,68,0,0
227496,-90.9090909090909,4,2,1,66,0,0
227849,-90.9090909090909,4,2,2,70,0,0
228907,-142.857142857143,4,2,2,50,0,0
228996,-142.857142857143,4,2,2,40,0,0
229084,-100,4,2,2,64,0,1
229172,-100,4,2,2,20,0,1
230319,-100,4,2,2,50,0,0
230496,-100,4,2,2,64,0,1
230672,-100,4,2,2,20,0,1
231731,-90.9090909090909,4,2,2,50,0,0
231907,-90.9090909090909,4,2,2,64,0,1
231996,-90.9090909090909,4,2,2,20,0,1
232437,-90.9090909090909,4,2,2,50,0,1
232613,-90.9090909090909,4,2,2,64,0,0
233319,-83.3333333333333,4,2,2,68,0,1
233584,-83.3333333333333,4,2,2,38,0,1
233672,-83.3333333333333,4,2,2,68,0,1
234290,-83.3333333333333,4,2,2,38,0,1
234378,-83.3333333333333,4,2,2,68,0,1
234554,-83.3333333333333,4,2,2,68,0,0
234731,-76.9230769230769,4,2,2,70,0,1
238966,-66.6666666666667,4,2,2,70,0,1
239231,-66.6666666666667,4,2,2,40,0,1
239319,-66.6666666666667,4,2,2,70,0,1
240025,-100,4,2,2,70,0,0
240202,-100,4,2,2,60,0,0
240378,-76.9230769230769,4,2,2,70,0,1
248849,-68.9655172413793,4,2,2,70,0,1
249113,-68.9655172413793,4,2,2,40,0,1
249202,-68.9655172413793,4,2,2,70,0,1
250260,-65.7894736842105,4,2,2,70,0,1
250525,-65.7894736842105,4,2,2,40,0,1
250613,-65.7894736842105,4,2,2,70,0,1
250966,-62.5,4,2,2,70,0,1
251496,-100,4,2,2,70,0,0
251849,-90.9090909090909,4,2,2,65,0,1
253525,-90.9090909090909,4,2,2,35,0,1
253613,-90.9090909090909,4,2,2,65,0,1
257407,-90.9090909090909,4,2,2,35,0,1
257496,-83.3333333333333,4,2,2,65,0,1
259172,-90.9090909090909,4,2,2,35,0,1
259260,-83.3333333333333,4,2,2,65,0,1
261731,-83.3333333333333,4,2,2,70,0,1
261996,-83.3333333333333,4,2,2,40,0,1
262084,-83.3333333333333,4,2,1,70,0,1
262260,-100,4,2,1,70,0,1
262613,-100,4,2,2,60,0,1
262790,-100,4,2,2,65,0,1
263143,-142.857142857143,4,2,2,60,0,0
263319,-142.857142857143,4,2,2,30,0,0
264202,-142.857142857143,4,2,2,50,0,0
264554,-125,4,2,2,55,0,0
265260,-125,4,2,2,60,0,0
265966,-100,4,2,2,65,0,0
272496,-100,4,2,2,70,0,0
272937,-100,4,2,2,60,0,0
273378,-100,4,2,2,55,0,0
273731,-100,4,2,2,50,0,0
274084,-100,4,2,2,45,0,0
274437,-200,4,2,99,40,0,0

[Colours]
Combo1 : 250,190,230
Combo2 : 130,200,230
Combo3 : 255,152,152
Combo4 : 255,230,140

[HitObjects]
30,94,555,6,0,L|87:90,1,44,2|0,2:0|2:0,0:0:0:0:
144,46,907,2,0,L|201:50,1,44,2|0,2:0|2:0,0:0:0:0:
258,94,1260,2,0,L|321:90,3,44,2|0|0|0,2:0|2:0|2:0|2:0,0:0:0:0:
372,5,1966,6,0,P|376:35|390:70,1,52.7999983886719,2|0,2:0|2:0,0:0:0:0:
449,117,2319,2,0,P|445:147|431:182,1,52.7999983886719,2|0,2:0|2:0,0:0:0:0:
400,250,2672,2,0,P|398:276|402:302,3,52.7999983886719,2|0|0|0,2:0|2:0|2:0|2:0,0:0:0:0:
319,356,3378,6,0,L|257:347,1,61.5999981201172,2|0,2:0|2:0,0:0:0:0:
183,293,3731,2,0,P|176:259|178:223,1,61.5999981201172,2|0,2:0|2:0,0:0:0:0:
220,149,4084,2,0,L|280:140,3,61.5999981201172,2|0|0|0,2:0|2:0|2:0|2:0,0:0:0:0:
195,62,4790,6,0,B|176:54|176:54|155:58|155:58|117:50,1,70.4,2|0,2:0|2:0,0:0:0:0:
55,120,5143,2,0,L|46:195,1,70.4,2|0,2:0|2:0,0:0:0:0:
127,304,5496,1,2,2:0:0:0:
127,304,5584,1,2,2:0:0:0:
127,304,5672,1,2,2:0:0:0:
127,304,5760,1,2,2:0:0:0:
127,304,5849,1,2,2:0:0:0:
127,304,5937,1,2,2:0:0:0:
127,304,6025,1,2,2:0:0:0:
127,304,6113,1,2,2:0:0:0:
127,303,6202,6,0,P|169:295|213:296,1,88,14|2,2:1|2:0,0:0:0:0:
385,359,6554,1,10,2:0:0:0:
357,186,6731,2,0,P|344:228|323:267,1,88,2|0,2:0|2:0,0:0:0:0:
267,40,7084,5,10,2:3:0:0:
313,114,7260,1,10,2:0:0:0:
462,196,7437,2,0,L|377:174,1,88,2|8,2:0|2:3,0:0:0:0:
160,101,7790,5,2,2:0:0:0:
267,40,7966,1,10,2:0:0:0:
235,202,8143,2,0,P|171:159|68:113,1,176,10|8,2:3|2:3,0:0:0:0:
0,297,8672,5,10,2:0:0:0:
0,297,8760,1,2,2:0:0:0:
0,297,8849,1,2,2:0:0:0:
0,297,8937,1,2,2:0:0:0:
0,297,9025,2,0,P|54:286|110:284,1,88,14|2,2:3|2:0,0:0:0:0:
244,356,9378,1,10,2:0:0:0:
297,213,9554,2,0,P|287:175|282:117,1,88,10|0,2:3|2:0,0:0:0:0:
460,262,9907,2,0,P|455:305|445:348,1,88,10|8,2:3|2:0,0:0:0:0:
401,141,10260,5,10,2:3:0:0:
401,141,10349,1,10,2:3:0:0:
401,141,10437,2,0,L|497:125,3,88,10|8|8|8,2:3|2:3|2:0|2:3,0:0:0:0:
512,48,11143,5,2,2:0:0:0:
493,151,11319,1,10,2:3:0:0:
382,241,11496,1,10,2:0:0:0:
277,249,11672,1,2,2:0:0:0:
218,336,11849,5,14,2:3:0:0:
221,180,12025,1,8,2:3:0:0:
95,342,12202,1,10,2:0:0:0:
195,170,12378,1,8,2:3:0:0:
21,250,12554,1,8,2:0:0:0:
90,74,12731,5,10,2:3:0:0:
162,264,12907,1,10,2:0:0:0:
224,0,13084,1,14,2:1:0:0:
256,192,13172,12,0,14496,2:0:0:0:
408,22,14672,6,0,P|399:72|386:183,1,140.8,14|0,2:1|2:0,0:0:0:0:
484,260,15202,1,10,2:3:0:0:
484,260,15378,2,0,P|476:217|464:181,1,70.4,2|8,2:0|2:3,0:0:0:0:
414,342,15731,1,10,2:0:0:0:
414,342,16084,6,0,B|348:322|342:363|274:348,1,140.8,10|0,2:3|2:0,0:0:0:0:
188,254,16613,2,0,L|196:323,2,70.4,10|0|8,2:3|2:0|2:3,0:0:0:0:
117,362,17143,1,10,2:0:0:0:
117,362,17496,6,0,P|104:283|92:201,1,140.8,10|0,2:3|2:0,0:0:0:0:
141,127,18025,2,0,P|100:169|15:194,1,140.8,10|8,2:3|2:3,0:0:0:0:
93,43,18554,1,10,2:0:0:0:
93,43,18907,6,0,P|154:76|224:77,1,140.8,10|0,2:3|2:0,0:0:0:0:
343,34,19437,2,0,L|261:16,2,70.4,10|0|8,2:3|2:0|2:3,0:0:0:0:
497,0,19966,5,10,2:0:0:0:
441,50,20143,1,2,2:0:0:0:
343,34,20319,6,0,P|423:102|456:148,1,140.8,14|0,2:3|2:0,0:0:0:0:
512,215,20849,1,10,2:3:0:0:
512,215,21025,2,0,P|477:210|442:214,1,70.4,2|8,2:0|2:3,0:0:0:0:
404,328,21378,2,0,P|439:333|474:329,1,70.4,10|0,2:0|2:0,0:0:0:0:
331,227,21731,6,0,P|284:201|177:175,1,140.8,10|0,2:3|2:0,0:0:0:0:
135,95,22260,1,10,2:3:0:0:
51,128,22437,2,0,P|86:126|121:122,1,70.4,2|8,2:0|2:3,0:0:0:0:
245,83,22790,6,0,L|246:55,1,22,10|0,2:0|2:0,0:0:0:0:
300,9,22966,2,0,L|322:2,1,22,2|0,2:0|2:0,0:0:0:0:
405,26,23143,5,14,2:1:0:0:
399,129,23319,2,0,L|389:41,1,88,2|8,2:0|2:0,0:0:0:0:
512,150,23672,2,0,L|502:238,1,88,2|0,2:0|2:0,0:0:0:0:
365,304,24025,2,0,L|355:216,1,88,10|8,2:3|2:0,0:0:0:0:
502,237,24378,1,2,2:0:0:0:
399,129,24554,6,0,L|309:110,1,88,14|2,2:3|2:0,0:0:0:0:
209,8,24907,1,10,2:0:0:0:
150,102,25084,2,0,P|186:96|237:86,1,88,10|0,2:3|2:0,0:0:0:0:
79,165,25437,2,0,P|70:121|61:78,1,88,10|8,2:3|2:0,0:0:0:0:
162,185,25790,1,2,2:0:0:0:
11,212,25966,6,0,P|81:205|152:205,1,140.8,14|8,2:1|2:0,0:0:0:0:
230,296,26496,1,2,2:0:0:0:
230,296,26672,2,0,P|188:283|160:279,1,70.4,2|8,2:0|2:3,0:0:0:0:
72,368,27025,1,10,2:0:0:0:
72,368,27378,6,0,B|63:215,1,140.8,10|8,2:3|2:0,0:0:0:0:
25,103,27907,2,0,L|-8:187,2,70.4,10|0|8,2:3|2:0|2:3,0:0:0:0:
129,24,28437,1,10,2:0:0:0:
129,24,28790,6,0,B|206:17|189:54|263:57,1,140.8,14|8,2:3|2:0,0:0:0:0:
405,3,29319,1,2,2:0:0:0:
405,3,29496,2,0,P|367:21|331:56,1,70.4,2|8,2:0|2:3,0:0:0:0:
468,125,29849,1,10,2:0:0:0:
468,125,30202,6,0,P|469:83|478:37,1,70.4,14|0,2:3|2:0,0:0:0:0:
507,218,30554,1,10,2:0:0:0:
391,154,30731,2,0,P|407:207|423:300,1,140.8,10|8,2:3|2:3,0:0:0:0:
276,352,31260,5,10,2:0:0:0:
308,272,31437,1,2,2:0:0:0:
293,106,31613,2,0,P|291:146|293:185,1,79.1999975830079,14|0,2:1|2:0,0:0:0:0:
360,340,31966,5,10,2:0:0:0:
231,287,32143,1,2,2:0:0:0:
162,200,32319,2,0,P|187:166|206:125,1,79.1999975830079,10|8,2:3|2:3,0:0:0:0:
31,43,32672,5,10,2:0:0:0:
103,149,32849,1,2,2:0:0:0:
182,28,33025,2,0,P|141:35|101:61,1,79.1999975830079,10|0,2:3|2:0,0:0:0:0:
248,157,33378,2,0,P|262:117|259:70,1,79.1999975830079,10|8,2:0|2:3,0:0:0:0:
103,149,33731,2,0,P|129:181|172:202,1,79.1999975830079,2|8,2:0|2:3,0:0:0:0:
348,108,34084,5,10,2:0:0:0:
177,114,34260,1,8,2:0:0:0:
387,34,34437,6,0,P|392:104|405:187,1,132,14|0,2:1|2:0,0:0:0:0:
416,186,34790,1,10,2:0:0:0:
295,320,34966,5,14,2:3:0:0:
0,86,35319,1,10,2:3:0:0:
289,44,35672,5,6,2:3:0:0:
48,342,36025,1,10,2:3:0:0:
116,0,36378,5,6,2:3:0:0:
171,267,36554,1,14,2:3:0:0:
512,352,37260,6,0,P|460:332|352:319,1,140.8,14|8,2:1|2:0,0:0:0:0:
280,250,37790,2,0,P|314:244|346:229,1,70.4,10|0,2:3|2:0,0:0:0:0:
316,140,38143,2,0,P|281:134|249:119,1,70.4,10|8,2:3|2:0,0:0:0:0:
249,119,38672,6,0,P|217:104|182:98,1,70.4,10|0,2:3|2:0,0:0:0:0:
95,150,39025,1,10,2:0:0:0:
87,6,39202,2,0,P|99:38|106:73,1,70.4,10|0,2:3|2:0,0:0:0:0:
80,168,39554,2,0,P|68:200|60:235,1,70.4,10|8,2:3|2:0,0:0:0:0:
60,235,40084,6,0,L|65:274,3,35.2,14|0|0|0,2:3|2:0|2:0|2:0,0:0:0:0:
121,323,40437,2,0,P|149:323|185:316,1,35.2,10|0,2:0|2:0,0:0:0:0:
219,277,40613,2,0,P|255:263|308:258,1,70.4,10|0,2:3|2:0,0:0:0:0:
403,370,40966,6,0,L|407:336,1,35.2,10|0,2:3|2:0,0:0:0:0:
479,306,41143,2,0,L|474:256,1,35.2,10|0,2:0|2:0,0:0:0:0:
421,215,41319,2,0,L|427:173,1,35.2,2|0,2:0|2:0,0:0:0:0:
466,83,41496,6,0,L|457:38,3,35.2,10|0|0|0,2:3|2:0|2:0|2:0,0:0:0:0:
383,29,41849,2,0,L|340:71,1,35.2,10|0,2:0|2:0,0:0:0:0:
280,57,42025,2,0,L|252:19,3,35.2,10|0|0|0,2:3|2:0|2:0|2:0,0:0:0:0:
192,85,42378,6,0,L|189:131,1,35.2,2|0,2:0|2:0,0:0:0:0:
121,15,42554,2,0,L|82:8,1,35.2,10|0,2:0|2:0,0:0:0:0:
195,133,42731,2,0,L|234:140,1,35.2,10|0,2:0|2:0,0:0:0:0:
99,220,42907,6,0,P|85:153|56:80,1,140.8,10|8,2:1|2:0,0:0:0:0:
128,138,43437,2,0,P|169:149|206:150,1,70.4,10|0,2:3|2:0,0:0:0:0:
346,104,43790,2,0,P|310:106|277:116,1,70.4,10|8,2:3|2:0,0:0:0:0:
277,116,44319,6,0,P|277:158|272:207,1,70.4,10|0,2:3|2:0,0:0:0:0:
224,271,44672,1,10,2:0:0:0:
311,316,44849,2,0,P|352:306|392:305,1,70.4,10|0,2:3|2:0,0:0:0:0:
224,271,45202,2,0,P|188:268|154:259,1,70.4,10|8,2:3|2:0,0:0:0:0:
154,259,45731,6,0,L|145:303,3,35.2,14|0|0|0,2:3|2:0|2:0|2:0,0:0:0:0:
76,326,46084,2,0,P|57:315|29:300,1,35.2,10|0,2:0|2:0,0:0:0:0:
11,239,46260,2,0,P|20:197|33:162,1,70.4,10|0,2:3|2:0,0:0:0:0:
120,72,46613,6,0,L|154:76,1,35.2,10|0,2:3|2:0,0:0:0:0:
203,137,46790,2,0,L|253:132,1,35.2,10|0,2:0|2:0,0:0:0:0:
294,80,46966,2,0,L|336:86,1,35.2,2|0,2:0|2:0,0:0:0:0:
394,148,47143,6,0,P|394:162|400:194,3,35.2,10|0|0|0,2:3|2:0|2:0|2:0,0:0:0:0:
461,227,47496,2,0,P|469:237|483:259,1,35.2,10|0,2:0|2:0,0:0:0:0:
475,332,47672,2,0,P|468:343|441:366,3,35.2,10|0|0|0,2:3|2:0|2:0|2:0,0:0:0:0:
351,315,48025,6,0,L|340:277,1,35.2,10|0,2:3|2:0,0:0:0:0:
249,294,48202,2,0,L|214:274,1,35.2,10|0,2:0|2:0,0:0:0:0:
178,358,48378,2,0,L|140:369,1,35.2,2|0,2:3|2:0,0:0:0:0:
47,304,48554,6,0,P|33:232|46:131,1,158.399995166016,14|8,2:1|2:0,0:0:0:0:
171,81,49084,2,0,P|131:81|84:70,2,79.1999975830079,2|0|8,2:0|2:0|2:3,0:0:0:0:
263,30,49613,2,0,P|301:22|341:22,1,79.1999975830079,10|0,2:0|2:0,0:0:0:0:
473,159,49966,6,0,P|386:144|307:112,1,158.399995166016,10|8,2:3|2:0,0:0:0:0:
202,200,50496,1,10,2:3:0:0:
202,200,50584,1,2,2:3:0:0:
202,200,50672,2,0,L|280:191,1,79.1999975830079,2|8,2:0|2:3,0:0:0:0:
389,146,51025,2,0,L|462:174,1,79.1999975830079,10|0,2:0|2:0,0:0:0:0:
338,31,51378,6,0,B|257:17|266:67|186:63,1,158.399995166016,14|8,2:3|2:0,0:0:0:0:
60,94,51907,2,0,L|69:10,2,79.1999975830079,2|0|8,2:0|2:0|2:3,0:0:0:0:
157,171,52437,2,0,L|165:249,1,79.1999975830079,10|0,2:0|2:0,0:0:0:0:
63,365,52790,6,0,P|143:337|251:348,1,158.399995166016,10|8,2:3|2:0,0:0:0:0:
375,378,53319,1,10,2:3:0:0:
375,378,53407,1,2,2:0:0:0:
375,378,53496,2,0,P|325:363|289:341,1,79.1999975830079,2|8,2:0|2:3,0:0:0:0:
165,244,53849,5,10,2:0:0:0:
165,244,54025,1,2,2:0:0:0:
110,359,54202,5,14,2:0:0:0:
165,244,54378,1,8,2:3:0:0:
26,303,54554,5,8,2:0:0:0:
165,244,54731,1,8,2:3:0:0:
5,194,54907,5,8,2:0:0:0:
165,244,55084,1,8,2:3:0:0:
67,82,55260,5,8,2:0:0:0:
165,244,55437,1,8,2:3:0:0:
277,96,55613,5,14,2:0:0:0:
109,171,55790,1,8,2:3:0:0:
328,168,55966,5,8,2:0:0:0:
112,149,56143,1,8,2:3:0:0:
324,244,56319,5,8,2:0:0:0:
115,127,56496,1,8,2:3:0:0:
322,28,56672,5,10,2:0:0:0:
322,28,56849,2,0,L|373:20,1,44,8|8,2:0|2:0,0:0:0:0:
452,15,57025,5,14,2:1:0:0:
503,127,57202,1,10,2:3:0:0:
464,243,57378,1,10,2:3:0:0:
362,345,57554,5,14,2:3:0:0:
369,214,57731,1,10,2:3:0:0:
286,115,57907,1,10,2:3:0:0:
131,161,58084,5,6,2:3:0:0:
131,161,58260,1,6,2:3:0:0:
313,107,58437,5,10,2:0:0:0:
113,15,58613,1,10,2:0:0:0:
21,215,58790,1,10,2:0:0:0:
221,307,58966,1,10,2:0:0:0:
113,15,59496,6,0,L|58:22,1,30.7999990600586,2|2,2:0|2:0,0:0:0:0:
0,56,59672,6,0,B|118:49|72:133|178:153,1,211.199993554688,14|8,2:1|2:3,0:0:0:0:
427,119,60202,1,10,2:0:0:0:
327,39,60378,2,0,P|245:90|260:221,1,211.199993554688,10|8,2:3|2:3,0:0:0:0:
369,338,60907,1,10,2:0:0:0:
504,272,61084,6,0,B|279:293,1,211.199993554688,14|8,2:3|2:3,0:0:0:0:
100,260,61613,1,8,2:0:0:0:
190,146,61790,1,10,2:3:0:0:
190,146,61878,1,10,2:3:0:0:
190,146,61966,2,0,P|207:190|207:261,1,105.599996777344,8|8,2:3|2:3,0:0:0:0:
146,377,62319,1,10,2:0:0:0:
4,239,62496,6,0,B|73:224|73:224|150:259|209:248,1,211.199993554688,14|8,2:3|2:3,0:0:0:0:
362,119,63025,1,10,2:0:0:0:
291,30,63202,2,0,P|260:71|248:122,1,105.599996777344,10|0,2:3|2:0,0:0:0:0:
474,102,63554,2,0,P|453:53|415:18,1,105.599996777344,10|8,2:3|2:0,0:0:0:0:
295,211,63907,6,0,P|371:229|442:198,1,158.399995166016,10|0,2:3|2:0,0:0:0:0:
442,198,64260,1,10,2:3:0:0:
362,119,64437,1,10,2:2:0:0:
298,328,64613,1,10,2:3:0:0:
298,328,64702,2,0,P|221:344|150:312,1,158.399995166016,10|8,2:2|2:3,0:0:0:0:
54,147,65143,1,10,2:0:0:0:
0,286,65319,6,0,P|103:287|185:216,1,211.199993554688,14|8,2:3|2:3,0:0:0:0:
240,37,65849,1,10,2:0:0:0:
115,86,66025,1,2,2:0:0:0:
188,117,66202,1,8,2:3:0:0:
319,45,66378,1,10,2:3:0:0:
240,37,66554,1,8,2:0:0:0:
338,189,66731,6,0,P|346:77|432:35,1,211.199993554688,10|8,2:3|2:3,0:0:0:0:
509,231,67260,1,10,2:0:0:0:
387,318,67437,1,2,2:0:0:0:
387,318,67525,1,2,2:0:0:0:
387,318,67613,2,0,L|274:307,1,105.599996777344,8|8,2:3|2:3,0:0:0:0:
73,198,67966,5,10,2:0:0:0:
44,353,68143,5,14,2:3:0:0:
73,198,68319,1,8,2:0:0:0:
131,359,68496,5,10,2:3:0:0:
160,201,68672,1,8,2:0:0:0:
218,366,68849,5,10,2:3:0:0:
247,205,69025,1,8,2:0:0:0:
305,373,69202,5,10,2:3:0:0:
335,209,69378,1,8,2:0:0:0:
476,316,69554,6,0,L|292:290,1,184.799994360352,6|0,2:3|2:0,0:0:0:0:
268,285,69907,1,10,2:3:0:0:
170,115,70084,1,10,2:0:0:0:
3,241,70260,2,0,P|136:213|247:205,1,246.399992480469,14|8,2:3|2:0,0:0:0:0:
429,152,70790,6,0,L|439:109,1,44,2|0,3:2|3:0,0:0:0:0:
478,20,70966,6,0,P|403:19|354:157,1,211.199993554688,14|8,2:1|2:3,0:0:0:0:
512,272,71496,1,10,2:0:0:0:
428,358,71672,2,0,L|202:334,1,211.199993554688,10|8,2:3|2:3,0:0:0:0:
174,127,72202,1,10,2:0:0:0:
58,247,72378,6,0,P|179:248|252:174,1,211.199993554688,14|8,2:3|2:3,0:0:0:0:
141,21,72907,2,0,L|71:9,1,52.7999983886719,10|8,2:2|2:2,0:0:0:0:
22,57,73084,2,0,P|3:158|57:246,1,211.199993554688,10|8,2:3|2:3,0:0:0:0:
235,322,73613,1,10,2:0:0:0:
104,167,73790,6,0,L|80:296,2,105.599996777344,14|8|0,2:3|2:3|2:3,0:0:0:0:
240,40,74319,1,10,2:0:0:0:
353,178,74496,2,0,P|301:188|251:172,1,105.599996777344,10|0,2:3|2:0,0:0:0:0:
411,23,74849,2,0,P|462:12|512:28,1,105.599996777344,10|8,2:3|2:0,0:0:0:0:
496,254,75202,6,0,L|466:138,1,105.599996777344,10|0,2:3|0:0,0:0:0:0:
324,321,75554,1,10,2:3:0:0:
353,178,75731,1,10,2:2:0:0:
445,362,75907,1,10,2:3:0:0:
445,362,75996,1,10,2:3:0:0:
445,362,76084,1,8,0:3:0:0:
496,254,76260,1,8,0:3:0:0:
324,321,76437,1,10,2:0:0:0:
436,150,76613,6,0,P|439:67|327:25,1,211.199993554688,14|8,2:3|2:3,0:0:0:0:
102,80,77143,1,10,2:0:0:0:
273,160,77319,1,2,2:0:0:0:
241,88,77496,1,8,2:3:0:0:
125,206,77672,1,10,2:3:0:0:
203,214,77849,1,8,2:0:0:0:
64,57,78025,6,0,P|72:129|74:297,1,211.199993554688,10|8,2:3|2:3,0:0:0:0:
0,384,78554,1,10,2:0:0:0:
176,373,78731,1,2,2:0:0:0:
176,373,78819,1,2,2:0:0:0:
176,373,78907,2,0,P|120:364|57:345,1,105.599996777344,8|8,2:3|2:3,0:0:0:0:
0,201,79260,1,10,2:0:0:0:
203,271,79437,6,0,P|281:258|387:212,1,178.200000679779,14|0,2:3|0:0,0:0:0:0:
395,206,79790,5,10,2:3:0:0:
227,163,79966,1,8,2:0:0:0:
398,102,80143,5,10,2:3:0:0:
227,163,80319,1,8,2:0:0:0:
347,8,80496,5,10,2:3:0:0:
227,163,80672,1,8,2:0:0:0:
486,153,80849,6,0,P|400:118|309:96,1,187.439990561646,6|0,2:3|2:0,0:0:0:0:
285,96,81202,1,10,2:3:0:0:
158,232,81378,1,10,2:0:0:0:
176,32,81554,2,0,L|202:310,1,264.000010070801,14|8,2:3|2:0,0:0:0:0:
372,345,82084,5,8,2:0:0:0:
372,345,82172,2,0,P|386:288|381:234,1,88,8|8,2:0|0:0,0:0:0:0:
378,241,82437,6,0,B|263:221|299:298|199:294,1,193.600005908203,14|8,2:3|2:2,0:0:0:0:
31,197,82966,2,0,P|77:197|105:160,1,96.8000029541017,10|0,2:3|2:0,0:0:0:0:
275,117,83319,2,0,P|228:117|200:80,1,96.8000029541017,10|8,2:3|2:0,0:0:0:0:
364,0,83672,5,10,2:3:0:0:
364,0,83849,2,0,L|381:171,1,145.200004431152,10|0,2:3|2:0,0:0:0:0:
384,164,84202,2,0,P|431:162|468:132,1,96.8000029541017,10|8,2:0|2:3,0:0:0:0:
337,258,84554,2,0,P|290:268|247:249,1,96.8000029541017,2|8,2:0|2:3,0:0:0:0:
132,129,84907,1,10,2:0:0:0:
132,129,85260,6,0,P|190:203|188:298,1,193.600005908203,14|8,2:3|2:0,0:0:0:0:
21,380,85790,2,0,P|14:330|1:273,1,96.8000029541017,10|0,2:3|2:0,0:0:0:0:
218,320,86143,2,0,P|225:270|238:213,1,96.8000029541017,10|8,2:3|2:0,0:0:0:0:
403,143,86496,5,10,2:3:0:0:
403,143,86672,2,0,P|418:186|430:257,1,96.8000029541017,10|0,2:3|2:0,0:0:0:0:
445,260,86937,2,0,P|439:278|416:310,1,48.4000014770508,2|8,2:0|2:0,0:0:0:0:
351,357,87113,1,2,2:0:0:0:
351,357,87202,2,0,L|329:256,1,96.8000029541017,10|0,2:3|2:0,0:0:0:0:
320,235,87466,2,0,P|291:220|274:217,1,48.4000014770508,2|8,2:0|2:3,0:0:0:0:
199,246,87643,1,2,2:0:0:0:
199,246,87731,2,0,P|87:268|55:240,1,145.200004431152,10|0,2:0|2:0,0:0:0:0:
29,325,88084,6,0,P|28:221|36:109,1,211.199993554688,14|8,2:2|2:0,0:0:0:0:
243,62,88613,2,0,B|255:84|270:129|263:183|229:210|229:210|217:191|216:166|224:144,1,211.199993554688,10|8,2:3|2:3,0:0:0:0:
364,23,89143,2,0,P|411:1|466:11,1,105.599996777344,10|0,2:0|2:0,0:0:0:0:
487,196,89496,6,0,P|411:201|348:138,1,158.399995166016,10|0,2:3|2:0,0:0:0:0:
352,149,89849,1,10,2:0:0:0:
288,317,90025,2,0,P|343:314|355:263,1,105.599996777344,10|0,2:3|2:0,0:0:0:0:
266,148,90378,2,0,P|211:145|199:94,1,105.599996777344,10|8,2:3|2:0,0:0:0:0:
0,231,90731,5,10,2:3:0:0:
0,231,90819,1,10,2:3:0:0:
0,231,90907,2,0,P|74:184|216:185,1,211.199993554688,14|8,2:3|2:0,0:0:0:0:
358,300,91437,1,10,2:3:0:0:
352,132,91613,1,2,2:0:0:0:
233,316,91790,1,10,2:3:0:0:
259,101,91966,5,10,2:0:0:0:
369,327,92143,1,10,2:0:0:0:
494,60,92319,6,0,P|397:44|333:10,1,158.399995166016,14|0,2:3|2:0,0:0:0:0:
343,17,92672,1,10,2:3:0:0:
157,162,92849,2,0,P|239:132|326:128,1,176,6|8,2:3|2:3,0:0:0:0:
481,317,93378,1,10,2:0:0:0:
512,43,93731,6,0,P|346:98|332:272,1,369.599988720703,14|2,2:1|2:0,0:0:0:0:
332,272,95143,6,0,B|311:266|311:266|287:269|287:269|254:260,1,70.4,2|0,2:0|2:0,0:0:0:0:
148,378,95496,2,0,L|131:307,1,70.4,2|0,2:0|2:0,0:0:0:0:
52,240,95849,1,2,2:0:0:0:
52,240,95937,1,2,2:0:0:0:
52,240,96025,1,2,2:0:0:0:
52,240,96113,1,2,2:0:0:0:
52,240,96202,1,2,2:0:0:0:
52,240,96290,1,2,2:0:0:0:
52,240,96378,1,2,2:0:0:0:
52,240,96466,1,2,2:0:0:0:
52,240,96554,6,0,L|64:134,1,88,14|2,2:1|2:0,0:0:0:0:
170,14,96907,1,10,2:0:0:0:
261,164,97084,2,0,P|218:152|183:127,1,88,2|0,2:0|2:0,0:0:0:0:
351,11,97437,5,10,2:3:0:0:
413,69,97613,1,10,2:0:0:0:
437,230,97790,2,0,P|448:190|458:145,1,88,2|8,2:0|2:3,0:0:0:0:
512,313,98143,5,2,2:0:0:0:
374,359,98319,1,10,2:0:0:0:
442,211,98496,2,0,P|466:312|481:394,1,176,10|8,2:3|2:3,0:0:0:0:
301,249,99025,5,10,2:0:0:0:
301,249,99113,1,2,2:0:0:0:
301,249,99202,1,2,2:0:0:0:
301,249,99290,1,2,2:0:0:0:
301,249,99378,2,0,P|309:206|324:165,1,88,14|2,2:3|2:0,0:0:0:0:
415,33,99731,1,10,2:0:0:0:
386,228,99907,2,0,P|344:242|301:250,1,88,10|0,2:3|2:0,0:0:0:0:
184,67,100260,2,0,P|226:53|269:45,1,88,10|8,2:3|2:0,0:0:0:0:
114,202,100613,5,10,2:3:0:0:
114,202,100702,1,10,2:3:0:0:
114,202,100790,2,0,P|99:143|87:104,3,88,10|8|8|8,2:3|2:3|2:0|2:3,0:0:0:0:
28,40,101496,5,2,2:0:0:0:
7,143,101672,1,10,2:3:0:0:
136,246,101849,1,10,2:0:0:0:
240,235,102025,1,2,2:0:0:0:
357,339,102202,5,14,2:3:0:0:
305,169,102378,1,8,2:3:0:0:
263,343,102554,1,10,2:0:0:0:
318,141,102731,1,8,2:3:0:0:
450,321,102907,1,8,2:0:0:0:
410,47,103084,5,10,2:3:0:0:
325,259,103260,1,10,2:0:0:0:
240,11,103437,1,14,2:1:0:0:
256,192,103525,12,2,105025,2:0:0:0:
472,72,110143,6,0,P|488:76|502:65,1,35.2,2|0,2:0|2:0,0:0:0:0:
502,43,110319,2,0,B|466:47|449:40|449:40|422:50|408:75|408:75|373:70|343:87,1,176,2|10,2:0|2:3,0:0:0:0:
343,87,111202,6,0,B|375:68|407:77|407:77|461:135|465:220|389:267,1,281.6,14|2,2:3|2:0,0:0:0:0:
365,333,112084,5,0,3:0:0:0:
329,226,112260,1,0,3:0:0:0:
256,130,112437,1,0,3:0:0:0:
136,88,112613,1,0,3:0:0:0:
2,97,112790,1,0,3:0:0:0:
140,122,112966,1,0,3:0:0:0:
296,25,113143,1,10,3:2:0:0:
436,281,113496,5,14,2:1:0:0:
512,220,113672,2,0,P|465:235|424:259,1,88,2|8,2:0|2:0,0:0:0:0:
433,55,114025,2,0,P|469:87|511:110,1,88,2|0,2:0|2:0,0:0:0:0:
330,205,114378,2,0,P|339:157|339:109,1,88,10|8,2:3|2:0,0:0:0:0:
426,162,114731,1,2,2:0:0:0:
288,49,114907,6,0,P|244:38|201:33,1,88,14|2,2:3|2:0,0:0:0:0:
128,151,115260,1,10,2:0:0:0:
29,77,115437,2,0,P|73:66|115:61,1,88,10|0,2:3|2:0,0:0:0:0:
214,166,115790,2,0,P|170:160|127:150,1,88,10|8,2:3|2:0,0:0:0:0:
26,97,116143,1,2,2:0:0:0:
0,259,116319,6,0,P|68:231|143:234,1,140.8,14|8,2:1|2:0,0:0:0:0:
223,309,116849,1,2,2:0:0:0:
223,309,117025,2,0,L|235:389,1,70.4,2|8,2:0|2:3,0:0:0:0:
308,232,117378,1,10,2:0:0:0:
308,232,117731,6,0,B|385:234|365:278|433:288,1,140.8,10|8,2:3|2:0,0:0:0:0:
497,155,118260,2,0,L|513:246,2,70.4,10|0|8,2:3|2:0|2:3,0:0:0:0:
512,19,118790,1,10,2:0:0:0:
512,19,119143,6,0,B|435:21|455:65|386:75,1,140.8,14|8,2:3|2:0,0:0:0:0:
247,26,119672,1,2,2:0:0:0:
247,26,119849,2,0,P|284:15|328:19,1,70.4,2|8,2:0|2:3,0:0:0:0:
246,130,120202,1,10,2:0:0:0:
246,130,120554,6,0,P|210:130|177:120,1,70.4,14|0,2:3|2:0,0:0:0:0:
75,43,120907,1,10,2:0:0:0:
128,184,121084,2,0,P|144:131|160:38,1,140.8,10|8,2:3|2:3,0:0:0:0:
23,216,121613,5,10,2:0:0:0:
112,189,121790,1,2,2:0:0:0:
275,240,121966,2,0,P|238:227|202:211,1,79.1999975830079,14|0,2:1|2:0,0:0:0:0:
34,79,122319,5,10,2:0:0:0:
4,207,122496,1,2,2:0:0:0:
55,303,122672,2,0,P|104:291|139:286,1,79.1999975830079,10|8,2:3|2:3,0:0:0:0:
333,301,123025,5,10,2:0:0:0:
202,211,123202,1,2,2:0:0:0:
327,130,123378,2,0,P|320:170|300:205,1,79.1999975830079,10|0,2:3|2:0,0:0:0:0:
192,61,123731,2,0,P|230:46|271:47,1,79.1999975830079,10|8,2:0|2:3,0:0:0:0:
202,211,124084,2,0,P|170:185|150:150,1,79.1999975830079,2|8,2:0|2:3,0:0:0:0:
131,0,124437,5,10,2:0:0:0:
242,134,124613,1,8,2:0:0:0:
397,68,124790,6,0,P|334:49|269:46,1,132,14|0,2:1|2:0,0:0:0:0:
246,53,125143,1,10,2:0:0:0:
436,0,125319,5,14,2:3:0:0:
469,339,125672,1,10,2:3:0:0:
246,53,126025,5,6,2:3:0:0:
247,360,126378,1,10,2:3:0:0:
82,90,126731,5,6,2:3:0:0:
418,194,126907,1,14,2:3:0:0:
50,373,127613,6,0,L|36:215,1,140.8,14|8,2:1|2:0,0:0:0:0:
115,145,128143,2,0,P|79:145|46:134,1,70.4,10|0,2:3|2:0,0:0:0:0:
178,52,128496,2,0,P|213:51|246:62,1,70.4,10|8,2:3|2:0,0:0:0:0:
246,62,129025,6,0,L|253:148,1,70.4,10|0,2:3|2:0,0:0:0:0:
316,227,129378,1,10,2:0:0:0:
391,116,129554,2,0,P|360:128|327:149,1,70.4,10|0,2:3|2:0,0:0:0:0:
312,250,129907,2,0,P|335:275|364:296,1,70.4,10|8,2:3|2:0,0:0:0:0:
364,296,130437,6,0,L|412:292,3,35.2,14|0|0|0,2:3|2:0|2:0|2:0,0:0:0:0:
470,323,130790,2,0,P|473:300|476:273,1,35.2,10|0,2:0|2:0,0:0:0:0:
503,216,130966,2,0,L|494:138,1,70.4,10|0,2:3|2:0,0:0:0:0:
433,27,131319,6,0,L|394:15,1,35.2,10|0,2:3|2:0,0:0:0:0:
370,89,131496,2,0,L|319:102,1,35.2,10|0,2:0|2:0,0:0:0:0:
276,48,131672,2,0,L|232:44,1,35.2,2|0,2:0|2:0,0:0:0:0:
171,99,131849,6,0,L|173:145,3,35.2,10|0|0|0,2:3|2:0|2:0|2:0,0:0:0:0:
125,196,132202,2,0,P|97:198|62:188,1,35.2,10|0,2:0|2:0,0:0:0:0:
31,146,132378,2,0,L|26:111,3,35.2,10|0|0|0,2:3|2:0|2:0|2:0,0:0:0:0:
96,44,132731,6,0,L|99:0,1,35.2,2|0,2:0|2:0,0:0:0:0:
171,99,132907,2,0,L|212:94,1,35.2,10|0,2:0|2:0,0:0:0:0:
65,139,133084,2,0,L|29:146,1,35.2,10|0,2:0|2:0,0:0:0:0:
137,234,133260,6,0,P|146:164|171:99,1,140.8,10|8,2:1|2:0,0:0:0:0:
270,44,133790,2,0,P|275:78|283:122,1,70.4,10|0,2:3|2:0,0:0:0:0:
380,168,134143,2,0,P|384:130|391:98,1,70.4,10|8,2:3|2:0,0:0:0:0:
391,98,134672,6,0,P|399:132|402:167,1,70.4,10|0,2:3|2:0,0:0:0:0:
361,257,135025,1,10,2:0:0:0:
431,324,135202,2,0,P|466:328|501:323,1,70.4,10|0,2:3|2:0,0:0:0:0:
361,257,135554,2,0,P|326:253|291:258,1,70.4,10|8,2:3|2:0,0:0:0:0:
291,258,136084,6,0,L|276:298,3,35.2,14|0|0|0,2:3|2:0|2:0|2:0,0:0:0:0:
233,354,136437,2,0,L|182:359,1,35.2,10|0,2:0|2:0,0:0:0:0:
130,319,136613,2,0,P|89:312|45:310,1,70.4,10|0,2:3|2:0,0:0:0:0:
0,189,136966,6,0,L|10:151,1,35.2,10|0,2:3|2:0,0:0:0:0:
78,117,137143,2,0,L|90:159,1,35.2,10|0,2:0|2:0,0:0:0:0:
154,193,137319,2,0,L|171:148,1,35.2,2|0,2:0|2:0,0:0:0:0:
241,106,137496,6,0,L|240:56,3,35.2,10|0|0|0,2:3|2:0|2:0|2:0,0:0:0:0:
296,16,137849,2,0,P|312:11|330:9,1,35.2,10|0,2:0|2:0,0:0:0:0:
398,46,138025,2,0,L|411:94,3,35.2,10|0|0|0,2:3|2:0|2:0|2:0,0:0:0:0:
501,134,138378,6,0,P|499:151|495:168,1,35.2,10|0,2:3|2:0,0:0:0:0:
499,259,138554,2,0,P|485:270|470:279,1,35.2,10|0,2:0|2:0,0:0:0:0:
409,345,138731,2,0,P|391:343|374:339,1,35.2,2|0,2:3|2:0,0:0:0:0:
295,267,138907,6,0,B|254:242|254:242|208:273|146:261,1,158.399995166016,14|8,2:1|2:0,0:0:0:0:
22,177,139437,2,0,L|11:98,2,79.1999975830079,2|0|8,2:0|2:0|2:3,0:0:0:0:
133,120,139966,2,0,L|144:39,1,79.1999975830079,10|0,2:0|2:0,0:0:0:0:
294,80,140319,6,0,P|387:71|460:33,1,158.399995166016,10|8,2:3|2:0,0:0:0:0:
512,172,140849,1,10,2:3:0:0:
512,172,140937,1,2,2:3:0:0:
512,172,141025,2,0,P|479:156|427:148,1,79.1999975830079,2|8,2:0|2:3,0:0:0:0:
368,261,141378,2,0,P|406:254|442:237,1,79.1999975830079,10|0,2:0|2:0,0:0:0:0:
306,138,141731,6,0,B|283:314,1,158.399995166016,14|8,2:3|2:0,0:0:0:0:
161,366,142260,2,0,P|147:324|143:287,2,79.1999975830079,2|0|8,2:0|2:0|2:3,0:0:0:0:
300,369,142790,2,0,P|314:327|318:290,1,79.1999975830079,10|0,2:0|2:0,0:0:0:0:
181,206,143143,6,0,P|159:125|188:54,1,158.399995166016,10|8,2:3|2:0,0:0:0:0:
365,5,143672,1,10,2:3:0:0:
365,5,143760,1,2,2:0:0:0:
365,5,143849,2,0,L|372:87,1,79.1999975830079,2|8,2:0|2:3,0:0:0:0:
494,220,144202,5,10,2:0:0:0:
494,220,144378,1,2,2:0:0:0:
352,326,144554,5,14,2:0:0:0:
494,220,144731,1,8,2:3:0:0:
308,235,144907,5,8,2:0:0:0:
494,220,145084,1,8,2:3:0:0:
317,124,145260,5,8,2:0:0:0:
494,220,145437,1,8,2:3:0:0:
397,41,145613,5,8,2:0:0:0:
494,220,145790,1,8,2:3:0:0:
234,165,145966,5,14,2:0:0:0:
466,109,146143,1,8,2:3:0:0:
220,196,146319,5,8,2:0:0:0:
397,41,146496,1,8,2:3:0:0:
223,229,146672,5,8,2:0:0:0:
302,11,146849,1,8,2:3:0:0:
382,248,147025,5,10,2:0:0:0:
382,248,147202,2,0,L|376:296,1,44,8|8,2:0|2:0,0:0:0:0:
309,336,147378,5,14,2:1:0:0:
223,229,147554,1,10,2:3:0:0:
89,212,147731,1,10,2:3:0:0:
0,79,147907,5,14,2:3:0:0:
132,16,148084,1,10,2:3:0:0:
274,62,148260,1,10,2:3:0:0:
476,22,148437,5,10,2:3:0:0:
476,22,148613,1,10,2:3:0:0:
512,174,148790,5,10,2:0:0:0:
227,138,148966,1,10,2:0:0:0:
384,14,149143,1,10,2:0:0:0:
351,297,149319,1,10,2:0:0:0:
502,36,149849,6,0,P|490:28|463:17,1,30.7999990600586,2|2,2:0|2:0,0:0:0:0:
382,17,150025,6,0,B|350:83|379:146|379:146|371:193|334:205,1,211.199993554688,14|8,2:1|2:3,0:0:0:0:
64,156,150554,1,10,2:0:0:0:
135,43,150731,2,0,P|233:44|260:139,1,211.199993554688,10|8,2:3|2:3,0:0:0:0:
119,317,151260,1,10,2:0:0:0:
0,209,151437,6,0,B|120:193|75:270|189:280,1,211.199993554688,14|8,2:3|2:3,0:0:0:0:
382,201,151966,1,8,2:0:0:0:
297,45,152143,1,10,2:3:0:0:
297,45,152231,1,10,2:3:0:0:
297,45,152319,2,0,P|265:91|261:147,1,105.599996777344,8|8,2:3|2:3,0:0:0:0:
374,225,152672,1,10,2:0:0:0:
465,58,152849,6,0,P|501:158|495:282,1,211.199993554688,14|8,2:3|2:3,0:0:0:0:
333,359,153378,1,10,2:0:0:0:
276,242,153554,2,0,P|332:218|383:229,1,105.599996777344,10|0,2:3|2:0,0:0:0:0:
206,111,153907,2,0,P|214:50|249:11,1,105.599996777344,10|8,2:3|2:0,0:0:0:0:
49,133,154260,6,0,L|205:111,1,158.399995166016,10|0,2:3|2:0,0:0:0:0:
205,111,154613,1,10,2:3:0:0:
374,225,154790,1,10,2:2:0:0:
503,32,154966,1,10,2:3:0:0:
503,32,155054,2,0,P|452:67|447:186,1,158.399995166016,10|8,2:2|2:3,0:0:0:0:
488,297,155496,1,10,2:0:0:0:
401,81,155672,6,0,P|325:11|223:21,1,211.199993554688,14|8,2:3|2:3,0:0:0:0:
45,138,156202,1,10,2:0:0:0:
121,20,156378,1,2,2:0:0:0:
147,94,156554,1,8,2:3:0:0:
58,215,156731,1,10,2:3:0:0:
45,138,156907,1,8,2:0:0:0:
223,21,157084,6,0,B|345:15|299:83|419:83,1,211.199993554688,10|8,2:3|2:3,0:0:0:0:
261,262,157613,1,10,2:0:0:0:
469,228,157790,1,2,2:0:0:0:
469,228,157878,1,2,2:0:0:0:
469,228,157966,2,0,P|424:192|372:181,1,105.599996777344,8|8,2:3|2:3,0:0:0:0:
127,312,158319,5,10,2:0:0:0:
119,148,158496,5,14,2:3:0:0:
127,312,158672,1,8,2:0:0:0:
204,159,158849,5,10,2:3:0:0:
214,327,159025,1,8,2:0:0:0:
291,170,159202,5,10,2:3:0:0:
299,341,159378,1,8,2:0:0:0:
377,181,159554,5,10,2:3:0:0:
386,356,159731,1,8,2:0:0:0:
512,217,159907,6,0,P|427:193|373:262,1,184.799994360352,6|0,2:3|2:0,0:0:0:0:
372,280,160260,1,10,2:3:0:0:
246,105,160437,1,10,2:0:0:0:
120,314,160613,2,0,P|234:325|277:219,1,246.399992480469,14|8,2:3|2:0,0:0:0:0:
147,33,161143,6,0,L|88:75,1,44,2|0,3:2|3:0,0:0:0:0:
34,111,161319,6,0,L|275:104,1,211.199993554688,14|8,2:1|2:3,0:0:0:0:
509,141,161849,2,0,L|514:70,1,52.7999983886719,10|8,2:0|0:2,0:0:0:0:
481,18,162025,2,0,P|404:22|353:150,1,211.199993554688,10|8,2:3|2:3,0:0:0:0:
414,364,162554,1,10,2:0:0:0:
512,231,162731,6,0,L|294:214,1,211.199993554688,14|8,2:3|2:3,0:0:0:0:
80,298,163260,1,10,0:0:0:0:
56,108,163437,1,10,0:3:0:0:
56,108,163525,2,0,P|140:142|165:212,1,158.399995166016,10|10,0:0|0:3,0:0:0:0:
65,319,163966,1,10,2:0:0:0:
182,124,164143,6,0,L|206:-5,2,105.599996777344,14|8|0,2:3|2:3|2:3,0:0:0:0:
278,331,164672,1,10,2:0:0:0:
397,241,164849,2,0,P|355:214|276:225,1,105.599996777344,10|0,2:3|2:0,0:0:0:0:
504,138,165202,2,0,P|506:88|457:25,1,105.599996777344,10|8,2:3|2:0,0:0:0:0:
301,213,165554,6,0,P|345:240|397:240,1,105.599996777344,10|0,2:3|0:0,0:0:0:0:
300,60,165907,1,10,2:3:0:0:
177,190,166084,1,10,2:2:0:0:
155,12,166260,1,10,2:3:0:0:
155,12,166349,1,10,2:3:0:0:
155,12,166437,1,8,0:3:0:0:
300,60,166613,1,8,0:3:0:0:
177,190,166790,1,10,2:0:0:0:
246,0,166966,6,0,L|266:233,1,211.199993554688,14|8,2:3|2:3,0:0:0:0:
456,333,167496,1,10,2:0:0:0:
485,179,167672,1,2,2:0:0:0:
408,200,167849,1,8,2:3:0:0:
379,354,168025,1,10,2:3:0:0:
456,333,168202,1,8,2:0:0:0:
316,174,168378,6,0,B|236:137|165:189|165:189|189:204|223:197,1,211.199993554688,10|8,2:3|2:3,0:0:0:0:
388,59,168907,1,10,2:0:0:0:
206,18,169084,1,2,2:0:0:0:
206,18,169172,1,2,2:0:0:0:
206,18,169260,2,0,P|261:64|317:78,1,105.599996777344,8|8,2:3|2:3,0:0:0:0:
483,17,169613,1,10,2:0:0:0:
512,244,169790,6,0,P|447:202|328:185,1,178.200000679779,14|0,2:3|0:0,0:0:0:0:
322,186,170143,5,10,2:3:0:0:
225,343,170319,1,8,2:0:0:0:
210,158,170496,5,10,2:3:0:0:
225,343,170672,1,8,2:0:0:0:
103,177,170849,5,10,2:3:0:0:
225,343,171025,1,8,2:0:0:0:
0,281,171202,6,0,P|68:220|160:222,1,187.439990561646,6|0,2:3|2:0,0:0:0:0:
184,237,171554,1,10,2:3:0:0:
342,117,171731,1,10,2:0:0:0:
444,354,171907,2,0,P|322:335|303:213,1,264.000010070801,14|8,2:3|2:0,0:0:0:0:
465,1,172437,5,8,2:0:0:0:
465,1,172525,2,0,P|479:56|468:110,1,88,8|8,2:0|0:0,0:0:0:0:
463,106,172790,6,0,B|250:77,1,193.600005908203,14|8,2:3|2:2,0:0:0:0:
62,51,173319,2,0,P|108:51|127:4,1,96.8000029541017,10|0,2:3|2:0,0:0:0:0:
236,167,173672,2,0,P|190:167|171:120,1,96.8000029541017,10|8,2:3|2:0,0:0:0:0:
51,256,174025,5,10,2:3:0:0:
51,256,174202,2,0,P|99:204|169:205,1,145.200004431152,10|0,2:3|2:0,0:0:0:0:
183,230,174554,2,0,P|182:268|203:334,1,96.8000029541017,10|8,2:0|2:3,0:0:0:0:
351,192,174907,2,0,P|363:145|366:97,1,96.8000029541017,2|8,2:0|2:3,0:0:0:0:
504,264,175260,1,10,2:0:0:0:
504,264,175613,6,0,B|411:225|417:311|320:285,1,193.600005908203,14|8,2:3|2:0,0:0:0:0:
163,361,176143,2,0,P|148:316|151:253,1,96.8000029541017,10|0,2:3|2:0,0:0:0:0:
304,191,176496,2,0,P|320:237|320:285,1,96.8000029541017,10|8,2:3|2:0,0:0:0:0:
188,140,176849,5,10,2:3:0:0:
188,140,177025,2,0,P|223:95|274:70,1,96.8000029541017,10|0,2:3|2:0,0:0:0:0:
276,76,177290,1,2,2:0:0:0:
294,80,177378,2,0,L|391:64,1,96.8000029541017,8|10,2:0|2:3,0:0:0:0:
467,51,177643,2,0,L|455:119,1,48.4000014770508,0|0,0:0|2:0,0:0:0:0:
499,166,177819,2,0,L|505:218,1,48.4000014770508,2|8,2:0|2:3,0:0:0:0:
473,288,177996,1,2,2:0:0:0:
473,288,178084,2,0,B|393:269|408:311|331:301,1,145.200004431152,10|0,2:0|2:0,0:0:0:0:
248,280,178437,6,0,B|188:289|162:334|162:334|201:368|260:359,1,211.199993554688,14|8,2:2|2:0,0:0:0:0:
356,177,178966,2,0,B|393:97|341:26|341:26|326:50|333:84,1,211.199993554688,10|8,2:3|2:3,0:0:0:0:
439,304,179496,2,0,P|481:291|513:226,1,105.599996777344,10|0,2:0|2:0,0:0:0:0:
414,55,179849,6,0,L|247:37,1,158.399995166016,10|0,2:3|2:0,0:0:0:0:
256,38,180202,1,10,2:0:0:0:
161,201,180378,2,0,B|167:230|190:242|190:242|206:222|200:192,1,105.599996777344,10|0,2:3|2:0,0:0:0:0:
106,60,180731,2,0,B|102:30|80:16|80:16|62:34|65:64,1,105.599996777344,10|8,2:3|2:0,0:0:0:0:
33,236,181084,5,10,2:3:0:0:
33,236,181172,1,10,2:3:0:0:
33,236,181260,2,0,B|12:242|-9:231|-12:204|5:186|38:182|93:206|68:225|108:246|174:232,1,211.199993554688,14|8,2:3|2:0,0:0:0:0:
343,63,181790,1,10,2:3:0:0:
141,99,181966,1,2,2:0:0:0:
338,191,182143,1,10,2:3:0:0:
211,0,182319,5,10,2:0:0:0:
161,258,182496,1,10,2:0:0:0:
11,57,182672,6,0,P|87:45|141:99,1,158.399995166016,14|0,2:3|2:0,0:0:0:0:
140,98,183025,1,10,2:3:0:0:
354,34,183202,2,0,P|273:52|259:145,1,176,10|8,2:3|2:3,0:0:0:0:
341,298,183731,2,0,L|449:288,1,92.3999971801759,10|0,2:0|0:0,0:0:0:0:
486,346,184084,5,14,2:1:0:0:
491,210,184260,1,10,2:3:0:0:
399,96,184437,1,10,2:3:0:0:
245,78,184613,2,0,L|83:64,1,145.200004431152,4|0,2:3|2:0,0:0:0:0:
87,44,184966,1,10,2:3:0:0:
0,183,185143,1,10,2:0:0:0:
0,183,185496,5,10,2:3:0:0:
142,123,185672,1,10,2:3:0:0:
115,290,185849,1,10,2:3:0:0:
272,198,186025,2,0,P|339:180|428:183,1,145.200004431152,6|0,2:3|2:0,0:0:0:0:
471,234,186378,1,10,2:0:0:0:
512,76,186554,1,10,2:0:0:0:
512,76,186907,5,14,2:3:0:0:
414,180,187084,1,10,2:3:0:0:
297,76,187260,1,10,2:3:0:0:
186,198,187437,2,0,P|171:292|174:370,1,145.200004431152,6|0,2:3|2:0,0:0:0:0:
186,360,187790,5,10,2:3:0:0:
0,317,187966,1,10,2:0:0:0:
90,235,188143,2,0,P|101:186|82:142,1,96.8000029541017,10|8,2:3|2:3,0:0:0:0:
0,39,188496,1,10,2:3:0:0:
61,135,188672,1,10,2:0:0:0:
168,59,188849,2,0,P|225:30|338:35,1,145.200004431152,6|0,2:3|2:0,0:0:0:0:
354,86,189202,1,10,2:0:0:0:
512,22,189378,1,14,2:2:0:0:
512,22,189731,5,14,2:1:0:0:
503,156,189907,1,10,2:3:0:0:
392,250,190084,1,10,2:3:0:0:
239,228,190260,2,0,B|170:214|167:251|96:241,1,145.200004431152,6|0,2:3|2:0,0:0:0:0:
78,223,190613,1,10,2:3:0:0:
14,381,190790,1,10,2:0:0:0:
14,381,191143,5,10,2:3:0:0:
0,235,191319,1,6,2:3:0:0:
128,333,191496,1,10,2:3:0:0:
165,184,191672,2,0,P|120:144|18:158,1,145.200004431152,8|0,2:3|2:0,0:0:0:0:
0,214,192025,1,10,2:0:0:0:
25,39,192202,1,10,2:0:0:0:
25,39,192554,5,14,2:1:0:0:
121,165,192731,1,10,2:3:0:0:
242,15,192907,1,10,2:3:0:0:
344,209,193084,2,0,P|283:171|214:186,1,145.200004431152,6|0,2:3|2:0,0:0:0:0:
201,205,193437,1,10,2:3:0:0:
318,96,193613,1,10,2:0:0:0:
391,309,193790,5,10,2:0:0:0:
391,309,193878,1,10,2:0:0:0:
391,309,193966,1,14,2:2:0:0:
431,122,194143,1,8,2:0:0:0:
512,318,194319,6,0,L|502:263,1,48.4000014770508,10|8,2:0|2:0,0:0:0:0:
486,197,194496,2,0,P|428:167|335:181,1,145.200004431152,14|0,2:3|2:0,0:0:0:0:
282,210,194849,5,0,1:0:0:0:
252,222,194937,1,0,1:0:0:0:
220,224,195025,1,0,1:0:0:0:
189,214,195113,1,0,1:0:0:0:
164,194,195202,1,0,1:0:0:0:
148,166,195290,1,0,1:0:0:0:
143,134,195378,5,14,2:1:0:0:
215,48,195554,2,0,L|309:13,1,88,2|8,2:0|2:0,0:0:0:0:
301,230,195907,2,0,L|317:131,1,88,2|8,2:0|2:3,0:0:0:0:
501,246,196260,1,10,2:3:0:0:
501,246,196437,2,0,L|423:182,1,88,10|0,2:0|2:0,0:0:0:0:
307,123,196790,5,10,2:3:0:0:
345,330,196966,2,0,P|388:328|427:308,1,88,2|8,2:0|2:0,0:0:0:0:
200,286,197319,2,0,P|214:327|246:357,1,88,10|0,2:3|2:0,0:0:0:0:
197,128,197672,1,10,2:3:0:0:
197,128,197760,1,10,2:3:0:0:
197,128,197849,2,0,P|162:153|143:193,1,88,10|0,2:0|2:0,0:0:0:0:
245,356,198202,5,10,2:3:0:0:
143,192,198378,1,2,2:0:0:0:
297,276,198554,1,10,2:0:0:0:
115,330,198731,2,0,P|154:284|192:265,1,88,2|8,2:0|2:3,0:0:0:0:
382,199,199084,2,0,P|322:188|287:164,1,88,10|8,2:3|2:0,0:0:0:0:
188,23,199437,5,2,2:0:0:0:
188,23,199525,1,2,2:0:0:0:
188,23,199613,2,0,P|205:63|208:106,1,88,10|2,2:3|2:0,0:0:0:0:
107,243,199966,1,10,2:0:0:0:
126,83,200143,2,0,P|152:47|188:23,1,88,10|0,2:3|2:0,0:0:0:0:
298,151,200496,1,10,2:3:0:0:
231,191,200672,2,0,P|187:186|148:166,1,88,10|0,2:0|2:0,0:0:0:0:
0,196,201025,6,0,P|66:144|148:165,1,176,14|8,2:3|2:0,0:0:0:0:
252,281,201554,1,2,2:0:0:0:
252,281,201731,2,0,P|255:320|283:362,1,88,10|8,2:3|2:3,0:0:0:0:
478,356,202084,2,0,P|492:314|485:271,1,88,10|0,2:0|2:0,0:0:0:0:
512,131,202437,6,0,P|471:167|325:174,1,176,10|8,2:3|2:0,0:0:0:0:
277,64,202966,1,10,2:3:0:0:
277,64,203054,1,10,2:3:0:0:
277,64,203143,2,0,P|308:49|368:48,1,88,10|8,2:3|2:3,0:0:0:0:
244,195,203496,2,0,P|218:187|191:171,3,44,10|2|2|2,2:0|2:0|2:0|2:0,0:0:0:0:
141,107,203849,5,14,2:3:0:0:
76,318,204025,1,8,2:0:0:0:
5,143,204202,1,8,2:0:0:0:
186,312,204378,6,0,P|242:343|316:329,1,132,14|0,2:3|2:0,0:0:0:0:
319,321,204731,2,0,L|329:217,1,88,10|8,2:3|2:0,0:0:0:0:
344,50,205084,1,2,2:0:0:0:
512,124,205260,6,0,B|395:86|419:172|299:141,1,220,14|0,2:3|2:0,0:0:0:0:
236,98,205790,6,0,B|211:74|199:46|206:0|206:0|258:38|274:122|261:201|193:249,1,376.199989954377,14|0,2:3|2:0,0:0:0:0:
278,280,206672,6,0,L|445:259,1,140.8,14|8,2:1|2:3,0:0:0:0:
512,315,207202,1,2,2:0:0:0:
512,315,207378,2,0,P|462:236|480:164,1,140.8,10|8,2:3|2:0,0:0:0:0:
512,82,207907,1,2,2:0:0:0:
484,206,208084,6,0,L|318:176,1,140.8,10|8,2:3|2:3,0:0:0:0:
283,89,208613,2,0,L|368:76,2,70.4,2|8|0,2:0|2:3|2:0,0:0:0:0:
195,29,209143,2,0,L|110:16,1,70.4,10|0,2:3|2:0,0:0:0:0:
41,125,209496,6,0,P|134:105|187:131,1,140.8,10|8,2:3|2:3,0:0:0:0:
227,237,210025,2,0,L|214:331,1,70.4,2|8,2:0|2:3,0:0:0:0:
88,371,210378,2,0,L|78:301,1,70.4,2|8,2:0|2:0,0:0:0:0:
17,233,210731,1,2,2:0:0:0:
81,304,210907,6,0,P|149:322|216:305,1,140.8,10|8,2:3|2:3,0:0:0:0:
283,175,211437,2,0,P|275:210|281:255,2,70.4,2|8|0,2:0|2:3|2:0,0:0:0:0:
399,97,211966,1,10,2:0:0:0:
328,67,212143,1,2,2:0:0:0:
438,24,212319,6,0,L|445:171,1,140.8,14|8,2:3|2:3,0:0:0:0:
512,275,212849,1,2,2:0:0:0:
512,275,213025,2,0,P|468:223|398:223,1,140.8,10|8,2:3|2:0,0:0:0:0:
340,285,213554,1,2,2:0:0:0:
393,363,213731,6,0,L|400:196,1,140.8,10|8,2:3|2:3,0:0:0:0:
441,103,214260,2,0,P|478:101|516:84,2,70.4,2|8|0,2:0|2:3|2:0,0:0:0:0:
331,28,214790,1,10,2:3:0:0:
331,28,215143,6,0,B|248:16|269:57|193:50,1,140.8,14|8,2:3|2:3,0:0:0:0:
48,14,215672,1,2,2:0:0:0:
48,14,215849,2,0,P|89:51|85:157,1,140.8,10|10,2:3|2:0,0:0:0:0:
97,132,216554,5,14,2:3:0:0:
0,270,216731,1,8,2:0:0:0:
159,223,216907,1,8,2:0:0:0:
64,350,217084,2,0,P|144:320|232:326,1,140.8,10|8,2:3|2:3,0:0:0:0:
321,374,217613,6,0,L|324:336,1,26.399999194336,2|0,3:2|3:0,0:0:0:0:
272,291,217790,2,0,L|268:244,1,26.399999194336,2|0,3:2|3:0,0:0:0:0:
311,185,217966,6,0,P|349:165|445:173,1,132,14|0,2:1|2:0,0:0:0:0:
492,225,218319,1,10,2:0:0:0:
475,56,218496,2,0,P|425:34|293:34,1,176,10|8,2:3|2:3,0:0:0:0:
189,133,219025,2,0,L|178:233,1,88,10|2,2:0|2:0,0:0:0:0:
176,238,219290,1,2,2:0:0:0:
175,255,219378,6,0,P|134:274|43:243,1,132,10|0,2:3|2:0,0:0:0:0:
0,196,219731,1,10,2:0:0:0:
50,349,219907,2,0,P|136:363|217:331,1,176,10|8,2:3|2:3,0:0:0:0:
291,195,220437,2,0,P|269:142|308:118,1,105.6,14|0,2:0|2:0,0:0:0:0:
362,74,220790,6,0,L|203:56,1,132,14|0,2:1|2:0,0:0:0:0:
167,109,221143,1,10,2:0:0:0:
72,0,221319,2,0,L|92:190,1,176,10|8,2:3|2:3,0:0:0:0:
0,317,221849,2,0,P|43:299|109:290,1,88,10|2,2:0|2:0,0:0:0:0:
98,299,222113,1,2,2:0:0:0:
110,311,222202,6,0,P|180:334|242:329,1,132,10|0,2:3|2:0,0:0:0:0:
304,286,222554,1,10,2:0:0:0:
450,364,222731,1,10,2:3:0:0:
450,364,222819,1,10,2:3:0:0:
450,364,222907,2,0,P|394:361|357:340,1,88,8|8,2:3|2:3,0:0:0:0:
257,210,223260,5,10,2:0:0:0:
423,136,223437,1,2,2:0:0:0:
350,9,223613,6,0,L|337:202,1,193.600005908203,14|8,2:3|2:0,0:0:0:0:
133,218,224143,2,0,P|128:160|245:136,1,193.600005908203,10|8,2:3|2:3,0:0:0:0:
401,268,224672,2,0,L|240:250,1,145.200004431152,10|0,2:0|2:0,0:0:0:0:
170,359,225025,6,8,P|257:342|257:253,1,193.600005908203,14|8,2:1|2:2,0:0:0:0:
124,103,225554,1,10,2:3:0:0:
124,103,225643,1,10,2:3:0:0:
124,103,225731,1,14,2:3:0:0:
18,265,225907,1,8,2:0:0:0:
36,58,226084,1,10,2:0:0:0:
144,284,226260,1,8,2:0:0:0:
225,57,226437,5,14,2:1:0:0:
317,203,226613,1,10,2:3:0:0:
491,199,226790,1,10,2:3:0:0:
390,11,226966,5,14,2:3:0:0:
252,142,227143,1,10,2:3:0:0:
67,89,227319,1,10,2:3:0:0:
0,294,227496,5,6,2:3:0:0:
0,294,227672,1,6,2:3:0:0:
148,326,227849,5,10,2:0:0:0:
67,89,228025,1,10,2:0:0:0:
304,7,228201,1,10,2:0:0:0:
384,246,228378,1,10,2:0:0:0:
12,274,228907,6,0,L|4:226,1,30.7999990600586,2|2,2:0|2:0,0:0:0:0:
0,166,229084,6,0,B|44:135|114:155|82:177|147:200|199:168|199:168|170:124|167:76|199:23|199:23|244:41|269:70|276:115|276:115|301:77|354:65|354:65|349:86|340:94,1,616,14|2,2:1|2:0,0:0:0:0:
342,92,230496,6,0,B|300:144|296:245|340:328|453:376|453:376|439:277|476:233|492:253|524:172|511:125,1,616,14|2,2:3|2:0,0:0:0:0:
511,125,231907,6,0,B|443:46|349:90|349:90|281:98|265:39,1,290.400008862305,14|2,2:1|2:0,0:0:0:0:
264,38,232613,6,0,P|327:95|278:214,1,193.600005908203,10|8,2:3|2:3,0:0:0:0:
294,211,233319,6,0,P|228:169|138:184,1,158.399995166016,14|0,2:3|2:0,0:0:0:0:
151,176,233672,1,10,2:3:0:0:
0,262,233849,1,10,2:0:0:0:
151,357,234025,1,10,2:3:0:0:
151,357,234113,2,0,P|228:363|277:331,1,105.599996777344,10|0,2:0|2:0,0:0:0:0:
302,293,234378,5,10,2:0:0:0:
474,383,234554,1,10,2:0:0:0:
494,125,234731,6,0,B|440:175|457:253|457:253|438:307|377:296,1,228.799989526368,14|8,2:3|2:3,0:0:0:0:
228,140,235260,1,10,2:0:0:0:
387,56,235437,1,2,2:0:0:0:
380,136,235613,1,8,2:3:0:0:
242,219,235790,1,10,2:3:0:0:
228,140,235966,1,8,2:0:0:0:
153,318,236143,6,0,P|232:240|343:246,1,228.799989526368,10|8,2:3|2:3,0:0:0:0:
512,348,236672,1,10,2:0:0:0:
495,144,236849,1,2,2:0:0:0:
495,144,236937,1,2,2:0:0:0:
495,144,237025,2,0,L|468:263,1,114.399994763184,8|8,2:3|2:3,0:0:0:0:
353,102,237378,5,10,2:0:0:0:
368,294,237554,5,14,2:3:0:0:
353,102,237731,1,8,2:0:0:0:
280,292,237907,5,10,2:3:0:0:
266,97,238084,1,8,2:0:0:0:
193,291,238260,5,10,2:3:0:0:
179,93,238437,1,8,2:0:0:0:
106,291,238613,5,10,2:3:0:0:
91,90,238790,1,8,2:0:0:0:
10,304,238966,6,0,P|42:215|135:199,1,198.000007553101,6|0,2:3|2:0,0:0:0:0:
159,209,239319,1,10,2:3:0:0:
284,62,239496,1,10,2:0:0:0:
387,323,239672,2,0,P|268:284|254:159,1,264.000010070801,14|8,2:3|2:0,0:0:0:0:
386,23,240202,6,0,L|435:38,1,44,2|0,3:2|3:0,0:0:0:0:
511,89,240378,6,0,L|256:58,1,228.799989526368,14|8,2:1|2:3,0:0:0:0:
39,169,240907,1,10,2:0:0:0:
173,197,241084,2,0,P|227:171|165:22,1,228.799989526368,10|8,2:3|2:3,0:0:0:0:
39,169,241613,1,10,2:0:0:0:
64,18,241790,6,0,L|91:267,1,228.799989526368,14|8,2:3|2:3,0:0:0:0:
274,352,242319,1,10,2:2:0:0:
331,169,242496,1,10,0:3:0:0:
331,169,242584,2,0,P|267:151|184:216,1,171.599992144776,10|8,0:0|0:3,0:0:0:0:
157,382,243025,1,10,2:0:0:0:
44,208,243202,6,0,L|29:75,2,114.399994763184,14|8|0,2:3|2:3|2:3,0:0:0:0:
271,304,243731,1,10,2:0:0:0:
276,142,243907,2,0,P|230:118|153:130,1,114.399994763184,10|0,2:3|2:0,0:0:0:0:
271,304,244260,2,0,P|317:328|394:316,1,114.399994763184,10|8,2:3|2:0,0:0:0:0:
506,167,244613,6,0,L|488:45,1,114.399994763184,10|0,2:3|0:0,0:0:0:0:
347,201,244966,1,10,2:3:0:0:
372,26,245143,1,10,2:2:0:0:
458,241,245319,1,10,2:3:0:0:
458,241,245407,1,10,2:3:0:0:
458,241,245496,1,8,0:3:0:0:
489,53,245672,1,8,0:3:0:0:
348,227,245849,1,10,2:0:0:0:
222,7,246025,6,0,L|237:274,1,228.799989526368,14|8,2:3|2:3,0:0:0:0:
139,384,246554,1,10,2:0:0:0:
0,229,246731,1,2,2:0:0:0:
39,159,246907,1,8,2:3:0:0:
145,271,247084,1,10,2:3:0:0:
73,307,247260,1,8,2:0:0:0:
110,102,247437,6,0,B|232:75|200:163|326:144,1,228.799989526368,10|8,2:3|2:3,0:0:0:0:
505,8,247966,1,10,2:0:0:0:
490,214,248143,1,2,2:0:0:0:
490,214,248231,1,2,2:0:0:0:
490,214,248319,2,0,L|440:111,1,114.399994763184,8|8,2:3|2:3,0:0:0:0:
311,292,248672,1,10,2:0:0:0:
512,299,248849,6,0,L|276:259,1,191.400005841065,14|0,2:3|0:0,0:0:0:0:
311,292,249202,5,10,2:3:0:0:
207,127,249378,1,8,2:0:0:0:
220,342,249554,5,10,2:3:0:0:
207,127,249731,1,8,2:0:0:0:
116,337,249907,5,10,2:3:0:0:
207,127,250084,1,8,2:0:0:0:
10,262,250260,6,0,P|108:243|208:241,1,200.639997550781,6|0,2:3|2:0,0:0:0:0:
226,253,250613,1,10,2:3:0:0:
338,118,250790,1,10,2:0:0:0:
402,331,250966,2,0,L|379:32,1,281.6,14|8,2:3|2:0,0:0:0:0:
125,0,251496,5,8,2:0:0:0:
125,0,251584,2,0,P|126:43|112:85,1,88,8|8,2:0|0:0,0:0:0:0:
95,104,251849,6,0,P|8:128|8:218,1,193.600005908203,14|8,2:3|2:2,0:0:0:0:
154,342,252378,2,0,P|130:302|84:301,1,96.8000029541017,10|0,2:3|2:0,0:0:0:0:
189,183,252731,2,0,P|221:150|266:162,1,96.8000029541017,10|8,2:3|2:0,0:0:0:0:
404,283,253084,5,10,2:3:0:0:
404,283,253260,2,0,L|254:263,1,145.200004431152,10|0,2:3|2:0,0:0:0:0:
245,269,253613,2,0,P|224:311|234:358,1,96.8000029541017,10|8,2:0|2:3,0:0:0:0:
193,164,253966,2,0,P|145:166|110:198,1,96.8000029541017,2|8,2:0|2:3,0:0:0:0:
48,343,254319,1,10,2:0:0:0:
7,135,254672,6,0,B|118:114|92:180|193:164,1,193.600005908203,14|8,2:3|2:0,0:0:0:0:
366,198,255202,2,0,P|378:151|373:97,1,96.8000029541017,10|0,2:3|2:0,0:0:0:0:
193,164,255554,2,0,P|189:212|202:258,1,96.8000029541017,10|8,2:3|2:0,0:0:0:0:
374,351,255907,5,10,2:3:0:0:
374,351,256084,2,0,P|426:330|487:327,1,96.8000029541017,10|0,2:3|2:0,0:0:0:0:
489,307,256349,2,0,P|493:268|487:230,1,48.4000014770508,2|8,2:0|2:0,0:0:0:0:
456,183,256525,1,2,2:0:0:0:
456,183,256613,2,0,P|407:156|346:154,1,96.8000029541017,10|0,2:3|2:0,0:0:0:0:
339,160,256878,2,0,P|319:160|286:149,1,48.4000014770508,2|8,2:0|2:3,0:0:0:0:
233,89,257054,1,2,2:0:0:0:
233,89,257143,2,0,P|174:53|79:65,1,145.200004431152,10|0,2:0|2:0,0:0:0:0:
37,3,257496,6,0,L|66:217,1,211.199993554688,14|8,2:2|2:0,0:0:0:0:
220,333,258025,2,0,B|232:311|247:266|240:212|206:185|206:185|191:213|192:233|201:251,1,211.199993554688,10|8,2:3|2:3,0:0:0:0:
351,349,258554,2,0,P|401:363|453:344,1,105.599996777344,10|0,2:0|2:0,0:0:0:0:
512,169,258907,6,0,P|433:161|419:72,1,158.399995166016,10|0,2:3|2:0,0:0:0:0:
410,94,259260,1,10,2:0:0:0:
276,225,259437,2,0,P|322:206|326:155,1,105.599996777344,10|0,2:3|2:0,0:0:0:0:
230,72,259790,2,0,P|183:53|179:2,1,105.599996777344,10|8,2:3|2:0,0:0:0:0:
55,173,260143,5,10,2:3:0:0:
55,173,260231,1,10,2:3:0:0:
55,173,260319,2,0,B|33:175|14:161|15:134|35:119|68:120|118:152|91:167|127:194|194:191,1,211.199993554688,14|8,2:3|2:0,0:0:0:0:
401,150,260849,1,10,2:3:0:0:
236,294,261025,1,2,2:0:0:0:
224,91,261202,1,10,2:3:0:0:
424,277,261378,5,10,2:0:0:0:
175,190,261554,1,10,2:0:0:0:
343,17,261731,6,0,P|327:94|320:173,1,158.399995166016,14|0,2:3|2:0,0:0:0:0:
320,173,262084,1,10,2:3:0:0:
476,344,262260,2,0,P|464:241|438:147,1,176,6|8,2:3|2:3,0:0:0:0:
346,363,262790,1,10,2:0:0:0:
96,234,263143,6,0,B|52:167|79:39|196:25|196:25|214:78|180:112,1,369.599988720703,14|2,2:1|2:0,0:0:0:0:
180,112,264554,6,0,B|200:120|200:120|216:137|216:137|239:147,1,70.4,2|0,2:0|2:0,0:0:0:0:
330,264,264907,2,0,L|352:188,1,70.4,2|0,2:0|2:0,0:0:0:0:
475,113,265260,1,2,2:0:0:0:
475,113,265349,1,2,2:0:0:0:
475,113,265437,1,2,2:0:0:0:
475,113,265525,1,2,2:0:0:0:
475,113,265613,1,2,2:0:0:0:
475,113,265702,1,2,2:0:0:0:
475,113,265790,1,2,2:0:0:0:
475,113,265878,1,2,2:0:0:0:
475,113,265966,6,0,P|423:117|379:92,1,88,14|2,2:1|2:0,0:0:0:0:
265,11,266319,1,10,2:0:0:0:
206,182,266496,2,0,P|245:163|271:128,1,88,2|0,2:0|2:0,0:0:0:0:
89,16,266849,5,10,2:3:0:0:
85,102,267025,1,10,2:0:0:0:
142,261,267202,2,0,P|112:228|101:186,1,88,2|8,2:0|2:3,0:0:0:0:
248,44,267554,5,2,2:0:0:0:
338,173,267731,1,10,2:0:0:0:
430,66,267907,2,0,P|357:113|271:128,1,176,10|8,2:3|2:3,0:0:0:0:
442,290,268437,5,10,2:0:0:0:
442,290,268525,1,2,2:0:0:0:
442,290,268613,1,2,2:0:0:0:
442,290,268702,1,2,2:0:0:0:
442,290,268790,2,0,P|446:241|463:199,1,88,14|2,2:3|2:0,0:0:0:0:
372,370,269143,1,10,2:0:0:0:
271,288,269319,2,0,P|227:266|178:266,1,88,10|0,2:3|2:0,0:0:0:0:
348,126,269672,2,0,P|392:104|441:104,1,88,10|8,2:3|2:0,0:0:0:0:
170,127,270025,5,10,2:3:0:0:
170,127,270113,1,10,2:3:0:0:
170,127,270202,2,0,L|143:33,3,88,10|8|8|8,2:3|2:3|2:0|2:3,0:0:0:0:
51,5,270907,5,2,2:0:0:0:
1,118,271084,1,10,2:3:0:0:
85,275,271260,1,10,2:0:0:0:
208,263,271437,1,2,2:0:0:0:
330,356,271613,5,14,2:3:0:0:
263,169,271790,1,8,2:3:0:0:
434,288,271966,1,10,2:0:0:0:
280,144,272143,1,8,2:3:0:0:
491,177,272319,1,8,2:0:0:0:
265,54,272496,5,10,2:3:0:0:
347,265,272672,1,10,2:0:0:0:
458,19,272849,1,14,2:1:0:0:
256,192,272937,12,2,274437,2:0:0:0:
