osu file format v14

[General]
AudioFilename: audio.mp3
AudioLeadIn: 0
PreviewTime: 47706
Countdown: 0
SampleSet: Soft
StackLeniency: 0.7
Mode: 1
LetterboxInBreaks: 0
WidescreenStoryboard: 0

[Editor]
DistanceSpacing: 1
BeatDivisor: 4
GridSize: 4
TimelineZoom: 1

[Metadata]
Title:Dango Daikazoku (TV Size)
TitleUnicode:だんご大家族 (TV Size)
Artist:Chata
ArtistUnicode:茶太
Creator:Faputa
Version:Muzukashii
Source:CLANNAD
Tags:クラナド ed ending Jun Maeda
BeatmapID:1788424
BeatmapSetID:855968

[Difficulty]
HPDrainRate:6
CircleSize:6
OverallDifficulty:4
ApproachRate:4
SliderMultiplier:1.4
SliderTickRate:1

[Events]
//Background and Video events
0,0,"Dango.jpg",0,100
Video,0,"Video_1_1.mp4"
//Break Periods
//Storyboard Layer 0 (Background)
//Storyboard Layer 1 (Fail)
//Storyboard Layer 2 (Pass)
//Storyboard Layer 3 (Foreground)
//Storyboard Sound Samples

[TimingPoints]
906,600,4,2,0,40,1,0
9906,-100,4,2,0,45,0,0
48756,-100,4,2,2,60,0,0
48906,-100,4,2,2,60,0,1
49056,-100,4,2,0,50,0,1
49956,-100,4,2,2,60,0,1
50256,-100,4,2,0,50,0,1
58356,-100,4,2,2,60,0,1
58656,-100,4,2,0,50,0,1
59556,-100,4,2,2,60,0,1
59856,-100,4,2,0,50,0,1
63306,-100,4,2,0,45,0,0
67956,-100,4,2,2,60,0,0
68106,-100,4,2,2,60,0,1
68256,-100,4,2,0,50,0,1
69156,-100,4,2,2,60,0,1
69456,-100,4,2,0,50,0,1
77556,-100,4,2,2,60,0,1
77856,-100,4,2,0,50,0,1
78756,-100,4,2,2,60,0,1
79056,-100,4,2,0,50,0,1
82506,-100,4,2,0,40,0,0
83106,-100,4,2,0,30,0,0

[HitObjects]
256,194,906,5,0,0:0:0:0:
256,194,1206,1,0,0:0:0:0:
256,194,1506,1,8,0:0:0:0:
256,194,2106,1,0,0:0:0:0:
256,194,2706,1,8,0:0:0:0:
256,194,3306,1,0,0:0:0:0:
256,194,3906,1,8,0:0:0:0:
256,194,4506,1,8,0:0:0:0:
256,194,5106,1,0,0:0:0:0:
256,194,5706,1,8,0:0:0:0:
256,194,6006,1,0,0:0:0:0:
256,194,6306,1,8,0:0:0:0:
256,194,6906,1,0,0:0:0:0:
256,194,7506,1,8,0:0:0:0:
256,194,7806,1,8,0:0:0:0:
256,194,8106,1,0,0:0:0:0:
256,194,10506,1,0,0:0:0:0:
256,194,10806,1,0,0:0:0:0:
256,194,11106,1,8,0:0:0:0:
256,194,11706,1,8,0:0:0:0:
256,194,12306,1,0,0:0:0:0:
256,194,12906,1,0,0:0:0:0:
256,194,13506,1,8,0:0:0:0:
256,194,14106,1,8,0:0:0:0:
256,194,14706,1,0,0:0:0:0:
256,194,15306,1,0,0:0:0:0:
256,194,15606,1,0,0:0:0:0:
256,194,15906,1,8,0:0:0:0:
256,194,16506,1,8,0:0:0:0:
256,194,17106,1,0,0:0:0:0:
256,194,17706,1,0,0:0:0:0:
256,194,18306,1,8,0:0:0:0:
256,194,18906,1,0,0:0:0:0:
256,194,20106,1,0,0:0:0:0:
256,194,20406,1,0,0:0:0:0:
256,194,20706,1,8,0:0:0:0:
256,194,21306,1,0,0:0:0:0:
256,194,21906,1,0,0:0:0:0:
256,194,22506,1,8,0:0:0:0:
256,194,23106,1,8,0:0:0:0:
256,194,23706,1,8,0:0:0:0:
256,194,24306,1,0,0:0:0:0:
256,194,24906,1,0,0:0:0:0:
256,194,25206,1,0,0:0:0:0:
256,194,25506,1,8,0:0:0:0:
256,194,26106,1,8,0:0:0:0:
256,194,26706,1,8,0:0:0:0:
256,194,27306,1,0,0:0:0:0:
256,194,28506,1,0,0:0:0:0:
256,194,29706,1,8,0:0:0:0:
256,194,30006,1,8,0:0:0:0:
256,194,30306,1,8,0:0:0:0:
256,194,30606,1,0,0:0:0:0:
256,194,31206,1,0,0:0:0:0:
256,194,31506,1,8,0:0:0:0:
256,194,31806,1,8,0:0:0:0:
256,194,32106,1,0,0:0:0:0:
256,194,32706,1,0,0:0:0:0:
256,194,33306,1,8,0:0:0:0:
256,194,33906,1,8,0:0:0:0:
256,194,34506,1,0,0:0:0:0:
256,194,34806,1,0,0:0:0:0:
256,194,35106,1,8,0:0:0:0:
256,194,35406,1,0,0:0:0:0:
256,194,36006,1,8,0:0:0:0:
256,194,36306,1,8,0:0:0:0:
256,194,36606,1,0,0:0:0:0:
256,194,36906,1,8,0:0:0:0:
256,194,37506,1,0,0:0:0:0:
256,194,38106,1,0,0:0:0:0:
256,194,38706,1,8,0:0:0:0:
256,194,39306,1,0,0:0:0:0:
256,194,39606,1,0,0:0:0:0:
256,194,39906,1,8,0:0:0:0:
256,194,40206,1,0,0:0:0:0:
256,194,40806,1,8,0:0:0:0:
256,194,41106,1,0,0:0:0:0:
256,194,41406,1,8,0:0:0:0:
256,194,41706,1,8,0:0:0:0:
256,194,42306,1,8,0:0:0:0:
256,194,42906,1,0,0:0:0:0:
256,194,43506,1,0,0:0:0:0:
256,194,44106,1,8,0:0:0:0:
256,194,45006,1,8,0:0:0:0:
256,194,45306,1,0,0:0:0:0:
256,194,46206,1,0,0:0:0:0:
256,194,46506,1,8,0:0:0:0:
256,194,46806,1,0,0:0:0:0:
256,194,47106,1,8,0:0:0:0:
256,194,47406,1,0,0:0:0:0:
256,194,47706,1,0,0:0:0:0:
256,194,48006,1,0,0:0:0:0:
256,194,48306,1,8,0:0:0:0:
256,194,48606,1,8,0:0:0:0:
256,194,48906,1,4,0:0:0:0:
256,194,49506,1,0,0:0:0:0:
256,194,49806,1,0,0:0:0:0:
256,194,50106,1,14,0:0:0:0:
256,194,50706,1,8,0:0:0:0:
256,194,51006,1,0,0:0:0:0:
256,194,51306,1,8,0:0:0:0:
256,194,51606,1,0,0:0:0:0:
256,194,51906,1,8,0:0:0:0:
256,194,52506,1,8,0:0:0:0:
256,194,52806,1,0,0:0:0:0:
256,194,53106,1,8,0:0:0:0:
256,194,53406,1,8,0:0:0:0:
256,194,53706,1,0,0:0:0:0:
256,194,54306,1,0,0:0:0:0:
256,194,54606,1,0,0:0:0:0:
256,194,55206,1,8,0:0:0:0:
256,194,55506,1,0,0:0:0:0:
256,194,55806,1,8,0:0:0:0:
256,194,56106,1,0,0:0:0:0:
256,194,57306,1,0,0:0:0:0:
256,194,57606,1,0,0:0:0:0:
256,194,57906,1,8,0:0:0:0:
256,194,58206,1,8,0:0:0:0:
256,194,58506,1,4,0:0:0:0:
256,194,59106,1,0,0:0:0:0:
256,194,59406,1,0,0:0:0:0:
256,194,59706,1,14,0:0:0:0:
256,194,60306,1,8,0:0:0:0:
256,194,60606,1,0,0:0:0:0:
256,194,60906,1,8,0:0:0:0:
256,194,61206,1,0,0:0:0:0:
256,194,61506,1,8,0:0:0:0:
256,194,62106,1,8,0:0:0:0:
256,194,62706,1,0,0:0:0:0:
256,194,63306,1,0,0:0:0:0:
256,194,64206,1,0,0:0:0:0:
256,194,64506,1,8,0:0:0:0:
256,194,65106,1,8,0:0:0:0:
256,194,65406,1,0,0:0:0:0:
256,194,66006,1,8,0:0:0:0:
256,194,66906,1,0,0:0:0:0:
256,194,67206,1,0,0:0:0:0:
256,194,67506,1,8,0:0:0:0:
256,194,67806,1,8,0:0:0:0:
256,194,68106,1,4,0:0:0:0:
256,194,68706,1,0,0:0:0:0:
256,194,69006,1,0,0:0:0:0:
256,194,69306,1,14,0:0:0:0:
256,194,69906,1,0,0:0:0:0:
256,194,70206,1,8,0:0:0:0:
256,194,70506,1,8,0:0:0:0:
345,186,70806,1,0,0:0:0:0:
256,194,71106,1,8,0:0:0:0:
256,194,71706,1,0,0:0:0:0:
256,194,72006,1,0,0:0:0:0:
256,194,72306,1,8,0:0:0:0:
256,194,72606,1,8,0:0:0:0:
256,194,72906,1,0,0:0:0:0:
256,194,73506,1,0,0:0:0:0:
256,194,73806,1,0,0:0:0:0:
256,194,74406,1,8,0:0:0:0:
256,194,74706,1,0,0:0:0:0:
256,194,75006,1,8,0:0:0:0:
256,194,75306,1,0,0:0:0:0:
256,194,75906,1,8,0:0:0:0:
256,194,76506,1,0,0:0:0:0:
256,194,76806,1,8,0:0:0:0:
256,194,77106,1,8,0:0:0:0:
256,194,77406,1,8,0:0:0:0:
256,194,77706,1,4,0:0:0:0:
256,194,78306,1,0,0:0:0:0:
256,194,78606,1,0,0:0:0:0:
256,194,78906,1,14,0:0:0:0:
256,194,79506,1,0,0:0:0:0:
256,194,79806,1,8,0:0:0:0:
256,194,80106,1,8,0:0:0:0:
256,194,80406,1,0,0:0:0:0:
256,194,80706,1,8,0:0:0:0:
256,194,81306,1,8,0:0:0:0:
256,194,81906,1,0,0:0:0:0:
256,194,82506,1,0,0:0:0:0:
256,194,83706,1,8,0:0:0:0:
256,194,84306,1,8,0:0:0:0:
256,194,84606,1,0,0:0:0:0:
256,194,85206,1,8,0:0:0:0:
