osu file format v14

[General]
AudioFilename: audio.mp3
AudioLeadIn: 0
PreviewTime: 46726
Countdown: 0
SampleSet: Soft
StackLeniency: 0.7
Mode: 0
LetterboxInBreaks: 0
WidescreenStoryboard: 0

[Editor]
Bookmarks: 29026,47026,48226,84226,85426
DistanceSpacing: 0.9
BeatDivisor: 4
GridSize: 4
TimelineZoom: 1

[Metadata]
Title:Dango Daikazoku (TV Size)
TitleUnicode:だんご大家族 (TV Size)
Artist:Chata
ArtistUnicode:茶太
Creator:DT Best Mod
Version:Great Dango Family
Source:CLANNAD
Tags:ending ed 1 Jun Maeda Takumaru Nagisa Furukawa Okazaki 岡崎渚 古河 麻枝 准 the great family after story visual novel vn japanese anime folk video game
BeatmapID:3822437
BeatmapSetID:1859490

[Difficulty]
HPDrainRate:4.5
CircleSize:7
OverallDifficulty:6
ApproachRate:7
SliderMultiplier:1.3
SliderTickRate:1

[Events]
//Background and Video events
0,0,"dango bg.jpg",0,0
//Break Periods
//Storyboard Layer 0 (Background)
//Storyboard Layer 1 (Fail)
//Storyboard Layer 2 (Pass)
//Storyboard Layer 3 (Foreground)
//Storyboard Layer 4 (Overlay)
//Storyboard Sound Samples

[TimingPoints]
226,600,4,2,1,30,1,0
226,-133.333333333333,4,2,1,30,0,0
1426,-133.333333333333,4,2,1,30,0,0
6226,-133.333333333333,4,2,1,30,0,0
6676,-133.333333333333,4,2,1,5,0,0
6826,-133.333333333333,4,2,1,30,0,0
9826,-117.647058823529,4,2,1,30,0,0
11026,-117.647058823529,4,2,1,10,0,0
11626,-117.647058823529,4,2,1,30,0,0
12076,-117.647058823529,4,2,1,5,0,0
12226,-117.647058823529,4,2,1,30,0,0
12676,-117.647058823529,4,2,1,5,0,0
12826,-117.647058823529,4,2,1,30,0,0
13276,-117.647058823529,4,2,1,5,0,0
13426,-117.647058823529,4,2,1,25,0,0
13876,-117.647058823529,4,2,1,5,0,0
14026,-117.647058823529,4,2,1,30,0,0
15526,-117.647058823529,4,2,1,5,0,0
15826,-117.647058823529,4,2,1,25,0,0
16276,-117.647058823529,4,2,1,5,0,0
16426,-117.647058823529,4,2,1,30,0,0
16876,-117.647058823529,4,2,1,5,0,0
17026,-117.647058823529,4,2,1,30,0,0
17476,-117.647058823529,4,2,1,5,0,0
17626,-117.647058823529,4,2,1,30,0,0
18076,-117.647058823529,4,2,1,5,0,0
18226,-117.647058823529,4,2,1,25,0,0
18826,-117.647058823529,4,2,1,5,0,0
19426,-117.647058823529,4,2,1,30,0,0
20326,-117.647058823529,4,2,1,5,0,0
20626,-117.647058823529,4,2,1,25,0,0
21076,-117.647058823529,4,2,1,5,0,0
21226,-117.647058823529,4,2,1,30,0,0
22276,-117.647058823529,4,2,1,5,0,0
22426,-117.647058823529,4,2,1,25,0,0
23476,-117.647058823529,4,2,1,5,0,0
23626,-117.647058823529,4,2,1,30,0,0
25426,-117.647058823529,4,2,1,25,0,0
25876,-117.647058823529,4,2,1,5,0,0
26026,-117.647058823529,4,2,1,30,0,0
26476,-117.647058823529,4,2,1,5,0,0
26626,-117.647058823529,4,2,1,25,0,0
26926,-117.647058823529,4,2,1,5,0,0
27226,-117.647058823529,4,2,1,25,0,0
27976,-117.647058823529,4,2,1,5,0,0
29026,-117.647058823529,4,2,1,35,0,0
29626,-111.111111111111,4,2,1,30,0,0
30526,-111.111111111111,4,2,1,35,0,0
31575,-111.111111111111,4,2,1,5,0,0
32026,-111.111111111111,4,2,1,35,0,0
32475,-111.111111111111,4,2,1,5,0,0
32626,-111.111111111111,4,2,1,30,0,0
33075,-111.111111111111,4,2,1,5,0,0
33226,-111.111111111111,4,2,1,35,0,0
35626,-111.111111111111,4,2,1,35,0,0
36826,-333.333333333333,4,2,1,35,0,0
37425,-333.333333333333,4,2,1,10,0,0
38626,-333.333333333333,4,2,1,35,0,0
39826,-111.111111111111,4,2,1,30,0,0
39975,-111.111111111111,4,2,1,5,0,0
40126,-111.111111111111,4,2,1,35,0,0
42075,-111.111111111111,4,2,1,5,0,0
42226,-111.111111111111,4,2,1,30,0,0
43275,-111.111111111111,4,2,1,5,0,0
43426,-111.111111111111,4,2,1,35,0,0
44175,-111.111111111111,4,2,1,5,0,0
44326,-111.111111111111,4,2,1,35,0,0
45375,-111.111111111111,4,2,1,5,0,0
45526,-333.333333333333,4,2,1,35,0,0
45825,-333.333333333333,4,2,1,15,0,0
47026,-100,4,2,1,35,0,0
48226,-66.6666666666667,4,2,2,55,0,1
48676,-66.6666666666667,4,2,1,5,0,1
48826,-66.6666666666667,4,2,1,55,0,1
49726,-100,4,2,1,55,0,1
49876,-100,4,2,1,5,0,1
50026,-100,4,2,1,55,0,1
50176,-100,4,2,1,5,0,1
50326,-100,4,2,1,55,0,1
50476,-100,4,2,1,5,0,1
50626,-100,4,2,1,55,0,1
51676,-100,4,2,1,5,0,1
51826,-100,4,2,1,55,0,1
53476,-100,4,2,1,5,0,1
53626,-100,4,2,1,55,0,1
54676,-100,4,2,1,5,0,1
54826,-100,4,2,1,55,0,1
54976,-100,4,2,1,5,0,1
55126,-100,4,2,1,55,0,1
55276,-100,4,2,1,5,0,1
55426,-133.333333333333,4,2,1,55,0,1
56326,-133.333333333333,4,2,1,5,0,1
56626,-133.333333333333,4,2,1,55,0,1
57826,-66.6666666666667,4,2,2,55,0,1
58276,-66.6666666666667,4,2,1,5,0,1
58426,-66.6666666666667,4,2,1,55,0,1
59326,-100,4,2,1,55,0,1
59476,-100,4,2,1,5,0,1
59626,-100,4,2,1,55,0,1
59776,-100,4,2,1,5,0,1
59926,-100,4,2,1,55,0,1
60076,-100,4,2,1,5,0,1
60226,-100,4,2,1,55,0,1
60376,-100,4,2,1,5,0,1
60526,-100,4,2,1,55,0,1
60676,-100,4,2,1,5,0,1
60826,-100,4,2,1,55,0,1
60976,-100,4,2,1,5,0,1
61426,-111.111111111111,4,2,1,55,0,1
61875,-111.111111111111,4,2,1,5,0,1
62026,-111.111111111111,4,2,1,55,0,1
62475,-111.111111111111,4,2,1,5,0,1
62626,-333.333333333333,4,2,1,55,0,1
62925,-333.333333333333,4,2,1,20,0,1
63526,-333.333333333333,4,2,1,55,0,1
63826,-133.333333333333,4,2,1,60,0,1
64276,-133.333333333333,4,2,1,5,0,1
64426,-133.333333333333,4,2,1,60,0,1
65176,-133.333333333333,4,2,1,5,0,1
65326,-133.333333333333,4,2,1,60,0,1
65926,-133.333333333333,4,2,1,5,0,1
66226,-133.333333333333,4,2,1,60,0,1
67426,-66.6666666666667,4,2,2,60,0,1
67876,-66.6666666666667,4,2,1,5,0,1
68026,-66.6666666666667,4,2,1,60,0,1
68926,-100,4,2,1,60,0,1
69076,-100,4,2,1,5,0,1
69226,-100,4,2,1,60,0,1
69376,-100,4,2,1,5,0,1
69526,-100,4,2,1,60,0,1
70426,-100,4,2,1,60,0,1
70876,-100,4,2,1,5,0,1
71026,-100,4,2,1,60,0,1
72676,-100,4,2,1,5,0,1
72826,-100,4,2,1,60,0,1
73576,-100,4,2,1,5,0,1
73726,-100,4,2,1,60,0,1
74926,-100,4,2,1,5,0,1
75226,-133.333333333333,4,2,1,60,0,1
75676,-133.333333333333,4,2,1,5,0,1
75826,-133.333333333333,4,2,1,60,0,1
77026,-66.6666666666667,4,2,2,60,0,1
77476,-66.6666666666667,4,2,1,5,0,1
77626,-66.6666666666667,4,2,1,60,0,1
78526,-100,4,2,1,60,0,1
78676,-100,4,2,1,5,0,1
78826,-100,4,2,1,60,0,1
78976,-100,4,2,1,5,0,1
79126,-100,4,2,1,60,0,1
79576,-100,4,2,1,5,0,1
79726,-100,4,2,1,60,0,1
79876,-100,4,2,1,5,0,1
80026,-100,4,2,1,60,0,1
80626,-133.333333333333,4,2,1,30,0,0
81826,-133.333333333333,4,2,1,30,0,0
83026,-133.333333333333,4,2,1,25,0,0
85426,-133.333333333333,4,2,1,5,0,0

[Colours]
Combo1 : 214,255,176
Combo2 : 194,235,243
Combo3 : 245,250,156
Combo4 : 255,207,196

[HitObjects]
138,42,226,6,0,P|151:60|166:45,2,48.750001859665,2|0|0,2:0|2:0|2:0,2:0:0:0:
56,109,1426,2,0,B|66:79|90:71|90:71|100:99|120:105,1,97.50000371933,2|0,2:0|2:0,2:0:0:0:
172,104,2626,2,0,B|172:132|148:151|148:151|169:162|177:183,1,97.50000371933,2|0,2:0|2:0,2:0:0:0:
130,199,3826,2,0,P|182:204|220:174,1,97.50000371933,2|0,2:0|2:0,2:0:0:0:
236,125,5026,6,0,P|221:105|219:81,2,48.750001859665,2|0|0,2:0|2:0|2:0,2:0:0:0:
213,207,6226,2,0,P|236:174|274:170,1,73.1250027894975,2|0,2:0|2:0,2:0:0:0:
274,169,6826,1,2,2:0:0:0:
262,216,7126,1,0,2:0:0:0:
250,263,7426,1,2,2:0:0:0:
506,344,9826,6,0,P|492:334|454:330,1,55.2500010538101,2|0,2:0|2:0,2:0:0:0:
423,372,10426,2,0,B|416:310|448:326|436:265,1,110.50000210762,0|8,2:0|2:0,2:0:0:0:
352,192,11626,2,0,P|324:178|273:191,1,82.8750015807152,0|0,2:0|2:0,2:0:0:0:
268,197,12226,2,0,P|269:229|306:266,1,82.8750015807152,2|0,2:0|2:0,2:0:0:0:
311,270,12826,2,0,P|293:297|243:311,1,82.8750015807152,0|0,2:0|2:0,2:0:0:0:
235,313,13426,2,0,P|266:315|303:352,1,82.8750015807152,8|0,2:0|2:0,2:0:0:0:
305,360,14026,1,0,2:0:0:0:
195,358,14626,5,2,2:0:0:0:
140,351,14926,1,0,2:0:0:0:
84,343,15226,2,0,P|84:308|92:288,1,55.2500010538101,0|0,2:0|2:0,2:0:0:0:
133,235,15826,2,0,P|136:197|112:154,1,82.8750015807152,8|0,2:0|2:0,2:0:0:0:
106,153,16426,2,0,P|128:140|175:170,1,82.8750015807152,0|0,2:0|2:0,2:0:0:0:
179,177,17026,2,0,P|182:139|158:96,1,82.8750015807152,2|0,2:0|2:0,2:0:0:0:
154,92,17626,2,0,P|176:79|223:109,1,82.8750015807152,0|0,2:0|2:0,2:0:0:0:
227,116,18226,2,0,B|244:127|264:124|264:124|288:92|321:83,1,110.50000210762,8|0,2:0|2:0,2:0:0:0:
390,65,19426,5,2,2:0:0:0:
328,81,19726,1,0,2:0:0:0:
399,64,20026,2,0,P|425:71|443:96,1,55.2500010538101,0|0,2:0|2:0,2:0:0:0:
502,118,20626,2,0,P|469:155|433:164,1,82.8750015807152,8|0,2:0|2:0,2:0:0:0:
427,164,21226,1,0,2:0:0:0:
427,164,21826,2,0,B|403:178|383:178|383:178|378:196|360:213,1,82.8750015807152,2|0,2:0|2:0,2:0:0:0:
359,219,22426,1,0,2:0:0:0:
359,219,23026,2,0,B|355:236|335:243|335:243|310:235|285:237,1,82.8750015807152,8|0,2:0|2:0,2:0:0:0:
277,239,23626,1,0,2:0:0:0:
172,294,24226,6,0,P|141:302|109:292,2,55.2500010538101,2|0|0,2:0|2:0|2:0,2:0:0:0:
163,238,25426,2,0,P|217:255|229:288,1,82.8750015807152,8|0,2:0|2:0,2:0:0:0:
232,285,26026,2,0,P|272:279|296:247,1,82.8750015807152,0|0,2:0|2:0,2:0:0:0:
300,236,26626,2,0,P|321:263|329:288,1,55.2500010538101,8|0,2:0|2:0,2:0:0:0:
335,334,27226,1,0,2:0:0:0:
335,334,27826,6,0,L|297:337,1,27.6250005269051,8|0,2:0|2:0,2:0:0:0:
13,371,29026,5,2,2:0:0:0:
11,312,29326,1,0,2:0:0:0:
65,334,29626,2,0,P|101:328|121:311,2,58.4999982147217,2|0|8,2:0|2:0|2:0,2:0:0:0:
71,275,30526,1,0,2:0:0:0:
61,217,30826,2,0,P|97:222|117:239,1,58.4999982147217,0|0,2:0|2:0,2:0:0:0:
152,308,31426,2,0,P|148:290|152:272,1,29.2499991073609,2|0,2:0|2:0,2:0:0:0:
203,360,32026,2,0,P|212:323|197:268,1,87.7499973220826,0|0,2:0|2:0,2:0:0:0:
196,268,32626,2,0,P|185:225|194:183,1,87.7499973220826,8|0,2:0|2:0,2:0:0:0:
200,177,33226,1,0,2:0:0:0:
316,179,33826,5,2,2:0:0:0:
299,122,34126,1,0,2:0:0:0:
280,66,34426,1,0,2:0:0:0:
253,13,34726,2,0,P|218:12|193:27,2,58.4999982147217,0|2|0,2:0|2:0|2:0,2:0:0:0:
309,28,35626,1,0,2:0:0:0:
363,7,35926,1,0,2:0:0:0:
417,28,36226,1,2,2:0:0:0:
501,4,36826,6,0,P|490:21|476:35,2,38.9999988098145,0|2|2,2:0|2:0|2:0,2:0:0:0:
510,71,38626,5,2,2:0:0:0:
504,129,38926,1,0,2:0:0:0:
479,182,39226,1,2,2:0:0:0:
436,221,39526,1,0,2:0:0:0:
490,243,39826,2,0,P|512:241|524:237,1,29.2499991073609,8|0,2:0|2:0,2:0:0:0:
440,278,40126,1,0,2:0:0:0:
396,317,40426,2,0,P|379:342|376:372,1,58.4999982147217,0|0,2:0|2:0,2:0:0:0:
434,359,41026,1,2,2:0:0:0:
336,307,41626,6,0,B|280:300|294:329|240:318,1,87.7499973220826,0|0,2:0|2:0,2:0:0:0:
242,319,42226,1,8,2:0:0:0:
127,371,42826,2,0,B|109:364|101:344|101:344|123:327|121:298,1,87.7499973220826,0|0,2:0|2:0,2:0:0:0:
122,292,43426,2,0,B|142:316|177:317|177:317|192:274|238:262,1,146.249995536804,2|0,2:0|2:0,2:0:0:0:
244,261,44326,1,0,2:0:0:0:
306,294,44626,2,0,B|316:204|269:227|287:139,1,146.249995536804,2|0,2:0|2:0,2:0:0:0:
289,141,45526,1,2,0:0:0:0:
344,119,45826,6,0,P|343:128|340:138,3,19.4999994049072,2|0|0|0,2:0|2:0|2:0|2:0,2:0:0:0:
333,95,47026,6,0,P|324:134|326:159,1,65,2|0,2:0|2:0,2:0:0:0:
353,217,47626,1,2,2:0:0:0:
408,250,47926,1,0,2:0:0:0:
470,234,48226,6,8,B|451:273|454:302|454:302|419:296|373:313,1,146.250005578995,8|0,2:0|2:0,2:0:0:0:
369,317,48826,1,0,2:0:0:0:
294,379,49126,1,0,2:0:0:0:
207,333,49426,1,10,2:0:0:0:
122,380,49726,6,0,P|114:360|115:342,1,32.5,0|0,2:0|2:0,2:0:0:0:
127,302,50026,2,0,P|135:282|134:264,1,32.5,0|0,2:0|2:0,2:0:0:0:
121,224,50326,2,0,P|113:204|114:186,1,32.5,0|0,2:0|2:0,2:0:0:0:
122,145,50626,2,0,B|138:116|122:90|122:90|116:93|110:102,1,65,8|0,2:0|2:0,2:0:0:0:
23,146,51226,2,0,B|1:106|23:71|23:71|31:75|39:87,1,97.5,0|0,2:0|2:0,2:0:0:0:
73,120,51826,1,10,2:0:0:0:
17,197,52126,6,0,P|10:254|19:270,1,65,0|0,2:0|2:0,2:0:0:0:
86,228,52726,1,0,2:0:0:0:
97,309,53026,2,0,B|69:333|35:342|35:342|41:358|62:368,1,97.5,8|0,2:0|2:0,2:0:0:0:
99,372,53626,1,0,2:0:0:0:
155,292,53926,1,0,2:0:0:0:
207,365,54226,1,8,2:0:0:0:
326,383,54526,2,0,P|334:363|333:345,1,32.5,0|0,2:0|2:0,2:0:0:0:
321,305,54826,2,0,P|313:285|314:267,1,32.5,2|0,2:0|2:0,2:0:0:0:
327,227,55126,2,0,P|335:207|334:189,1,32.5,0|0,2:0|2:0,2:0:0:0:
332,137,55426,6,0,B|305:100|253:83|253:83|249:108|226:129,1,146.250005578995,10|0,2:0|2:0,2:0:0:0:
213,144,56626,5,8,2:0:0:0:
198,86,56926,1,2,2:0:0:0:
206,148,57226,1,8,2:0:0:0:
177,222,57526,1,2,2:0:0:0:
164,301,57826,6,0,B|160:336|179:376|179:376|211:341|217:301,1,146.250005578995,8|0,2:0|2:0,2:0:0:0:
218,268,58426,2,0,P|260:284|261:339,1,97.50000371933,0|0,2:0|2:0,2:0:0:0:
236,384,59026,1,10,2:0:0:0:
321,337,59326,6,0,P|346:320|353:308,1,32.5,0|0,2:0|2:0,2:0:0:0:
328,274,59626,2,0,P|326:243|319:231,1,32.5,0|0,2:0|2:0,2:0:0:0:
275,237,59926,2,0,P|247:223|234:223,1,32.5,0|0,2:0|2:0,2:0:0:0:
197,223,60226,2,0,P|183:195|183:182,1,32.5,8|0,2:0|2:0,2:0:0:0:
137,177,60526,2,0,P|154:150|165:144,1,32.5,2|0,2:0|2:0,2:0:0:0:
146,102,60826,2,0,P|177:103|204:139,1,65,8|0,2:0|2:0,2:0:0:0:
102,33,61426,6,0,P|63:10|17:32,1,87.7499973220826,8|0,2:0|2:0,2:0:0:0:
17,31,62026,2,0,P|11:75|50:109,1,87.7499973220826,10|0,2:0|2:0,2:0:0:0:
51,114,62626,2,0,P|63:119|71:125,2,19.4999994049072,8|2|8,2:0|2:0|2:0,2:0:0:0:
24,157,63526,1,2,2:0:0:0:
0,202,63826,2,0,B|22:221|22:221|42:209|72:205,1,73.1250027894975,10|0,2:0|2:0,2:0:0:0:
87,206,64426,1,0,2:0:0:0:
149,254,64726,2,0,B|155:274|146:292|143:290|135:306|140:324,1,73.1250027894975,2|0,2:0|2:0,2:0:0:0:
144,338,65326,1,0,0:0:0:0:
40,333,65626,2,0,P|63:352|88:351,1,48.750001859665,8|0,2:0|2:0,2:0:0:0:
144,338,66226,5,2,2:0:0:0:
205,318,66526,1,0,2:0:0:0:
253,275,66826,1,10,2:0:0:0:
282,217,67126,1,10,2:0:0:0:
290,148,67426,6,0,B|280:115|259:106|259:106|235:155|185:151,1,146.250005578995,8|0,2:0|2:0,2:0:0:0:
130,142,68026,2,0,P|152:101|199:97,1,97.50000371933,8|2,2:0|2:0,2:0:0:0:
255,180,68626,1,10,2:0:0:0:
286,272,68926,6,0,P|307:267|319:253,1,32.5,0|0,2:0|2:0,2:0:0:0:
348,224,69226,2,0,P|354:203|348:185,1,32.5,0|0,2:0|2:0,2:0:0:0:
334,146,69526,2,0,P|307:118|276:112,2,65,0|8|0,2:0|2:0|2:0,2:0:0:0:
400,217,70426,2,0,B|420:229|456:226|456:226|473:243|474:261,1,97.5,2|0,2:0|2:0,2:0:0:0:
475,270,71026,5,10,2:0:0:0:
425,353,71326,1,0,2:0:0:0:
366,274,71626,2,0,P|351:255|311:250,1,65,0|0,2:0|2:0,2:0:0:0:
238,313,72226,2,0,B|211:327|196:347|196:347|175:332|146:331,1,97.5,8|0,2:0|2:0,2:0:0:0:
108,324,72826,1,0,2:0:0:0:
21,369,73126,1,0,2:0:0:0:
16,271,73426,2,0,B|28:258|45:256,1,32.5,8|0,2:0|2:0,2:0:0:0:
93,252,73726,5,0,2:0:0:0:
188,269,74026,1,0,2:0:0:0:
128,191,74326,1,2,2:0:0:0:
75,109,74626,2,0,P|99:78|132:78,1,65,10|0,2:0|2:0,2:0:0:0:
195,90,75226,2,0,B|275:78,1,73.1250027894975,0|0,2:0|2:0,2:0:0:0:
277,78,75826,5,8,2:0:0:0:
301,145,76126,1,2,2:0:0:0:
358,101,76426,1,8,2:0:0:0:
294,152,76726,1,2,2:0:0:0:
234,202,77026,6,0,B|214:223|210:246|210:246|172:206|117:198,1,146.250005578995,8|0,2:0|2:0,2:0:0:0:
75,193,77626,2,0,P|97:155|153:154,1,97.50000371933,0|2,2:0|2:0,2:0:0:0:
212,158,78226,1,10,2:0:0:0:
250,68,78526,6,0,P|268:63|288:68,1,32.5,0|0,2:0|2:0,2:0:0:0:
324,88,78826,2,0,P|337:101|343:120,1,32.5,0|0,2:0|2:0,2:0:0:0:
350,165,79126,1,0,2:0:0:0:
350,165,79426,2,0,P|350:183|360:201,1,32.5,8|0,2:0|2:0,2:0:0:0:
389,230,79726,2,0,P|405:238|424:239,1,32.5,2|0,2:0|2:0,2:0:0:0:
467,239,80026,1,8,2:0:0:0:
398,125,80626,6,0,B|387:69|416:83|409:26,1,97.50000371933,8|2,2:0|2:0,2:0:0:0:
371,171,81826,2,0,P|375:204|363:219,2,48.750001859665,8|2|8,2:0|2:0|2:0,2:0:0:0:
508,122,83026,6,0,P|468:140|414:127,1,97.50000371933,2|0,2:0|2:0,2:0:0:0:
381,95,83926,1,0,2:0:0:0:
323,82,84526,2,0,P|376:34|432:67,1,146.250005578995,0|0,2:0|2:0,2:0:0:0:
