osu file format v14

[General]
AudioFilename: audio.mp3
AudioLeadIn: 0
PreviewTime: 157388
Countdown: 0
SampleSet: Soft
StackLeniency: 0.7
Mode: 0
LetterboxInBreaks: 0
WidescreenStoryboard: 1

[Editor]
Bookmarks: 235,7435,15835,19435,57835,75835,78243,87843,97443,107043,114235,128643,157435,159843,169443,179043,188643,198243,207843,252263
DistanceSpacing: 0.5
BeatDivisor: 4
GridSize: 16
TimelineZoom: 2.3

[Metadata]
Title:Dango Daikazoku
TitleUnicode:だんご大家族
Artist:Chata
ArtistUnicode:茶太
Creator:Hachiko
Version:Mama
Source:CLANNAD
Tags:japanese anime クラナド Ending full version 麻枝准 Jun Maeda 古河渚 Furukawa Nagisa 岡崎朋也 Okazaki Tomoya 岡崎汐 Ushio key
BeatmapID:2394596
BeatmapSetID:1106913

[Difficulty]
HPDrainRate:5.5
CircleSize:3.6
OverallDifficulty:6.5
ApproachRate:6.7
SliderMultiplier:1.2
SliderTickRate:0.5

[Events]
//Background and Video events
0,0,"WLP.jpg",0,0
//Break Periods
2,115443,126951
//Storyboard Layer 0 (Background)
//Storyboard Layer 1 (Fail)
//Storyboard Layer 2 (Pass)
//Storyboard Layer 3 (Foreground)
//Storyboard Layer 4 (Overlay)
//Storyboard Sound Samples

[TimingPoints]
238,600,4,2,2,20,1,0
238,-100,4,2,2,20,0,0
17188,-100,4,2,2,5,0,0
19438,-86.9565217391304,4,2,2,31,0,0
22438,-86.9565217391304,4,2,1,31,0,0
24238,-86.9565217391304,4,2,2,31,0,0
26638,-86.9565217391304,4,2,1,31,0,0
29038,-86.9565217391304,4,2,2,31,0,0
31438,-86.9565217391304,4,2,2,31,0,0
35038,-86.9565217391304,4,2,1,31,0,0
37438,-86.9565217391304,4,1,3,21,0,0
38638,-86.9565217391304,4,2,2,31,0,0
41638,-86.9565217391304,4,2,1,31,0,0
43438,-86.9565217391304,4,2,2,31,0,0
45838,-86.9565217391304,4,2,1,31,0,0
48238,-86.9565217391304,4,2,2,31,0,0
50638,-86.9565217391304,4,2,2,31,0,0
53038,-86.9565217391304,4,2,2,31,0,0
54238,-86.9565217391304,4,2,2,31,0,0
56638,-86.9565217391304,4,1,3,21,0,0
57838,-83.3333333333333,4,2,2,35,0,0
59338,-83.3333333333333,4,2,1,35,0,0
60238,-83.3333333333333,4,2,2,35,0,0
68938,-83.3333333333333,4,2,1,35,0,0
69838,-83.3333333333333,4,2,2,35,0,0
72238,-83.3333333333333,4,2,2,35,0,0
74338,-83.3333333333333,4,2,2,35,0,0
74938,-83.3333333333333,4,2,2,20,0,0
75238,-83.3333333333333,4,2,2,35,0,0
75838,-74.0740740740741,4,2,2,35,0,0
75888,-74.0740740740741,4,2,2,5,0,0
76138,-74.0740740740741,4,2,2,40,0,0
76188,-74.0740740740741,4,2,2,5,0,0
76438,-74.0740740740741,4,2,2,40,0,0
76488,-74.0740740740741,4,2,2,5,0,0
76738,-74.0740740740741,4,2,2,40,0,0
76788,-74.0740740740741,4,2,2,5,0,0
77038,-68.9655172413793,4,2,1,55,0,1
77338,-68.9655172413793,4,2,1,5,0,1
77638,-68.9655172413793,4,2,1,45,0,1
78238,-68.9655172413793,4,2,1,50,0,1
78538,-68.9655172413793,4,2,2,45,0,1
84238,-68.9655172413793,4,2,2,50,0,0
85438,-68.9655172413793,4,2,2,40,0,0
86638,-68.9655172413793,4,2,1,55,0,1
86788,-68.9655172413793,4,2,1,5,0,1
87238,-68.9655172413793,4,2,2,45,0,1
87538,-68.9655172413793,4,2,1,45,0,1
88138,-68.9655172413793,4,2,1,45,0,1
88438,-68.9655172413793,4,2,2,45,0,1
93838,-68.9655172413793,4,2,2,45,0,0
94138,-68.9655172413793,4,2,2,32,0,0
94438,-68.9655172413793,4,2,2,45,0,0
94738,-68.9655172413793,4,2,2,32,0,0
95038,-68.9655172413793,4,2,2,40,0,0
95338,-68.9655172413793,4,2,2,32,0,0
95638,-68.9655172413793,4,2,2,40,0,0
95938,-68.9655172413793,4,2,2,44,0,0
96238,-68.9655172413793,4,2,1,55,0,1
96338,-68.9655172413793,4,2,2,5,0,1
96838,-68.9655172413793,4,2,2,45,0,1
97438,-68.9655172413793,4,2,1,45,0,1
97738,-68.9655172413793,4,2,2,45,0,1
103438,-68.9655172413793,4,2,2,50,0,0
104638,-68.9655172413793,4,2,2,40,0,0
105838,-68.9655172413793,4,2,1,45,0,1
105888,-68.9655172413793,4,2,2,5,0,1
106438,-68.9655172413793,4,2,2,45,0,1
107038,-68.9655172413793,4,2,1,45,0,1
107338,-68.9655172413793,4,2,2,45,0,1
111238,-68.9655172413793,4,1,3,46,0,1
111838,-68.9655172413793,4,2,2,45,0,1
114238,-100,4,2,2,45,0,0
114688,-100,4,2,2,30,0,0
128638,-100,4,2,2,20,0,0
129838,-100,4,2,2,25,0,0
129988,-100,4,2,2,20,0,0
131038,-100,4,2,2,25,0,0
131188,-100,4,2,2,20,0,0
131638,-100,4,2,2,25,0,0
131788,-100,4,2,2,20,0,0
132238,-100,4,2,2,22,0,0
132838,-100,4,2,2,24,0,0
133438,-100,4,2,2,26,0,0
134038,-100,4,2,2,28,0,0
134638,-100,4,2,2,20,0,0
135838,-100,4,2,2,25,0,0
136138,-100,4,2,2,20,0,0
137038,-100,4,2,2,22,0,0
137188,-100,4,2,2,20,0,0
138238,-100,4,2,2,25,0,0
138388,-100,4,2,2,20,0,0
138838,-100,4,2,2,20,0,0
140638,-100,4,2,2,25,0,0
140938,-100,4,2,2,20,0,0
141838,-100,4,2,2,25,0,0
141988,-100,4,2,2,20,0,0
143038,-100,4,2,2,25,0,0
143188,-100,4,2,2,20,0,0
144238,-100,4,2,2,25,0,0
144538,-100,4,2,2,20,0,0
146638,-100,4,2,2,25,0,0
146788,-100,4,2,2,20,0,0
147838,-100,4,2,2,25,0,0
147988,-100,4,2,2,20,0,0
149038,-100,4,2,2,35,0,0
149338,-100,4,2,2,20,0,0
150238,-100,4,2,2,25,0,0
150388,-100,4,2,2,20,0,0
150838,-100,4,2,2,20,0,0
151438,-200,4,2,2,18,0,0
151738,-1000,4,2,2,5,0,0
153738,-125,4,2,2,20,0,0
154438,-222.222222222221,4,2,1,20,0,0
154588,-222.222222222221,4,2,0,5,0,0
155038,-222.222222222221,4,2,1,10,0,0
155638,-222.222222222221,4,2,0,15,0,0
156238,-222.222222222221,4,2,1,20,0,0
156838,-222.222222222221,4,2,0,25,0,0
157438,-68.9655172413793,4,2,2,40,0,0
157513,-68.9655172413793,4,2,2,5,0,0
157738,-68.9655172413793,4,2,2,40,0,0
157813,-68.9655172413793,4,2,2,5,0,0
158038,-68.9655172413793,4,2,2,40,0,0
158113,-68.9655172413793,4,2,2,5,0,0
158338,-68.9655172413793,4,2,2,40,0,0
158413,-68.9655172413793,4,2,2,5,0,0
158638,-64.5161290322581,4,2,1,55,0,1
158863,-64.5161290322581,4,2,2,5,0,1
159238,-64.5161290322581,4,2,1,40,0,1
159838,-64.5161290322581,4,2,1,50,0,1
160138,-64.5161290322581,4,2,2,45,0,1
165838,-64.5161290322581,4,2,2,50,0,0
167038,-66.6666666666667,4,2,1,40,0,0
167338,-66.6666666666667,4,2,2,40,0,0
168238,-64.5161290322581,4,2,1,55,0,1
168388,-64.5161290322581,4,2,2,5,0,1
168838,-64.5161290322581,4,2,2,45,0,1
169138,-64.5161290322581,4,2,1,45,0,1
169438,-64.5161290322581,4,2,1,45,0,1
169738,-64.5161290322581,4,2,1,45,0,1
170038,-64.5161290322581,4,2,2,45,0,1
175438,-64.5161290322581,4,2,2,45,0,1
175738,-64.5161290322581,4,2,2,32,0,1
176038,-64.5161290322581,4,2,2,45,0,1
176338,-64.5161290322581,4,2,2,32,0,1
176638,-66.6666666666667,4,2,2,35,0,0
176938,-66.6666666666667,4,2,2,38,0,0
177238,-66.6666666666667,4,2,2,41,0,0
177538,-66.6666666666667,4,2,2,44,0,0
177838,-64.5161290322581,4,2,1,45,0,1
177988,-64.5161290322581,4,2,2,5,0,1
178438,-64.5161290322581,4,2,2,45,0,1
179038,-64.5161290322581,4,2,1,50,0,1
179338,-64.5161290322581,4,2,2,45,0,1
185038,-66.6666666666667,4,2,2,50,0,0
186238,-66.6666666666667,4,2,1,40,0,0
186538,-66.6666666666667,4,2,2,40,0,0
187438,-64.5161290322581,4,2,1,45,0,1
187813,-64.5161290322581,4,2,2,5,0,1
188038,-64.5161290322581,4,2,2,45,0,1
188638,-64.5161290322581,4,2,1,45,0,1
188938,-64.5161290322581,4,2,2,45,0,1
192838,-64.5161290322581,4,1,3,46,0,1
193438,-64.5161290322581,4,2,2,45,0,1
194638,-64.5161290322581,4,2,2,45,0,0
194938,-64.5161290322581,4,2,2,32,0,0
195238,-64.5161290322581,4,2,2,45,0,0
195538,-64.5161290322581,4,2,2,32,0,0
195838,-64.5161290322581,4,2,2,40,0,0
195988,-64.5161290322581,4,2,2,5,0,0
196138,-64.5161290322581,4,2,2,40,0,0
196288,-64.5161290322581,4,2,2,5,0,0
196438,-64.5161290322581,4,2,2,40,0,0
196588,-64.5161290322581,4,2,2,5,0,0
196738,-64.5161290322581,4,2,2,40,0,0
196888,-64.5161290322581,4,2,2,5,0,0
197038,-57.1428571428571,4,2,3,55,0,1
197338,-57.1428571428571,4,2,2,5,0,1
197638,-57.1428571428571,4,2,2,45,0,1
198238,-57.1428571428571,4,2,1,45,0,1
198538,-57.1428571428571,4,2,2,45,0,1
204238,-62.5,4,2,2,40,0,0
205438,-62.5,4,2,1,40,0,0
205738,-62.5,4,2,2,40,0,0
206638,-57.1428571428571,4,2,3,55,0,1
206863,-57.1428571428571,4,2,2,5,0,1
207238,-57.1428571428571,4,2,2,45,0,1
207838,-57.1428571428571,4,2,1,45,0,1
208138,-57.1428571428571,4,2,2,45,0,1
214438,-62.5,4,2,2,40,0,0
215038,-62.5,4,2,2,40,0,0
215338,-62.5,4,2,2,42,0,0
215638,-62.5,4,2,2,44,0,0
215938,-62.5,4,2,2,46,0,0
216238,-57.1428571428571,4,2,3,55,0,1
216538,-57.1428571428571,4,2,2,5,0,1
216838,-57.1428571428571,4,2,2,45,0,1
217438,-57.1428571428571,4,2,1,45,0,1
217738,-57.1428571428571,4,2,2,45,0,1
223438,-62.5,4,2,2,45,0,0
224638,-62.5,4,2,1,45,0,0
224938,-62.5,4,2,2,45,0,0
225838,-57.1428571428571,4,2,3,55,0,1
226063,-57.1428571428571,4,2,2,5,0,1
226438,-57.1428571428571,4,2,2,45,0,1
227038,-57.1428571428571,4,2,1,45,0,1
227338,-57.1428571428571,4,2,2,45,0,1
231238,-57.1428571428571,4,1,3,46,0,1
231838,-57.1428571428571,4,2,2,45,0,1
231913,-57.1428571428571,4,2,2,5,0,1
232438,-57.1428571428571,4,2,2,45,0,1
233038,-100,4,2,2,35,0,0
235438,-100,4,2,2,20,0,0
249988,-100,4,2,2,5,0,0
252238,-100,4,2,2,20,0,0

[Colours]
Combo1 : 255,136,79
Combo2 : 198,99,0
Combo3 : 242,242,0

[HitObjects]
300,193,238,5,2,0:0:0:0:
330,77,538,1,2,0:0:0:0:
428,156,838,1,2,0:0:0:0:
468,335,1438,6,0,P|434:334|389:318,1,60,2|0,0:0|0:0,0:0:0:0:
315,281,2038,1,2,0:0:0:0:
162,226,2638,2,0,P|196:227|241:243,1,60,2|0,0:0|0:0,0:0:0:0:
315,281,3238,1,2,0:0:0:0:
388,133,3838,2,0,P|371:157|360:185,1,60,2|0,0:0|0:0,0:0:0:0:
315,281,4438,1,2,0:0:0:0:
57,284,5038,53,2,0:0:0:0:
162,226,5338,1,2,0:0:0:0:
118,108,5638,1,2,0:0:0:0:
254,0,6238,6,0,P|285:15|315:40,1,60,2|0,0:0|0:0,0:0:0:0:
384,102,6838,1,2,0:0:0:0:
503,217,7438,54,0,P|483:188|454:162,1,60,2|0,0:0|0:0,0:0:0:0:
384,102,8038,1,2,0:0:0:0:
369,201,8338,1,0,0:0:0:0:
480,75,8638,1,2,0:0:0:0:
464,331,9838,5,2,0:0:0:0:
385,241,10138,1,2,0:0:0:0:
263,273,10438,1,2,0:0:0:0:
184,121,11038,54,0,P|145:111|114:76,1,60,2|0,0:0|0:0,0:0:0:0:
55,25,11638,1,2,0:0:0:0:
0,195,12238,2,0,P|39:185|70:150,1,60,2|0,0:0|0:0,0:0:0:0:
129,99,12838,1,2,0:0:0:0:
183,268,13438,2,0,P|144:258|113:223,1,60,2|0,0:0|0:0,0:0:0:0:
54,173,14038,1,2,0:0:0:0:
314,252,14638,5,2,0:0:0:0:
392,343,14938,1,2,0:0:0:0:
479,252,15238,1,2,0:0:0:0:
496,57,15838,54,0,P|492:90|476:117,1,60,2|0,0:0|0:0,0:0:0:0:
392,173,16438,1,2,0:0:0:0:
386,74,16738,1,0,0:0:0:0:
489,209,17038,2,0,P|474:241|450:266,1,60,2|0,0:0|0:0,0:0:0:0:
475,343,19438,53,2,0:0:0:0:
415,234,19738,1,0,0:0:0:0:
335,338,20038,2,0,P|297:293|286:226,1,103.500001974106,2|0,0:0|0:0,0:0:0:0:
306,180,20638,1,2,0:0:0:0:
306,180,21238,2,0,L|327:97,1,69.0000013160706,2|0,0:0|0:0,0:0:0:0:
436,32,21838,2,0,L|453:98,1,69.0000013160706,2|0,0:0|0:0,0:0:0:0:
390,229,22438,54,0,P|344:269|281:274,1,103.500001974106,2|0,0:0|0:0,0:0:0:0:
222,247,23038,2,0,P|172:234|123:248,1,103.500001974106,2|0,0:0|0:0,0:0:0:0:
79,323,23638,1,2,0:0:0:0:
112,14,24238,5,2,0:0:0:0:
186,114,24538,1,0,0:0:0:0:
74,179,24838,1,2,0:0:0:0:
74,179,25438,2,0,P|94:209|138:229,1,69.0000013160706,2|0,0:0|0:0,0:0:0:0:
254,266,26038,2,0,P|234:296|190:316,1,69.0000013160706,2|0,0:0|0:0,0:0:0:0:
208,168,26638,54,0,P|265:160|328:191,1,103.500001974106,2|0,0:0|0:0,0:0:0:0:
360,244,27238,2,0,P|411:248|459:230,1,103.500001974106,2|0,0:0|0:0,0:0:0:0:
503,156,27838,1,2,0:0:0:0:
144,363,29038,5,2,0:0:0:0:
26,325,29338,1,0,0:0:0:0:
78,207,29638,1,2,0:0:0:0:
78,207,30238,2,0,P|103:183|135:173,1,69.0000013160706,2|0,0:0|0:0,0:0:0:0:
264,226,30838,2,0,P|296:215|321:192,1,69.0000013160706,2|0,0:0|0:0,0:0:0:0:
207,104,31438,6,0,P|157:136|128:196,1,103.500001974106,2|0,0:0|0:0,0:0:0:0:
140,248,32038,2,0,P|178:291|242:310,1,103.500001974106,2|0,0:0|0:0,0:0:0:0:
295,299,32638,2,0,P|353:301|409:337,1,103.500001974106,2|0,0:0|0:0,0:0:0:0:
449,373,33238,1,2,0:0:0:0:
461,157,33838,5,2,0:0:0:0:
337,158,34138,1,0,0:0:0:0:
339,289,34438,2,0,P|351:331|379:370,1,69.0000013160706,2|0,0:0|0:0,0:0:0:0:
509,344,35038,54,0,P|471:303|412:295,1,103.500001974106,2|0,0:0|0:0,0:0:0:0:
364,352,35638,2,0,P|322:381|271:382,1,103.500001974106,2|0,0:0|0:0,0:0:0:0:
205,328,36238,2,0,P|242:272|299:321,1,138.000002632141,2|0,0:0|0:0,0:0:0:0:
294,298,37438,1,4,3:1:0:0:
512,200,38638,5,2,0:0:0:0:
476,81,38938,1,0,0:0:0:0:
378,168,39238,2,0,P|333:194|262:190,1,103.500001974106,2|0,0:0|0:0,0:0:0:0:
225,148,39838,1,2,0:0:0:0:
225,148,40438,2,0,L|200:212,1,69.0000013160706,2|0,0:0|0:0,0:0:0:0:
92,290,41038,2,0,L|81:221,1,69.0000013160706,2|0,0:0|0:0,0:0:0:0:
148,93,41637,54,0,P|188:61|239:54,1,103.500001974106,2|0,0:0|0:0,0:0:0:0:
318,93,42238,2,0,P|366:110|416:101,1,103.500001974106,2|0,0:0|0:0,0:0:0:0:
468,32,42838,1,2,0:0:0:0:
496,244,43438,5,2,0:0:0:0:
418,341,43738,1,0,0:0:0:0:
364,227,44038,1,2,0:0:0:0:
364,227,44638,2,0,P|331:242|283:236,1,69.0000013160706,2|0,0:0|0:0,0:0:0:0:
177,200,45238,2,0,P|178:236|206:275,1,69.0000013160706,2|0,0:0|0:0,0:0:0:0:
246,129,45838,54,0,P|202:105|148:105,1,103.500001974106,2|0,0:0|0:0,0:0:0:0:
81,158,46438,2,0,P|63:206|68:257,1,103.500001974106,2|0,0:0|0:0,0:0:0:0:
134,314,47038,1,2,0:0:0:0:
470,32,48238,5,2,0:0:0:0:
422,146,48538,1,0,0:0:0:0:
310,89,48838,1,2,0:0:0:0:
310,89,49438,2,0,P|280:113|268:149,1,69.0000013160706,2|0,0:0|0:0,0:0:0:0:
328,258,50038,2,0,P|314:289|286:309,1,69.0000013160706,2|0,0:0|0:0,0:0:0:0:
141,306,50638,6,0,P|106:251|42:232,1,103.500001974106,2|0,0:0|0:0,0:0:0:0:
74,159,51238,2,0,P|135:148|178:96,1,103.500001974106,2|0,0:0|0:0,0:0:0:0:
222,172,51838,2,0,P|200:216|207:266,1,103.500001974106,2|0,0:0|0:0,0:0:0:0:
273,308,52438,1,2,0:0:0:0:
97,365,53038,5,2,0:0:0:0:
41,255,53338,1,0,0:0:0:0:
172,262,53638,2,0,P|208:265|249:283,1,69.0000013160706,2|0,0:0|0:0,0:0:0:0:
357,352,54238,6,0,P|366:291|357:239,1,103.500001974106,2|0,0:0|0:0,0:0:0:0:
295,211,54838,2,0,P|286:160|291:108,1,103.500001974106,2|0,0:0|0:0,0:0:0:0:
352,63,55438,2,0,P|402:107|345:157,1,138.000002632141,2|0,0:0|0:0,0:0:0:0:
368,155,56638,1,4,3:1:0:0:
467,209,57838,5,2,3:2:0:0:
343,245,58138,1,0,0:0:0:0:
270,130,58438,2,0,P|239:148|215:173,1,71.9999978027344,2|0,0:0|0:0,0:0:0:0:
186,41,59037,1,2,3:2:0:0:
119,184,59338,53,2,0:0:0:0:
41,305,59638,1,2,0:0:0:0:
0,167,59938,1,2,0:0:0:0:
39,14,60238,5,2,3:2:0:0:
16,120,60838,1,2,0:0:0:0:
118,152,61438,1,2,0:0:0:0:
152,51,62038,1,2,0:0:0:0:
355,16,62638,5,2,3:2:0:0:
444,110,62938,1,0,0:0:0:0:
332,184,63238,2,0,P|297:194|261:195,1,71.9999978027344,2|0,0:0|0:0,0:0:0:0:
404,233,63838,1,2,3:2:0:0:
441,370,64138,5,0,0:0:0:0:
383,245,64438,1,2,0:0:0:0:
316,375,64738,1,0,0:0:0:0:
263,234,65038,5,2,3:2:0:0:
168,183,65638,1,2,0:0:0:0:
207,83,66238,1,2,0:0:0:0:
307,124,66838,1,2,0:0:0:0:
506,158,67438,5,2,3:2:0:0:
423,259,67738,1,0,0:0:0:0:
335,154,68038,2,0,P|312:182|294:213,1,71.9999978027344,2|0,0:0|0:0,0:0:0:0:
225,91,68637,1,2,3:2:0:0:
207,239,68938,5,2,0:0:0:0:
91,155,69238,1,2,0:0:0:0:
200,61,69538,1,2,0:0:0:0:
47,19,69838,5,2,3:2:0:0:
200,61,70438,1,2,0:0:0:0:
117,198,71038,1,2,0:0:0:0:
269,281,71638,2,0,B|250:218|281:229|259:153,1,107.999996704102,2|0,0:0|0:0,0:0:0:0:
277,96,72238,6,0,P|358:100|415:129,1,143.999995605469,2|0,3:2|0:0,0:0:0:0:
393,241,73138,1,0,0:0:0:0:
269,281,73438,2,0,P|198:288|132:261,1,143.999995605469,2|0,3:2|0:0,0:0:0:0:
135,142,74338,5,2,0:0:0:0:
33,192,74638,1,2,3:2:0:0:
33,192,74938,1,2,0:0:0:0:
132,261,75238,1,2,3:2:0:0:
132,261,75538,1,2,0:0:0:0:
91,137,75838,54,0,P|95:114|100:97,1,40.5000001544952,2|0,3:2|0:0,0:0:0:0:
156,40,76138,2,0,P|169:61|177:87,1,40.5000001544952,2|0,0:0|0:0,0:0:0:0:
218,158,76438,2,0,P|237:133|244:104,1,40.5000001544952,2|0,0:0|0:0,0:0:0:0:
300,51,76738,2,0,P|311:79|311:108,1,40.5000001544952,2|0,0:0|0:0,0:0:0:0:
319,197,77038,6,0,P|369:242|454:251,1,130.500003982544,6|0,0:0|0:0,0:0:0:0:
509,231,77638,1,2,0:0:0:0:
355,290,77938,1,2,0:0:0:0:
423,121,78238,5,8,0:0:0:0:
423,121,78538,5,0,0:0:0:0:
493,47,78838,1,2,3:2:0:0:
394,25,79138,1,0,0:0:0:0:
304,188,79438,5,2,3:2:0:0:
216,23,79738,1,0,0:0:0:0:
57,122,80038,2,0,P|36:186|47:255,1,130.500003982544,2|0,3:2|0:0,0:0:0:0:
92,316,80639,5,2,3:2:0:0:
172,202,80938,1,0,0:0:0:0:
256,223,81238,1,2,0:0:0:0:
318,162,81538,1,0,0:0:0:0:
396,288,81838,6,0,P|336:312|264:312,1,130.500003982544,2|0,3:2|0:0,0:0:0:0:
194,285,82438,1,2,0:0:0:0:
236,135,82738,2,0,P|285:144|326:168,1,87.0000026550294,0|0,0:0|3:2,0:0:0:0:
396,288,83338,1,2,0:0:0:0:
353,364,83638,1,2,3:2:0:0:
298,255,83938,1,2,0:0:0:0:
447,142,84238,5,2,3:2:0:0:
479,34,85438,5,2,0:0:0:0:
399,69,85738,1,2,0:0:0:0:
415,163,86038,1,2,0:0:0:0:
318,125,86338,1,2,0:0:0:0:
226,0,86638,6,0,P|241:58|217:149,1,130.500003982544,4|0,0:0|0:0,0:0:0:0:
174,188,87238,1,2,0:0:0:0:
283,66,87538,1,2,0:0:0:0:
100,72,87838,5,10,0:0:0:0:
100,72,88138,5,2,0:0:0:0:
13,14,88438,1,2,3:2:0:0:
5,118,88738,1,0,0:0:0:0:
178,188,89038,5,2,3:2:0:0:
263,21,89338,1,0,0:0:0:0:
398,150,89638,1,2,3:2:0:0:
96,314,90238,6,0,P|158:329|222:317,1,130.500003982544
272,251,90838,2,0,P|335:239|398:255,1,130.500003982544
454,317,91438,6,0,P|414:333|371:332,2,87.0000026550294,2|0|0,3:2|3:2|3:2,0:0:0:0:
482,189,92338,1,0,0:0:0:0:
350,144,92638,2,0,P|306:137|255:148,1,87.0000026550294,2|0,3:2|0:0,0:0:0:0:
182,246,93238,1,2,0:0:0:0:
114,105,93538,1,2,0:0:0:0:
260,192,93838,5,2,3:2:0:0:
106,162,94138,1,0,0:0:0:0:
256,93,94438,5,2,3:2:0:0:
145,203,94738,1,0,0:0:0:0:
183,38,95038,5,2,3:2:0:0:
93,133,95338,1,2,0:0:0:0:
249,145,95638,1,2,0:0:0:0:
328,41,95938,1,2,0:0:0:0:
430,182,96238,6,0,P|429:248|390:314,1,130.500003982544,4|0,0:0|0:0,0:0:0:0:
334,354,96838,1,2,0:0:0:0:
470,259,97138,1,2,0:0:0:0:
289,218,97438,5,8,0:0:0:0:
289,218,97738,5,0,0:0:0:0:
223,136,98038,1,2,3:2:0:0:
184,232,98338,1,0,0:0:0:0:
337,124,98638,5,2,3:2:0:0:
174,32,98938,1,0,0:0:0:0:
94,201,99238,2,0,P|95:263|162:325,1,130.500003982544,2|0,3:2|0:0,0:0:0:0:
217,335,99838,5,2,3:2:0:0:
202,249,100138,1,0,0:0:0:0:
325,249,100438,1,2,0:0:0:0:
347,147,100738,1,0,0:0:0:0:
220,50,101039,6,0,P|158:77|116:128,1,130.500003982544,2|0,3:2|0:0,0:0:0:0:
94,201,101638,1,2,0:0:0:0:
250,191,101938,2,0,P|292:181|334:189,1,87.0000026550294,2|0,0:0|3:2,0:0:0:0:
439,268,102538,1,2,0:0:0:0:
436,355,102838,1,2,3:2:0:0:
342,278,103138,1,2,0:0:0:0:
427,111,103438,5,2,3:2:0:0:
168,212,104038,5,2,3:2:0:0:
397,342,104638,5,2,3:2:0:0:
478,276,104938,1,2,0:0:0:0:
366,228,105238,1,2,3:2:0:0:
381,125,105538,1,2,0:0:0:0:
221,152,105838,6,0,P|173:196|166:260,1,130.500003982544,4|0,0:0|0:0,0:0:0:0:
202,334,106438,1,2,0:0:0:0:
136,183,106738,1,2,0:0:0:0:
311,261,107038,5,8,0:0:0:0:
311,261,107338,5,0,0:0:0:0:
307,158,107638,1,2,3:2:0:0:
400,203,107938,1,0,0:0:0:0:
213,217,108238,5,2,3:2:0:0:
305,54,108538,1,0,0:0:0:0:
480,119,108838,1,2,3:2:0:0:
213,217,109438,6,0,P|200:144|228:70,1,130.500003982544
265,24,110038,2,0,P|193:14|144:45,1,130.500003982544
117,122,110638,6,0,P|110:166|121:217,1,87.0000026550294,2|0,3:2|0:0,0:0:0:0:
196,329,111238,1,4,2:0:0:0:
196,329,111838,2,0,B|283:347|259:318|336:329,1,130.500003982544,2|0,3:2|0:0,0:0:0:0:
408,334,112438,1,2,0:0:0:0:
319,227,112738,1,0,0:0:0:0:
443,130,113038,5,2,3:2:0:0:
443,130,113338,2,0,P|443:179|415:232,1,87.0000026550294,0|0,0:0|3:2,0:0:0:0:
320,142,113938,1,0,0:0:0:0:
401,44,114238,2,0,P|467:40|522:76,1,120,2|0,3:2|0:0,0:0:0:0:
80,32,128638,5,2,0:0:0:0:
190,104,129238,1,2,0:0:0:0:
80,176,129838,6,0,L|80:256,3,60,2|0|0|0,3:2|0:0|0:0|0:0,0:0:0:0:
49,333,131038,6,0,P|80:337|128:333,1,60,2|0,3:2|0:0,0:0:0:0:
176,276,131638,2,0,P|205:275|235:279,1,60,2|0,3:2|0:0,0:0:0:0:
325,340,132238,6,0,P|343:299|340:261,1,60,2|0,3:2|0:0,0:0:0:0:
385,197,132838,2,0,P|414:217|433:248,1,60,2|0,3:2|0:0,0:0:0:0:
512,158,133438,6,0,P|496:118|465:94,1,60,2|0,3:2|0:0,0:0:0:0:
383,112,134038,2,0,P|353:116|324:109,1,60,2|0,3:2|0:0,0:0:0:0:
250,39,134638,5,2,3:2:0:0:
250,39,134938,1,0,0:0:0:0:
226,147,135238,5,2,3:2:0:0:
226,147,135538,1,0,0:0:0:0:
127,91,135838,5,2,3:2:0:0:
127,193,136138,1,2,3:2:0:0:
25,142,136438,5,2,3:2:0:0:
25,244,136738,1,2,3:2:0:0:
112,318,137038,6,0,P|136:336|165:348,3,60,2|0|0|0,3:2|0:0|0:0|0:0,0:0:0:0:
249,272,138238,6,0,P|272:251|302:236,1,60,2|0,3:2|0:0,0:0:0:0:
384,292,138838,2,0,P|392:262|394:232,1,60,2|0,3:2|0:0,0:0:0:0:
363,135,139438,5,2,3:2:0:0:
363,135,139738,1,0,0:0:0:0:
468,151,140038,5,2,3:2:0:0:
468,151,140338,1,0,0:0:0:0:
418,49,140638,5,2,3:2:0:0:
363,135,140938,1,2,3:2:0:0:
304,36,141238,5,2,3:2:0:0:
250,125,141538,1,2,3:2:0:0:
181,34,141838,6,0,P|150:23|109:22,3,60,2|0|0|0,3:2|0:0|0:0|0:0,0:0:0:0:
32,89,143038,6,0,P|36:120|47:147,1,60,2|0,3:2|0:0,0:0:0:0:
149,145,143638,2,0,P|146:174|134:202,1,60,2|0,3:2|0:0,0:0:0:0:
47,276,144238,5,2,3:2:0:0:
83,371,144538,1,2,3:2:0:0:
160,287,144838,5,2,3:2:0:0:
197,382,145138,1,2,3:2:0:0:
273,297,145438,5,2,3:2:0:0:
309,202,145738,1,2,3:2:0:0:
386,286,146038,5,2,3:2:0:0:
423,191,146338,1,2,3:2:0:0:
356,99,146638,6,0,P|335:79|307:64,3,60,2|0|0|0,3:2|0:0|0:0|0:0,0:0:0:0:
195,81,147838,6,0,P|178:112|175:149,1,60,0|0,3:2|0:0,0:0:0:0:
245,210,148438,2,0,P|260:235|265:265,1,60,0|0,3:2|0:0,0:0:0:0:
337,362,149038,5,2,3:2:0:0:
420,294,149338,2,0,P|427:264|425:235,1,60,2|0,0:0|0:0,0:0:0:0:
337,173,149938,1,0,0:0:0:0:
415,82,150238,6,0,P|381:64|337:54,1,60,2|0,3:2|0:0,0:0:0:0:
260,97,150838,1,2,0:0:0:0:
337,173,151138,1,0,0:0:0:0:
186,194,151438,6,0,B|238:209|219:153|169:127|146:188|118:221|77:211,1,180,2|0,0:0|0:0,0:0:0:0:
16,352,153738,6,0,L|23:352,2,8,2|2|2,0:0|0:0|0:0,0:0:0:0:
256,192,154438,12,0,157138,0:0:0:0:
168,76,157438,6,0,P|191:76|213:87,1,43.5000013275147,2|0,0:0|0:0,0:0:0:0:
195,161,157738,2,0,P|214:169|236:168,1,43.5000013275147,2|0,0:0|0:0,0:0:0:0:
299,108,158038,2,0,P|316:121|326:140,1,43.5000013275147,2|0,0:0|0:0,0:0:0:0:
320,227,158338,2,0,P|341:230|362:224,1,43.5000013275147,2|0,0:0|0:0,0:0:0:0:
465,197,158638,6,0,B|451:193|451:193|489:128|441:66,1,139.500001064301,6|0,1:2|0:0,0:0:0:0:
373,36,159238,1,2,0:0:0:0:
511,130,159538,1,2,0:0:0:0:
324,140,159838,5,8,1:2:0:0:
324,140,160138,5,0,0:0:0:0:
202,94,160438,1,2,0:0:0:0:
222,222,160738,1,0,0:0:0:0:
290,44,161038,53,2,0:0:0:0:
103,83,161338,1,0,0:0:0:0:
122,273,161638,2,0,P|176:324|264:328,1,139.500001064301,2|0,1:2|0:0,0:0:0:0:
310,290,162238,5,2,3:2:0:0:
239,187,162538,1,0,0:0:0:0:
151,190,162838,1,2,0:0:0:0:
122,273,163138,1,0,0:0:0:0:
20,140,163438,6,0,P|67:77|128:45,1,139.500001064301,2|0,1:2|0:0,0:0:0:0:
202,61,164038,1,2,0:0:0:0:
151,190,164338,2,0,P|126:226|135:304,1,93.0000007095337,2|0,0:0|3:2,0:0:0:0:
208,360,164938,5,2,0:0:0:0:
231,270,165238,1,2,3:2:0:0:
358,297,165538,1,2,0:0:0:0:
471,144,165838,5,2,1:2:0:0:
44,363,167038,5,6,0:0:0:0:
136,326,167338,1,2,0:0:0:0:
114,220,167638,1,2,0:0:0:0:
239,208,167938,1,2,0:0:0:0:
337,372,168238,54,0,B|328:360|328:360|397:331|396:252,1,139.500001064301,6|0,1:2|0:0,0:0:0:0:
371,184,168838,1,2,0:0:0:0:
419,344,169138,1,2,0:0:0:0:
267,238,169438,5,10,1:2:0:0:
267,238,169738,5,2,0:0:0:0:
213,119,170038,1,2,0:0:0:0:
136,223,170338,1,0,0:0:0:0:
312,149,170638,5,2,0:0:0:0:
122,137,170938,1,0,0:0:0:0:
192,314,171238,1,2,1:2:0:0:
424,141,171838,6,0,P|400:72|317:41,1,139.500001064301,2|0,0:0|0:0,0:0:0:0:
280,95,172438,2,0,P|206:106|139:95,1,139.500001064301,2|0,0:0|0:0,0:0:0:0:
61,62,173038,6,0,P|54:108|81:166,2,93.0000007095337,2|0|0,3:2|3:2|3:2,0:0:0:0:
187,0,173938,1,0,0:0:0:0:
291,107,174238,2,0,P|301:155|288:204,1,93.0000007095337,2|0,0:0|0:0,0:0:0:0:
154,254,174838,1,2,0:0:0:0:
298,330,175138,1,2,0:0:0:0:
213,176,175438,5,2,3:2:0:0:
239,336,175738,1,0,0:0:0:0:
315,183,176038,5,2,3:2:0:0:
234,259,176338,1,0,0:0:0:0:
369,260,176638,5,2,3:2:0:0:
268,351,176938,1,2,0:0:0:0:
263,188,177238,1,2,0:0:0:0:
372,110,177538,1,2,0:0:0:0:
182,101,177838,6,0,B|193:109|193:109|136:158|162:232,1,139.500001064301,6|0,1:2|0:0,0:0:0:0:
207,291,178438,1,2,0:0:0:0:
112,153,178738,1,2,0:0:0:0:
304,190,179038,5,8,1:2:0:0:
304,190,179338,5,0,0:0:0:0:
426,144,179638,1,2,0:0:0:0:
406,272,179938,1,0,0:0:0:0:
337,94,180238,5,2,0:0:0:0:
480,220,180538,1,0,0:0:0:0:
306,297,180838,2,0,P|234:268|199:193,1,139.500001064301,2|0,1:2|0:0,0:0:0:0:
264,159,181438,5,2,3:2:0:0:
207,84,181738,1,0,0:0:0:0:
128,187,182038,1,2,0:0:0:0:
33,132,182338,1,0,0:0:0:0:
171,0,182638,6,0,P|245:0|298:68,1,139.500001064301,2|0,1:2|0:0,0:0:0:0:
298,127,183238,1,2,0:0:0:0:
196,248,183538,2,0,P|154:275|93:271,1,93.0000007095337,2|0,0:0|3:2,0:0:0:0:
23,169,184138,1,2,0:0:0:0:
26,82,184438,1,2,3:2:0:0:
120,159,184738,1,2,0:0:0:0:
35,326,185038,5,2,1:2:0:0:
281,221,185638,5,2,3:2:0:0:
467,25,186238,5,6,0:0:0:0:
490,126,186538,1,2,0:0:0:0:
372,95,186838,1,2,0:0:0:0:
320,186,187138,1,2,0:0:0:0:
210,30,187438,6,0,B|214:43|214:43|138:46|111:119,1,139.500001064301,6|0,1:2|0:0,0:0:0:0:
122,193,188038,1,2,0:0:0:0:
128,26,188338,1,2,0:0:0:0:
240,187,188638,5,8,1:2:0:0:
240,187,188938,5,0,0:0:0:0:
365,221,189238,1,2,0:0:0:0:
274,313,189538,1,0,0:0:0:0:
85,288,189838,5,2,0:0:0:0:
179,122,190138,1,0,0:0:0:0:
369,137,190438,1,2,1:2:0:0:
97,46,191038,6,0,P|70:120|97:203,1,139.500001064301,2|0,0:0|0:0,0:0:0:0:
145,233,191638,2,0,P|213:260|291:239,1,139.500001064301,2|0,0:0|0:0,0:0:0:0:
342,196,192238,6,0,P|359:238|336:308,1,93.0000007095337,2|0,3:2|0:0,0:0:0:0:
219,347,192838,1,4,2:0:0:0:
219,347,193438,2,0,B|159:318|150:362|83:311,1,139.500001064301,2|0,3:2|0:0,0:0:0:0:
50,238,194038,1,2,0:0:0:0:
186,207,194338,1,0,0:0:0:0:
90,87,194638,5,2,3:2:0:0:
226,56,194938,1,0,0:0:0:0:
278,195,195238,1,2,3:2:0:0:
387,79,195538,1,0,0:0:0:0:
447,244,195838,6,0,P|451:268|447:301,1,46.5000003547668,2|0,0:0|0:0,0:0:0:0:
384,342,196138,2,0,P|373:318|370:295,1,46.5000003547668,2|0,0:0|0:0,0:0:0:0:
361,199,196438,2,0,P|336:212|316:232,1,46.5000003547668,2|0,0:0|0:0,0:0:0:0:
265,294,196738,2,0,P|248:278|235:258,1,46.5000003547668,2|0,0:0|0:0,0:0:0:0:
195,167,197038,6,0,P|142:227|146:303,1,157.500001502037,6|0,0:0|0:0,0:0:0:0:
208,352,197638,1,2,2:2:0:0:
96,213,197938,1,2,0:0:0:0:
300,258,198238,5,8,0:0:0:0:
300,258,198538,5,0,0:0:0:0:
400,173,198838,1,6,2:2:0:0:
422,302,199138,1,0,0:0:0:0:
292,144,199438,5,6,2:2:0:0:
494,110,199738,1,0,0:0:0:0:
422,302,200038,2,0,P|355:348|265:356,1,157.500001502037,6|0,2:2|0:0,0:0:0:0:
209,319,200638,5,2,3:2:0:0:
248,161,200938,1,0,0:0:0:0:
351,183,201238,1,2,3:2:0:0:
352,77,201537,1,0,0:0:0:0:
164,108,201838,6,0,P|122:173|125:277,1,157.500001502037,6|0,2:2|0:0,0:0:0:0:
174,310,202438,1,2,0:0:0:0:
328,242,202738,2,0,P|378:235|437:259,1,105.000001001358,2|0,0:0|3:2,0:0:0:0:
345,374,203338,1,2,0:0:0:0:
251,342,203638,1,2,0:0:0:0:
328,242,203938,1,2,0:0:0:0:
483,176,204238,6,0,P|485:120|466:68,1,96,2|0,3:2|0:0,0:0:0:0:
331,100,204838,2,0,P|282:111|227:108,1,96,2|0,3:2|0:0,0:0:0:0:
124,19,205438,5,6,0:0:0:0:
150,136,205738,1,2,0:0:0:0:
32,96,206038,1,2,0:0:0:0:
69,225,206338,1,2,0:0:0:0:
236,109,206638,6,0,P|310:131|344:219,1,157.500001502037,6|0,0:0|0:0,0:0:0:0:
332,279,207238,1,2,0:0:0:0:
344,101,207538,1,2,0:0:0:0:
215,260,207838,5,8,0:0:0:0:
215,260,208138,5,2,0:0:0:0:
152,375,208438,1,6,2:2:0:0:
85,262,208738,1,0,0:0:0:0:
269,351,209038,5,6,2:2:0:0:
238,149,209338,1,2,0:0:0:0:
36,185,209638,1,6,2:2:0:0:
272,16,210238,6,0,P|355:29|425:80,1,157.500001502037,2|0,0:0|0:0,0:0:0:0:
403,150,210838,2,0,P|337:192|259:203,1,157.500001502037,2|0,0:0|0:0,0:0:0:0:
192,157,211438,6,0,P|178:206|197:258,2,105.000001001358,2|0|0,3:2|3:2|3:2,0:0:0:0:
303,76,212338,1,0,0:0:0:0:
146,17,212638,2,0,P|105:53|76:102,1,105.000001001358,2|0,3:2|0:0,0:0:0:0:
117,227,213238,1,2,0:0:0:0:
240,105,213538,1,2,0:0:0:0:
201,288,213838,5,2,3:2:0:0:
155,178,214138,1,0,0:0:0:0:
302,250,214438,5,2,3:2:0:0:
181,233,214738,1,0,0:0:0:0:
333,154,215038,5,2,0:0:0:0:
203,93,215338,1,2,0:0:0:0:
243,247,215638,1,2,0:0:0:0:
405,230,215938,1,2,0:0:0:0:
232,340,216238,6,0,P|163:295|158:210,1,157.500001502037,6|0,0:0|0:0,0:0:0:0:
213,170,216838,1,2,0:0:0:0:
129,327,217138,1,2,0:0:0:0:
302,215,217438,5,8,0:0:0:0:
302,215,217738,5,2,0:0:0:0:
411,143,218038,1,6,2:2:0:0:
417,274,218338,1,2,0:0:0:0:
308,101,218638,5,6,2:2:0:0:
512,90,218938,1,2,0:0:0:0:
512,295,219238,2,0,P|457:365|362:355,1,157.500001502037,6|0,2:2|0:0,0:0:0:0:
360,295,219838,5,2,3:2:0:0:
281,379,220138,1,0,0:0:0:0:
201,268,220438,1,2,0:0:0:0:
122,352,220738,1,0,0:0:0:0:
36,195,221038,6,0,P|93:133|190:111,1,157.500001502037,6|0,2:2|0:0,0:0:0:0:
235,146,221638,1,2,0:0:0:0:
174,302,221938,2,0,P|217:340|294:356,1,105.000001001358,2|0,0:0|3:2,0:0:0:0:
382,291,222538,5,2,0:0:0:0:
280,267,222838,1,2,3:2:0:0:
378,172,223138,1,2,0:0:0:0:
255,65,223438,6,0,P|205:71|165:103,1,96,2|0,3:2|0:0,0:0:0:0:
95,221,224038,2,0,P|135:257|185:274,1,96,2|0,3:2|0:0,0:0:0:0:
251,186,224638,5,6,0:0:0:0:
312,295,224938,1,2,0:0:0:0:
371,174,225238,1,2,0:0:0:0:
503,233,225538,1,2,0:0:0:0:
383,66,225838,6,0,P|298:51|209:95,1,157.500001502037,6|0,0:0|0:0,0:0:0:0:
182,140,226439,1,2,0:0:0:0:
292,0,226739,1,2,0:0:0:0:
322,206,227038,5,8,0:0:0:0:
322,206,227338,5,0,0:0:0:0:
408,303,227638,1,6,2:2:0:0:
279,328,227938,1,0,0:0:0:0:
435,196,228238,5,6,2:2:0:0:
355,384,228538,1,0,0:0:0:0:
215,234,228838,1,6,2:2:0:0:
417,6,229438,6,0,P|357:59|254:70,1,157.500001502037,2|0,0:0|0:0,0:0:0:0:
223,18,230038,2,0,P|202:96|256:153,1,157.500001502037,2|0,0:0|0:0,0:0:0:0:
329,149,230638,6,0,P|312:200|268:229,1,105.000001001358,2|0,3:2|0:0,0:0:0:0:
146,171,231238,1,4,2:0:0:0:
146,171,231838,2,0,B|110:254|81:212|56:302,1,157.500001502037,2|0,3:2|0:0,0:0:0:0:
94,371,232438,1,2,0:0:0:0:
186,273,232738,1,0,0:0:0:0:
313,343,233038,6,0,P|332:310|370:278,1,60,2|2,0:0|0:0,0:0:0:0:
430,229,233638,1,2,0:0:0:0:
250,164,234238,2,0,P|264:199|296:236,1,60,2|0,0:0|0:0,0:0:0:0:
347,294,234838,1,2,0:0:0:0:
159,331,235438,2,0,P|178:298|216:266,1,60,2|0,0:0|0:0,0:0:0:0:
276,217,236038,1,2,0:0:0:0:
96,152,236638,2,0,P|110:187|142:224,1,60,2|0,0:0|0:0,0:0:0:0:
193,282,237238,1,2,0:0:0:0:
8,70,237838,5,2,0:0:0:0:
96,152,238138,1,2,0:0:0:0:
135,32,238438,1,2,0:0:0:0:
8,239,239038,54,0,P|35:261|71:271,1,60,2|0,0:0|0:0,0:0:0:0:
162,306,239638,1,2,0:0:0:0:
163,152,240238,6,0,P|159:185|143:212,1,60,2|0,0:0|0:0,0:0:0:0:
59,268,240838,1,2,0:0:0:0:
53,169,241138,1,0,0:0:0:0:
162,306,241438,2,0,P|125:352|61:372,1,120,2|0,0:0|0:0,0:0:0:0:
309,229,242638,53,2,0:0:0:0:
317,349,242938,1,2,0:0:0:0:
443,341,243238,1,2,0:0:0:0:
512,77,243838,6,0,L|434:35,1,60,2|0,0:0|0:0,0:0:0:0:
366,0,244438,1,2,0:0:0:0:
192,22,245038,2,0,L|244:50,1,60,2|0,0:0|0:0,0:0:0:0:
338,99,245637,1,2,0:0:0:0:
380,267,246238,2,0,L|327:238,1,60,2|0,0:0|0:0,0:0:0:0:
234,190,246837,1,2,0:0:0:0:
512,139,247438,53,2,0:0:0:0:
473,259,247738,1,2,0:0:0:0:
385,177,248038,1,2,0:0:0:0:
149,14,248638,6,0,P|165:51|167:90,1,60,2|0,0:0|0:0,0:0:0:0:
153,174,249238,1,2,0:0:0:0:
56,99,249538,1,0,0:0:0:0:
222,132,249838,2,0,P|233:169|228:209,1,60,2|0,0:0|0:0,0:0:0:0:
454,345,252238,53,2,0:0:0:0:
413,232,252538,1,2,0:0:0:0:
315,311,252838,1,2,0:0:0:0:
151,264,253438,6,0,P|112:263|71:280,1,60,2|0,0:0|0:0,0:0:0:0:
0,320,254038,1,2,0:0:0:0:
87,170,254638,2,0,P|125:164|168:177,1,60,2|0,0:0|0:0,0:0:0:0:
241,208,255238,1,2,0:0:0:0:
168,51,255838,2,0,P|129:44|86:55,1,60,2|0,0:0|0:0,0:0:0:0:
10,85,256438,1,2,0:0:0:0:
181,312,257038,53,2,0:0:0:0:
241,208,257338,1,2,0:0:0:0:
324,303,257638,1,2,0:0:0:0:
326,24,258238,6,0,L|388:62,1,60,2|0,0:0|0:0,0:0:0:0:
469,118,258838,1,2,0:0:0:0:
373,260,259438,54,0,L|412:198,1,60,2|0,0:0|0:0,0:0:0:0:
469,118,260038,1,2,0:0:0:0:
371,122,260338,1,0,0:0:0:0:
511,213,260638,2,0,L|474:283,1,60,2|0,0:0|0:0,0:0:0:0:
129,106,261838,5,2,0:0:0:0:
217,27,262138,1,2,0:0:0:0:
248,149,262438,1,2,0:0:0:0:
70,368,263038,54,0,L|69:308,1,60,2|0,0:0|0:0,0:0:0:0:
69,203,263637,1,2,0:0:0:0:
170,347,264238,2,0,L|169:287,1,60,2|0,0:0|0:0,0:0:0:0:
168,183,264837,1,2,0:0:0:0:
274,321,265437,2,0,L|273:261,1,60,2|0,0:0|0:0,0:0:0:0:
273,157,266037,1,2,0:0:0:0:
482,59,266638,5,2,0:0:0:0:
383,126,266938,1,2,0:0:0:0:
499,174,267238,1,2,0:0:0:0:
273,261,267838,54,0,L|205:265,1,60,2|0,0:0|0:0,0:0:0:0:
117,272,268438,1,2,0:0:0:0:
163,189,268738,1,0,0:0:0:0:
175,358,269038,2,0,L|234:354,1,60,2|0,0:0|0:0,0:0:0:0:
