osu file format v14

[General]
AudioFilename: audio.mp3
AudioLeadIn: 0
PreviewTime: 1305
Countdown: 0
SampleSet: Soft
StackLeniency: 0.2
Mode: 0
LetterboxInBreaks: 0
WidescreenStoryboard: 1

[Editor]
DistanceSpacing: 2.7
BeatDivisor: 8
GridSize: 32
TimelineZoom: 2.084

[Metadata]
Title:Candy a Mine
TitleUnicode:Candy a Mine
Artist:Chata
ArtistUnicode:茶太
Creator:-infinite-
Version:Candies are mine
Source:しゅがてん!-sugarfull tempering-
Tags:shugaten syugaten sugar sweet temptation op opening full version 永原さくら 佐久間きらら recette visual novel vn japanese video game jpop pop eroge clearrave music collection
BeatmapID:4500971
BeatmapSetID:2138660

[Difficulty]
HPDrainRate:5
CircleSize:3.5
OverallDifficulty:8
ApproachRate:8.5
SliderMultiplier:1.99999995529652
SliderTickRate:1

[Events]
//Background and Video events
0,0,"bg.jpeg",0,0
//Break Periods
//Storyboard Layer 0 (Background)
//Storyboard Layer 1 (Fail)
//Storyboard Layer 2 (Pass)
//Storyboard Layer 3 (Foreground)
//Storyboard Layer 4 (Overlay)
//Storyboard Sound Samples

[TimingPoints]
142,517.241379310345,4,2,1,59,1,0
1435,-200,4,2,1,59,0,0
2210,-133.333333333333,4,2,1,59,0,0
6348,-117.647058823529,4,2,1,59,0,0
7383,-133.333333333333,4,2,1,59,0,0
14624,-100,4,2,1,59,0,0
16693,-74.0740740740741,4,2,1,59,0,0
18762,-66.6666666666667,4,2,1,85,0,0
19279,-83.3333333333333,4,2,1,85,0,0
19797,-66.6666666666667,4,2,1,85,0,0
20314,-83.3333333333333,4,2,1,85,0,0
20831,-66.6666666666667,4,2,1,85,0,0
21348,-83.3333333333333,4,2,1,85,0,0
22900,-100,4,2,1,85,0,0
23417,-66.6666666666667,4,2,1,85,0,0
23935,-100,4,2,1,85,0,0
24452,-66.6666666666667,4,2,1,85,0,0
24710,-83.3333333333333,4,2,1,85,0,0
24969,-76.9230769230769,4,2,1,85,0,0
25228,-71.4285714285714,4,2,1,85,0,0
25486,-66.6666666666667,4,2,1,85,0,0
25745,-62.5,4,2,1,85,0,0
27038,-66.6666666666667,4,2,1,85,0,0
27555,-83.3333333333333,4,2,1,85,0,0
28073,-66.6666666666667,4,2,1,85,0,0
28590,-83.3333333333333,4,2,1,85,0,0
29107,-66.6666666666667,4,2,1,85,0,0
30142,-83.3333333333333,4,2,1,85,0,0
30400,-55.5555555555556,4,2,1,85,0,0
30659,-63.2911392405063,4,2,1,85,0,0
30917,-68.9655172413793,4,2,1,85,0,0
31176,-100,4,2,1,85,0,0
31693,-66.6666666666667,4,2,1,85,0,0
32210,-100,4,2,1,85,0,0
32728,-66.6666666666667,4,2,1,85,0,0
33245,-100,4,2,1,85,0,0
33762,-76.9230769230769,4,2,1,85,0,0
34279,-100,4,2,1,85,0,0
35314,-200,4,2,1,85,0,0
35443,-200,4,2,1,58,0,0
37383,-133.333333333333,4,2,1,58,0,0
38159,-142.857142857143,4,2,1,58,0,0
41521,-133.333333333333,4,2,1,58,0,0
42297,-142.857142857143,4,2,1,58,0,0
47728,-117.647058823529,4,2,1,58,0,0
50314,-100,4,2,1,58,0,0
50831,-86.9565217391304,4,2,1,58,0,0
51866,-86.9565217391304,4,2,1,65,0,0
54710,-100,4,2,1,65,0,0
60917,-117.647058823529,4,2,1,65,0,0
62469,-100,4,2,1,65,0,0
64279,-90.9090909090909,4,2,1,65,0,0
64797,-80,4,2,1,65,0,0
65314,-71.4285714285714,4,2,1,65,0,0
65831,-64.5161290322581,4,2,1,65,0,0
66607,-64.5161290322581,4,2,1,70,0,0
66866,-142.857142857143,4,2,1,70,0,0
67124,-142.857142857143,4,2,1,75,0,0
67383,-117.647058823529,4,2,1,75,0,0
67900,-100,4,2,1,75,0,0
68417,-90.9090909090909,4,2,1,75,0,0
69193,-117.647058823529,4,2,1,75,0,0
73590,-142.857142857143,4,2,1,75,0,0
77469,-100,4,2,1,75,0,0
78762,-200,4,2,1,75,0,0
80831,-111.111111111111,4,2,1,75,0,0
82124,-100,4,2,1,75,0,0
87038,-66.6666666666667,4,2,1,93,0,1
89107,-80,4,2,1,93,0,1
90400,-76.9230769230769,4,2,1,93,0,1
91952,-66.6666666666667,4,2,1,93,0,1
92210,-58.8235294117647,4,2,1,93,0,1
93245,-66.6666666666667,4,2,1,93,0,1
99452,-100,4,2,1,93,0,1
100486,-285.714285714286,4,2,1,93,0,1
101521,-62.8930817610063,4,2,1,93,0,1
102038,-48.0769230769231,4,2,1,93,0,1
102555,-58.8235294117647,4,2,1,93,0,1
102814,-55.5555555555556,4,2,1,93,0,1
103073,-53.1914893617021,4,2,1,93,0,1
104366,-66.6666666666667,4,2,1,93,0,1
105659,-80,4,2,1,93,0,1
106952,-76.9230769230769,4,2,1,93,0,1
108504,-66.6666666666667,4,2,1,93,0,1
108762,-58.8235294117647,4,2,1,93,0,1
109797,-66.6666666666667,4,2,1,93,0,1
116004,-83.3333333333333,4,2,1,93,0,1
116779,-112.994350282486,4,2,1,93,0,1
117814,-80,4,2,1,93,0,1
118073,-83.3333333333333,4,2,1,93,0,1
120142,-58.8235294117647,4,2,1,85,0,0
120659,-74.0740740740741,4,2,1,85,0,0
121176,-58.8235294117647,4,2,1,85,0,0
121693,-74.0740740740741,4,2,1,85,0,0
122210,-58.8235294117647,4,2,1,85,0,0
122728,-74.0740740740741,4,2,1,85,0,0
124279,-87.719298245614,4,2,1,85,0,0
124797,-58.4795321637427,4,2,1,85,0,0
125314,-87.719298245614,4,2,1,85,0,0
125831,-58.4795321637427,4,2,1,85,0,0
126090,-74.0740740740741,4,2,1,85,0,0
126348,-68.0272108843538,4,2,1,85,0,0
126607,-62.8930817610063,4,2,1,85,0,0
126866,-58.4795321637427,4,2,1,85,0,0
127124,-54.6448087431694,4,2,1,85,0,0
128417,-58.8235294117647,4,2,1,85,0,0
128935,-74.0740740740741,4,2,1,85,0,0
129452,-58.8235294117647,4,2,1,85,0,0
129969,-74.0740740740741,4,2,1,85,0,0
130486,-58.8235294117647,4,2,1,85,0,0
131521,-74.0740740740741,4,2,1,85,0,0
131779,-50,4,2,1,85,0,0
132038,-58.1395348837209,4,2,1,85,0,0
132297,-63.2911392405063,4,2,1,85,0,0
132555,-87.719298245614,4,2,1,85,0,0
133073,-58.4795321637427,4,2,1,85,0,0
133590,-87.719298245614,4,2,1,85,0,0
134107,-58.4795321637427,4,2,1,85,0,0
134624,-90.9090909090909,4,2,1,85,0,0
135142,-68.9655172413793,4,2,1,85,0,0
135659,-90.9090909090909,4,2,1,85,0,0
137469,-90.9090909090909,4,2,1,50,0,0
138762,-86.9565217391304,4,2,1,59,0,0
142900,-125,4,2,1,59,0,0
149107,-90.9090909090909,4,2,1,59,0,0
149624,-80,4,2,1,59,0,0
150142,-71.4285714285714,4,2,1,59,0,0
150659,-64.5161290322581,4,2,1,59,0,0
151435,-64.5161290322581,4,2,1,64,0,0
151693,-100,4,2,1,64,0,0
151952,-100,4,2,1,70,0,0
152469,-100,4,2,1,75,0,0
153245,-83.3333333333333,4,2,1,80,0,0
154021,-90.9090909090909,4,2,1,80,0,0
158417,-113.636363636364,4,2,1,80,0,0
162297,-76.9230769230769,4,2,1,80,0,0
163590,-142.857142857143,4,2,1,80,0,0
165659,-100,4,2,1,80,0,0
166435,-66.6666666666667,4,2,1,80,0,0
171866,-58.8235294117647,4,2,1,93,0,1
173935,-76.9230769230769,4,2,1,93,0,1
175228,-66.6666666666667,4,2,1,93,0,1
176779,-58.8235294117647,4,2,1,93,0,1
177038,-50,4,2,1,93,0,1
178073,-66.6666666666667,4,2,1,93,0,1
184279,-74.0740740740741,4,2,1,93,0,1
185314,-285.714285714286,4,2,1,93,0,1
186348,-53.1914893617021,4,2,1,93,0,1
186866,-43.4782608695652,4,2,1,93,0,1
187383,-53.1914893617021,4,2,1,93,0,1
187642,-50,4,2,1,93,0,1
187900,-47.6190476190476,4,2,1,93,0,1
189193,-58.8235294117647,4,2,1,93,0,1
190486,-76.9230769230769,4,2,1,93,0,1
191779,-66.6666666666667,4,2,1,93,0,1
193331,-58.8235294117647,4,2,1,93,0,1
193590,-50,4,2,1,93,0,1
194624,-66.6666666666667,4,2,1,93,0,1
200831,-83.3333333333333,4,2,1,93,0,1
201607,-112.994350282486,4,2,1,93,0,1
202642,-71.4285714285714,4,2,1,93,0,1
204969,-71.4285714285714,4,2,1,75,0,0
206392,-100,4,2,1,75,0,0
209883,-133.333333333333,4,2,1,75,0,0
221262,-71.4285714285714,4,2,1,75,0,0
222555,-71.4285714285714,4,2,1,50,0,0
229538,-71.4285714285714,4,2,1,59,0,0
229797,-71.4285714285714,4,2,1,70,0,0
230573,-111.111111111111,4,2,1,70,0,0
233935,-83.3333333333333,4,2,1,70,0,0
238073,-83.3333333333333,4,2,1,85,0,0
240142,-50,4,2,1,100,0,1
242210,-64.5161290322581,4,2,1,100,0,1
243504,-57.1428571428571,4,2,1,100,0,1
245055,-50,4,2,1,100,0,1
245314,-41.6666666666667,4,2,1,100,0,1
246348,-66.6666666666667,4,2,1,100,0,1
253590,-285.714285714286,4,2,1,100,0,1
254624,-50,4,2,1,100,0,1
255142,-41.6666666666667,4,2,1,100,0,1
255659,-50,4,2,1,100,0,1
258762,-55.5555555555556,4,2,1,100,0,1
260055,-50,4,2,1,100,0,1
261866,-35.7142857142857,4,2,1,100,0,1
262900,-66.6666666666667,4,2,1,100,0,1
274150,-136.986301369863,4,2,1,100,0,1
276219,-89.6860986547085,4,2,1,100,0,1
277383,-200,4,2,1,100,0,1
281521,-54.054054054054,4,2,1,85,0,0
282038,-66.6666666666667,4,2,1,85,0,0
282555,-54.054054054054,4,2,1,85,0,0
283073,-66.6666666666667,4,2,1,85,0,0
283590,-54.054054054054,4,2,1,85,0,0
284107,-66.6666666666667,4,2,1,85,0,0
285659,-76.9230769230769,4,2,1,85,0,0
286176,-51.2820512820513,4,2,1,85,0,0
286693,-76.9230769230769,4,2,1,85,0,0
287210,-51.2820512820513,4,2,1,85,0,0
287469,-66.6666666666667,4,2,1,85,0,0
287728,-60.6060606060606,4,2,1,85,0,0
287986,-55.5555555555556,4,2,1,85,0,0
288245,-51.2820512820513,4,2,1,85,0,0
288504,-47.6190476190476,4,2,1,85,0,0
289797,-54.054054054054,4,2,1,85,0,0
290314,-66.6666666666667,4,2,1,85,0,0
290831,-54.054054054054,4,2,1,85,0,0
291348,-66.6666666666667,4,2,1,85,0,0
291866,-54.054054054054,4,2,1,85,0,0
292900,-74.0740740740741,4,2,1,85,0,0
293159,-45.4545454545455,4,2,1,85,0,0
293417,-53.1914893617021,4,2,1,85,0,0
293676,-58.8235294117647,4,2,1,85,0,0
293935,-76.9230769230769,4,2,1,85,0,0
294452,-51.2820512820513,4,2,1,85,0,0
294969,-87.719298245614,4,2,1,85,0,0
295486,-58.4795321637427,4,2,1,85,0,0
296004,-90.9090909090909,4,2,1,85,0,0
296521,-75.187969924812,4,2,1,85,0,0
297038,-90.9090909090909,4,2,1,85,0,0
298137,-90.9090909090909,4,2,1,45,0,0
304279,-90.9090909090909,4,2,1,5,0,0

[Colours]
Combo1 : 222,222,222
Combo2 : 176,229,255
Combo3 : 255,171,171
Combo4 : 255,231,173
Combo5 : 255,208,252

[HitObjects]
19,319,1435,6,0,P|45:371|100:353,1,124.999997206032,0|0,2:0|2:0,2:0:0:0:
105,345,2210,2,0,L|269:335,1,149.999996647239,6|0,2:0|2:0,2:0:0:0:
339,378,2986,6,0,P|366:365|389:329,1,74.9999983236197,0|0,2:0|2:0,2:0:0:0:
479,339,3504,2,0,P|481:309|461:271,1,74.9999983236197,0|0,2:0|2:0,2:0:0:0:
512,185,4021,1,0,2:0:0:0:
512,185,4279,6,0,P|428:176|369:233,1,149.999996647239,2|0,2:0|2:0,2:0:0:0:
290,235,5055,1,0,2:0:0:0:
290,235,5185,2,0,P|293:252|322:284,1,37.4999991618098,0|0,2:0|2:0,2:0:0:0:
394,304,5573,5,0,2:0:0:0:
394,304,5831,2,0,P|369:341|331:359,1,74.9999983236197,0|0,2:0|2:0,2:0:0:0:
256,304,6348,2,0,L|71:292,1,169.999996200205,2|0,2:0|2:0,2:0:0:0:
13,225,7124,1,0,2:0:0:0:
71,147,7383,6,0,P|86:100|39:74,2,112.49999748543,0|0|0,2:0|2:0|2:0,2:0:0:0:
124,222,8417,6,0,P|189:242|246:192,1,149.999996647239,2|0,2:0|2:0,2:0:0:0:
348,222,9193,1,0,2:0:0:0:
347,222,9323,2,0,P|349:162|320:115,1,112.49999748543,0|0,2:0|2:0,2:0:0:0:
235,87,9969,1,0,2:0:0:0:
168,147,10228,5,0,2:0:0:0:
187,272,10486,1,10,2:1:0:0:
302,326,10745,1,0,2:0:0:0:
399,243,11004,1,10,2:0:0:0:
370,119,11262,5,0,2:0:0:0:
345,143,11392,1,0,2:0:0:0:
379,155,11521,1,2,2:0:0:0:
354,39,11779,1,0,2:0:0:0:
255,107,12038,1,8,2:0:0:0:
243,239,12297,5,0,2:0:0:0:
190,265,12426,1,0,2:0:0:0:
151,221,12555,1,10,2:1:0:0:
63,244,12814,5,0,2:0:0:0:
178,352,13073,1,10,2:0:0:0:
314,290,13331,1,0,2:0:0:0:
362,263,13460,1,0,2:0:0:0:
405,305,13590,6,0,L|395:382,2,74.9999983236197,2|0|8,2:0|2:0|2:0,2:0:0:0:
496,278,14366,1,0,2:0:0:0:
512,144,14624,6,0,L|312:116,1,199.999995529652,10|10,2:1|2:0,2:0:0:0:
254,50,15400,1,2,2:0:0:0:
144,109,15659,1,0,2:0:0:0:
224,170,15917,5,2,2:0:0:0:
158,21,16176,1,8,2:0:0:0:
47,140,16435,5,2,2:0:0:0:
141,344,16693,2,0,B|85:336|60:362|34:362|17:350|17:350|0:338|-7:313|6:291|25:283|25:283|45:275|71:282|90:314|147:323,1,337.499992456288,12|0,2:1|2:0,2:0:0:0:
244,254,17469,5,0,2:0:0:0:
309,383,17728,1,0,2:0:0:0:
234,339,17986,1,8,2:1:0:0:
319,197,18245,5,10,2:0:0:0:
394,241,18374,1,8,2:0:0:0:
384,327,18504,1,10,2:1:0:0:
56,257,18762,6,0,P|172:270|224:179,1,224.999994970858,14|0,2:1|2:0,2:0:0:0:
53,85,19279,2,0,L|43:144,1,59.9999986588956,8|0,2:0|2:0,2:0:0:0:
127,186,19538,2,0,L|137:127,1,59.9999986588956,0|0,2:0|2:0,2:0:0:0:
261,36,19797,6,0,P|377:23|429:114,1,224.999994970858,10|0,2:1|2:0,2:0:0:0:
223,188,20314,2,0,L|233:129,1,59.9999986588956,8|0,2:0|2:0,2:0:0:0:
330,110,20573,2,0,L|320:169,1,59.9999986588956,0|0,2:0|2:0,2:0:0:0:
166,267,20831,6,0,P|239:341|351:302,1,224.999994970858,10|0,2:1|2:0,2:0:0:0:
368,294,21284,1,2,2:0:0:0:
368,293,21348,2,0,P|399:272|437:269,1,59.9999986588956,8|0,2:0|2:0,2:0:0:0:
490,340,21607,2,0,P|458:358|419:356,1,59.9999986588956,2|0,2:0|2:0,2:0:0:0:
258,195,21866,6,0,L|336:206,1,59.9999986588956,10|0,2:1|2:0,2:0:0:0:
412,122,22124,2,0,L|347:114,1,59.9999986588956,2|0,2:0|2:0,2:0:0:0:
285,16,22383,2,0,L|357:27,1,59.9999986588956,10|0,2:0|2:0,2:0:0:0:
203,102,22642,1,2,2:0:0:0:
124,92,22771,1,0,2:0:0:0:
95,17,22900,6,0,P|108:85|54:142,1,149.999996647239,10|0,2:1|2:0,2:0:0:0:
71,146,23417,6,0,P|121:94|109:22,1,149.999996647239,10|0,2:0|2:0,2:0:0:0:
106,221,23935,6,0,P|157:270|230:259,1,149.999996647239,10|0,2:1|2:0,2:0:0:0:
229,272,24452,6,0,P|157:280|105:239,1,112.499997485429,10|0,2:0|2:0,2:0:0:0:
56,221,24710,6,0,P|67:256|86:279,1,59.9999986588956,2|0,2:0|2:0,2:0:0:0:
122,353,24969,6,0,P|150:363|186:364,1,64.9999985471369,10|0,2:1|2:0,2:0:0:0:
270,383,25228,6,0,P|297:371|327:344,1,69.9999984353782,2|0,2:0|2:0,2:0:0:0:
417,359,25486,6,0,P|427:331|427:274,1,74.9999983236195,10|0,2:0|2:0,2:0:0:0:
505,214,25745,6,0,P|499:185|469:138,1,79.9999982118608,2|0,2:0|2:0,2:0:0:0:
438,51,26004,5,10,2:1:0:0:
418,48,26133,1,0,2:0:0:0:
398,44,26262,1,2,2:0:0:0:
379,41,26392,1,0,2:0:0:0:
295,80,26521,5,10,2:0:0:0:
210,93,26650,1,8,2:1:0:0:
125,106,26779,1,10,2:0:0:0:
40,119,26909,1,8,2:0:0:0:
14,205,27038,6,0,P|95:290|193:254,1,224.999994970858,10|0,2:1|2:0,2:0:0:0:
283,160,27555,2,0,L|273:219,1,59.9999986588956,8|0,2:0|2:0,2:0:0:0:
351,292,27814,2,0,L|361:233,1,59.9999986588956,0|0,2:0|2:0,2:0:0:0:
458,122,28073,6,0,P|377:37|279:73,1,224.999994970858,10|0,2:1|2:0,2:0:0:0:
183,180,28590,2,0,L|193:121,1,59.9999986588956,8|0,2:0|2:0,2:0:0:0:
108,54,28848,2,0,L|98:113,1,59.9999986588956,0|0,2:0|2:0,2:0:0:0:
77,314,29107,6,0,P|174:334|246:253,1,187.499995809049,10|0,2:1|2:0,2:0:0:0:
251,239,29495,1,2,2:0:0:0:
345,218,29624,2,0,P|380:231|403:260,1,74.9999983236195,8|0,2:0|2:0,2:0:0:0:
489,304,29883,2,0,P|470:335|435:350,1,74.9999983236195,2|0,2:0|2:0,2:0:0:0:
265,331,30142,6,0,P|266:300|254:272,1,59.9999986588956,10|0,2:1|2:0,2:0:0:0:
66,276,30400,6,0,P|113:264|155:229,1,89.9999979883433,2|0,2:0|2:0,2:0:0:0:
75,76,30659,6,0,P|99:114|125:135,1,78.9999982342126,10|0,2:0|2:0,2:0:0:0:
261,31,30917,6,0,P|234:74|218:120,1,72.4999983794988,2|0,2:0|2:0,2:0:0:0:
292,176,31176,6,0,L|445:194,1,149.999996647239,10|0,2:1|2:0,2:0:0:0:
440,183,31693,6,0,L|291:165,1,149.999996647239,10|0,2:0|2:0,2:0:0:0:
52,301,32210,6,0,L|201:283,1,149.999996647239,10|0,2:1|2:0,2:0:0:0:
201,273,32728,6,0,L|52:290,1,149.999996647239,10|0,2:0|2:0,2:0:0:0:
8,28,33245,6,0,P|41:51|47:67,1,49.999998882413,10|0,2:1|2:0,2:0:0:0:
132,53,33504,2,0,P|128:93|109:112,1,49.999998882413,0|0,2:0|2:0,2:0:0:0:
58,163,33762,2,0,P|148:186|212:118,1,194.999995641411,10|0,2:0|2:0,2:0:0:0:
503,28,34279,6,0,P|470:51|464:67,1,49.999998882413,10|0,2:1|2:0,2:0:0:0:
379,53,34538,2,0,P|383:93|402:112,1,49.999998882413,0|0,2:0|2:0,2:0:0:0:
453,163,34797,1,10,2:0:0:0:
256,32,35055,5,8,2:0:0:0:
256,111,35185,1,8,2:0:0:0:
256,192,35314,2,0,L|256:258,2,49.999998882413,14|0|8,2:1|2:0|2:0,2:0:0:0:
405,144,36090,5,0,2:0:0:0:
499,220,36348,1,10,2:1:0:0:
475,337,36607,1,0,2:0:0:0:
360,371,36866,1,10,2:0:0:0:
280,282,37124,1,0,2:0:0:0:
280,282,37383,6,0,L|152:305,1,112.49999748543,10|0,2:1|2:0,2:0:0:0:
83,316,37900,1,10,2:0:0:0:
34,172,38159,6,0,P|62:219|68:243,1,69.9999984353781,2|8,2:0|2:1,2:0:0:0:
112,98,38676,1,2,2:0:0:0:
230,73,38935,1,8,2:0:0:0:
292,177,39193,1,2,2:0:0:0:
196,250,39452,5,8,2:1:0:0:
107,186,39710,1,0,2:0:0:0:
122,77,39969,1,8,2:0:0:0:
273,26,40228,5,0,2:0:0:0:
348,167,40486,1,10,2:1:0:0:
496,108,40745,1,0,2:0:0:0:
361,23,41004,1,10,2:0:0:0:
264,149,41262,1,0,2:0:0:0:
396,236,41521,6,0,P|461:221|503:198,1,112.49999748543,10|0,2:1|2:0,2:0:0:0:
421,140,42038,1,10,2:0:0:0:
317,295,42297,6,0,P|352:319|387:332,1,69.9999984353781,2|8,2:0|2:1,2:0:0:0:
174,165,42814,2,0,P|117:175|96:186,1,69.9999984353781,2|8,2:0|2:0,2:0:0:0:
173,336,43331,1,2,2:0:0:0:
250,230,43590,5,8,2:1:0:0:
338,297,43848,1,0,2:0:0:0:
444,269,44107,1,8,2:0:0:0:
366,29,44366,6,0,P|350:74|338:134,1,104.999997653067,2|0,2:0|2:0,2:0:0:0:
368,207,44883,1,0,2:0:0:0:
459,48,45142,1,10,2:0:0:0:
283,9,45400,1,0,2:0:0:0:
189,167,45659,6,0,P|150:142|122:91,1,104.999997653067,10|0,2:1|2:0,2:0:0:0:
139,7,46176,1,10,2:0:0:0:
37,36,46435,2,0,P|22:69|16:116,1,69.9999984353781,2|8,2:0|2:1,2:0:0:0:
156,250,46952,5,2,2:0:0:0:
305,226,47210,1,8,2:0:0:0:
350,83,47469,1,0,2:0:0:0:
186,39,47728,6,0,P|221:62|267:74,1,84.9999981001024,10|0,2:1|2:0,2:0:0:0:
34,159,48245,2,0,P|75:151|116:127,1,84.9999981001024,10|0,2:0|2:0,2:0:0:0:
102,324,48762,2,0,P|125:289|137:243,1,84.9999981001024,10|0,2:1|2:0,2:0:0:0:
278,384,49279,2,0,P|270:342|246:302,1,84.9999981001024,10|0,2:0|2:0,2:0:0:0:
461,266,49797,6,0,P|408:248|340:249,1,84.9999981001024,10|0,2:1|2:0,2:0:0:0:
406,78,50314,2,0,P|420:128|465:186,1,99.999997764826,10|0,2:0|2:0,2:0:0:0:
225,223,50831,2,0,P|302:198|327:116,1,172.499996144325,10|0,2:1|2:0,2:0:0:0:
272,55,51348,5,10,2:0:0:0:
108,6,51607,1,8,2:0:0:0:
2,148,51866,5,14,2:1:0:0:
67,210,52124,1,0,2:0:0:0:
146,168,52383,1,8,2:0:0:0:
39,64,52642,5,0,2:0:0:0:
67,210,52900,1,10,2:1:0:0:
6,273,53159,5,0,2:0:0:0:
154,328,53417,1,10,2:0:0:0:
267,216,53676,5,0,2:0:0:0:
415,271,53935,1,10,2:1:0:0:
295,355,54193,1,0,2:0:0:0:
258,340,54323,1,0,2:0:0:0:
287,312,54452,1,10,2:0:0:0:
493,368,54710,6,0,L|505:266,1,99.999997764826,2|8,2:0|2:1,2:0:0:0:
398,143,55228,1,2,2:0:0:0:
404,182,55357,1,0,2:0:0:0:
411,222,55486,1,8,2:0:0:0:
488,52,55745,5,2,2:0:0:0:
385,12,56004,1,8,2:1:0:0:
319,91,56262,1,0,2:0:0:0:
220,108,56521,1,8,2:0:0:0:
0,0,56779,5,0,2:0:0:0:
124,36,57038,1,10,2:1:0:0:
145,164,57297,1,0,2:0:0:0:
2,320,57555,1,10,2:0:0:0:
23,201,57814,1,0,2:0:0:0:
245,268,58073,5,10,2:1:0:0:
298,374,58331,2,0,P|330:383|364:382,1,49.999998882413,0|0,2:0|2:0,2:0:0:0:
497,208,58590,1,10,2:0:0:0:
328,154,58848,5,2,2:0:0:0:
336,191,58978,1,0,2:0:0:0:
368,216,59107,1,8,2:1:0:0:
351,302,59366,5,2,2:0:0:0:
391,308,59495,1,0,2:0:0:0:
425,288,59624,1,8,2:0:0:0:
449,122,59883,1,2,2:0:0:0:
260,20,60142,5,8,2:1:0:0:
152,89,60400,1,0,2:0:0:0:
58,0,60659,1,8,2:0:0:0:
96,263,60917,6,0,P|154:267|221:237,1,127.499997150154,2|0,2:0|2:0,2:0:0:0:
271,144,61435,1,0,2:0:0:0:
141,174,61693,1,10,2:0:0:0:
254,300,61952,1,0,2:0:0:0:
421,272,62210,5,10,2:1:0:0:
458,110,62469,2,0,P|452:82|430:52,1,49.999998882413,2|0,2:0|2:0,2:0:0:0:
343,8,62728,1,10,2:0:0:0:
229,107,62986,5,2,2:0:0:0:
258,142,63116,1,0,2:0:0:0:
299,123,63245,1,8,2:1:0:0:
150,30,63504,5,2,2:0:0:0:
24,157,63762,1,10,2:0:0:0:
115,310,64021,1,2,2:0:0:0:
296,323,64279,6,0,P|252:292|195:287,1,109.999997541309,10|0,2:1|2:0,2:0:0:0:
458,223,64797,6,0,P|407:244|381:310,1,124.999997206033,10|0,2:0|2:0,2:0:0:0:
386,24,65314,6,0,P|381:78|445:138,1,139.999996870756,10|0,2:1|2:0,2:0:0:0:
168,0,65831,6,0,P|220:47|299:29,1,154.99999653548,10|0,2:0|2:0,2:0:0:0:
30,171,66348,5,10,2:1:0:0:
205,131,66607,1,8,2:0:0:0:
170,126,66736,1,8,2:0:0:0:
136,119,66866,2,0,L|91:109,1,34.9999992176891,8|0,2:0|2:0,2:0:0:0:
39,314,67124,5,10,2:0:0:0:
70,276,67254,1,8,2:0:0:0:
102,239,67383,2,0,L|142:195,1,42.4999990500512,10|8,2:1|2:0,2:0:0:0:
268,383,67642,5,8,2:0:0:0:
253,323,67771,1,8,2:0:0:0:
239,262,67900,2,0,L|224:211,1,49.999998882413,8|8,2:0|2:1,2:0:0:0:
483,315,68159,5,8,2:0:0:0:
408,294,68288,1,8,2:1:0:0:
334,271,68417,2,0,L|389:252,1,54.9999987706543,12|0,2:1|2:0,2:0:0:0:
481,219,68676,1,0,2:0:0:0:
493,106,68935,1,8,2:0:0:0:
261,75,69193,6,0,P|237:107|231:129,1,42.4999990500512,2|0,2:0|2:0,2:0:0:0:
143,142,69452,2,0,P|158:179|174:195,1,42.4999990500512,8|0,2:1|2:0,2:0:0:0:
391,250,69710,6,0,P|375:213|359:198,1,42.4999990500512,2|0,2:0|2:0,2:0:0:0:
384,128,69969,2,0,P|343:122|322:129,1,42.4999990500512,8|0,2:0|2:0,2:0:0:0:
282,189,70228,6,0,L|255:379,1,169.999996200205,2|0,2:0|2:0,2:0:0:0:
31,339,71004,6,0,L|48:217,1,84.9999981001024,10|0,2:0|2:0,2:0:0:0:
390,282,71521,6,0,L|377:366,1,84.9999981001024,10|0,2:1|2:0,2:0:0:0:
131,355,72038,6,0,L|149:234,1,84.9999981001024,10|0,2:0|2:0,2:0:0:0:
143,270,72555,6,0,P|148:233|168:212,1,42.4999990500512,10|0,2:1|2:0,2:0:0:0:
246,234,72814,2,0,P|281:220|309:227,1,42.4999990500512,0|0,2:0|2:0,2:0:0:0:
418,326,73073,6,0,P|412:363|392:384,1,42.4999990500512,10|0,2:0|2:0,2:0:0:0:
314,362,73331,2,0,P|279:376|252:369,1,42.4999990500512,0|0,2:0|2:0,2:0:0:0:
249,127,73590,6,0,L|358:142,1,104.999997653067,10|0,2:1|2:0,2:0:0:0:
430,76,74107,1,10,2:0:0:0:
191,44,74366,1,2,2:0:0:0:
169,222,74624,5,10,2:1:0:0:
23,162,74883,5,0,2:0:0:0:
57,167,75012,1,0,2:0:0:0:
92,171,75142,1,10,2:0:0:0:
43,357,75400,5,0,2:0:0:0:
60,314,75529,1,0,2:0:0:0:
77,270,75659,1,10,2:1:0:0:
261,384,75917,5,0,2:0:0:0:
217,346,76047,1,0,2:0:0:0:
172,309,76176,1,10,2:0:0:0:
144,165,76435,5,0,2:0:0:0:
202,109,76564,1,0,2:0:0:0:
278,143,76693,1,10,2:1:0:0:
311,243,76952,5,0,2:0:0:0:
405,276,77210,1,8,2:0:0:0:
493,129,77469,6,0,P|470:109|435:104,1,49.999998882413,2|0,2:0|2:0,2:0:0:0:
376,41,77728,2,0,P|345:43|318:64,1,49.999998882413,10|0,2:1|2:0,2:0:0:0:
218,39,77986,2,0,P|198:62|194:97,1,49.999998882413,2|0,2:0|2:0,2:0:0:0:
88,135,78245,2,0,P|90:165|111:193,1,49.999998882413,10|0,2:0|2:0,2:0:0:0:
46,290,78504,2,0,P|68:310|103:315,1,49.999998882413,2|0,2:0|2:0,2:0:0:0:
166,270,78762,6,0,L|193:265,1,24.9999994412065,10|0,2:1|2:0,2:0:0:0:
304,245,79021,1,0,2:0:0:0:
345,289,79150,1,0,2:0:0:0:
332,348,79279,1,10,2:0:0:0:
496,286,79538,5,0,2:0:0:0:
441,310,79667,1,0,2:0:0:0:
429,368,79797,1,10,2:1:0:0:
366,183,80055,5,0,2:0:0:0:
414,219,80185,1,0,2:0:0:0:
471,200,80314,1,10,2:0:0:0:
487,88,80573,1,0,2:0:0:0:
317,20,80831,6,0,L|171:41,1,134.999996982515,10|0,2:1|2:0,2:0:0:0:
80,54,81348,1,8,2:0:0:0:
114,287,81607,2,0,L|94:154,1,134.999996982515,2|0,2:0|2:0,2:0:0:0:
5,205,82124,6,0,P|31:221|50:226,1,49.999998882413,2|0,2:0|2:0,2:0:0:0:
220,303,82383,2,0,P|220:273|215:254,1,49.999998882413,10|0,2:0|2:0,2:0:0:0:
213,81,82642,2,0,P|186:96|172:110,1,49.999998882413,2|0,2:0|2:0,2:0:0:0:
143,191,82900,5,10,2:1:0:0:
336,324,83159,5,8,2:0:0:0:
414,308,83288,1,8,2:0:0:0:
443,235,83417,1,8,2:0:0:0:
307,57,83676,1,8,2:0:0:0:
193,326,83935,5,10,2:1:0:0:
68,148,84193,5,8,2:0:0:0:
98,73,84323,1,8,2:0:0:0:
175,57,84452,1,8,2:0:0:0:
368,191,84710,1,8,2:1:0:0:
79,327,84969,5,14,2:1:0:0:
123,256,86004,5,0,2:0:0:0:
210,269,86262,1,10,2:1:0:0:
373,372,86521,5,10,2:0:0:0:
458,384,86650,1,8,2:0:0:0:
512,318,86779,1,10,2:1:0:0:
260,83,87038,6,0,P|336:159|438:125,1,224.999994970858,12|0,2:1|2:0,2:0:0:0:
360,61,87555,1,8,2:0:0:0:
117,104,87814,6,0,P|90:152|91:197,1,74.9999983236195,2|0,2:0|2:0,2:0:0:0:
0,235,88073,2,0,P|38:273|82:284,1,74.9999983236195,10|0,2:1|2:0,2:0:0:0:
312,374,88331,2,0,P|339:328|338:282,1,74.9999983236195,2|0,2:0|2:0,2:0:0:0:
432,240,88590,2,0,P|394:202|350:191,1,74.9999983236195,10|0,2:0|2:0,2:0:0:0:
334,76,88848,2,0,P|288:103|266:143,1,74.9999983236195,2|0,2:0|2:0,2:0:0:0:
214,383,89107,6,0,L|194:131,1,249.999994412065,10|8,2:1|2:0,2:0:0:0:
194,134,89883,1,2,2:0:0:0:
94,164,90012,2,0,L|102:296,1,124.999997206033,2|0,2:0|2:0,2:0:0:0:
0,135,90400,6,0,P|18:107|41:86,1,64.9999985471369,2|0,2:0|2:0,2:0:0:0:
106,7,90659,2,0,P|139:8|170:17,1,64.9999985471369,10|0,2:0|2:0,2:0:0:0:
319,136,90917,1,2,2:0:0:0:
410,178,91047,1,2,2:0:0:0:
469,97,91176,1,8,2:1:0:0:
359,8,91435,5,0,2:0:0:0:
439,271,91693,1,8,2:0:0:0:
223,372,91952,2,0,P|186:369|153:352,1,74.9999983236195,2|0,2:0|2:0,2:0:0:0:
51,242,92210,2,0,L|305:193,2,254.999994300306,10|2|2,2:1|2:0|2:0,2:0:0:0:
104,56,93245,6,0,P|151:77|170:110,1,74.9999983236195,10|0,2:1|2:0,2:0:0:0:
174,248,93504,1,0,2:0:0:0:
9,169,93762,1,8,2:0:0:0:
248,29,94021,2,0,B|325:14,1,74.9999983236195,2|0,2:0|2:0,2:0:0:0:
361,9,94215,1,2,2:0:0:0:
361,9,94279,5,8,2:1:0:0:
473,144,94538,1,0,2:0:0:0:
378,293,94797,1,8,2:0:0:0:
180,68,95055,5,2,2:0:0:0:
290,86,95185,1,2,2:0:0:0:
220,174,95314,1,10,2:1:0:0:
109,157,95573,5,2,2:0:0:0:
172,351,95831,1,10,2:0:0:0:
322,192,96090,5,2,2:0:0:0:
220,174,96219,1,2,2:0:0:0:
138,252,96348,1,10,2:1:0:0:
253,276,96607,5,0,2:0:0:0:
416,119,96866,1,8,2:0:0:0:
188,35,97124,5,2,2:0:0:0:
158,144,97254,1,2,2:0:0:0:
268,118,97383,1,10,2:1:0:0:
296,10,97642,5,2,2:0:0:0:
77,58,97900,1,10,2:0:0:0:
234,219,98159,5,2,2:0:0:0:
268,118,98288,1,2,2:0:0:0:
188,35,98417,1,10,2:1:0:0:
77,58,98676,5,0,2:0:0:0:
129,254,98935,1,8,2:0:0:0:
350,313,99193,1,2,2:0:0:0:
512,151,99452,6,0,P|461:200|386:195,1,149.999996647239,10|0,2:1|2:0,2:0:0:0:
331,62,99969,1,10,2:0:0:0:
245,111,100228,5,2,2:0:0:0:
259,289,100486,2,0,L|263:323,1,26.2499994132668,8|0,2:1|2:0,2:0:0:0:
169,326,100745,5,2,2:0:0:0:
145,92,101004,2,0,L|142:64,1,26.2499994132668,8|0,2:0|2:0,2:0:0:0:
238,50,101262,5,2,2:0:0:0:
268,349,101521,6,0,L|443:331,1,158.999996446073,10|0,2:1|2:0,2:0:0:0:
237,50,102038,6,0,L|30:72,1,207.999995350838,10|0,2:0|2:0,2:0:0:0:
290,334,102555,6,0,P|324:359|366:362,1,84.9999981001021,10|0,2:1|2:0,2:0:0:0:
512,220,102814,2,0,P|516:179|494:133,1,89.9999979883433,2|0,2:0|2:0,2:0:0:0:
309,52,103073,2,0,P|270:69|243:112,1,93.9999978989365,10|0,2:0|2:0,2:0:0:0:
272,230,103331,5,10,2:0:0:0:
363,272,103460,1,10,2:0:0:0:
427,196,103590,1,12,2:1:0:0:
336,149,103848,5,0,2:0:0:0:
138,330,104107,1,8,2:0:0:0:
0,124,104366,6,0,P|35:104|68:102,1,74.9999983236195,2|0,2:0|2:0,2:0:0:0:
134,31,104624,2,0,P|174:42|198:64,1,74.9999983236195,10|0,2:1|2:0,2:0:0:0:
390,266,104883,2,0,P|354:286|321:288,1,74.9999983236195,2|0,2:0|2:0,2:0:0:0:
236,381,105142,2,0,P|196:370|171:348,1,74.9999983236195,10|0,2:0|2:0,2:0:0:0:
51,321,105400,2,0,P|31:285|29:252,1,74.9999983236195,2|0,2:0|2:0,2:0:0:0:
333,201,105659,6,0,L|82:172,1,249.999994412065,10|8,2:1|2:0,2:0:0:0:
84,173,106435,1,2,2:0:0:0:
100,68,106564,2,0,L|231:83,1,124.999997206033,2|0,2:0|2:0,2:0:0:0:
492,106,106952,6,0,P|490:140|481:169,1,64.9999985471369,2|0,2:0|2:0,2:0:0:0:
503,292,107210,2,0,P|474:308|442:315,1,64.9999985471369,10|0,2:0|2:0,2:0:0:0:
219,248,107469,1,2,2:0:0:0:
278,167,107598,1,2,2:0:0:0:
369,208,107728,1,8,2:1:0:0:
327,346,107986,5,0,2:0:0:0:
56,207,108245,1,8,2:0:0:0:
161,6,108504,2,0,P|198:5|233:20,1,74.9999983236195,2|0,2:0|2:0,2:0:0:0:
390,95,108762,2,0,L|140:143,2,254.999994300306,10|2|2,2:1|2:0|2:0,2:0:0:0:
349,322,109797,6,0,P|377:341|418:344,1,74.9999983236195,10|0,2:1|2:0,2:0:0:0:
458,195,110055,1,0,2:0:0:0:
286,139,110314,1,8,2:0:0:0:
153,298,110573,2,0,B|231:289,1,74.9999983236195,2|0,2:0|2:0,2:0:0:0:
266,290,110767,1,2,2:0:0:0:
266,290,110831,5,8,2:1:0:0:
391,132,111090,1,0,2:0:0:0:
218,37,111348,1,8,2:0:0:0:
68,209,111607,5,2,2:0:0:0:
179,232,111736,1,2,2:0:0:0:
143,125,111866,1,10,2:1:0:0:
32,115,112124,5,2,2:0:0:0:
111,312,112383,1,10,2:0:0:0:
247,134,112642,5,2,2:0:0:0:
143,125,112771,1,2,2:0:0:0:
68,209,112900,1,10,2:1:0:0:
217,328,113159,5,0,2:0:0:0:
357,146,113417,1,8,2:0:0:0:
126,136,113676,5,2,2:0:0:0:
202,219,113805,1,2,2:0:0:0:
238,112,113935,1,10,2:1:0:0:
160,24,114193,5,2,2:0:0:0:
382,89,114452,1,10,2:0:0:0:
309,200,114710,5,2,2:0:0:0:
202,219,114840,1,2,2:0:0:0:
126,136,114969,1,10,2:1:0:0:
238,112,115228,5,0,2:0:0:0:
169,319,115486,1,8,2:0:0:0:
23,155,115745,1,2,2:0:0:0:
300,47,116004,6,0,P|314:124|240:115,1,179.999995976687,10|0,2:1|2:0,2:0:0:0:
194,33,116521,1,10,2:0:0:0:
10,160,116779,6,0,P|45:165|60:158,1,44.2499990109355,2|0,2:0|0:0,2:0:0:0:
127,117,117038,1,8,2:1:0:0:
150,346,117297,6,0,P|143:322|120:299,1,44.2499990109355,2|0,2:0|0:0,2:0:0:0:
57,259,117555,1,8,2:0:0:0:
240,111,117814,6,0,P|215:140|201:173,1,62.4999986030162,2|0,2:0|2:0,2:0:0:0:
433,365,118073,2,0,B|490:361|499:318|486:293|468:281|468:281|449:268|424:269|408:279|391:289|391:289|374:300|355:311|322:314|291:295,1,299.999993294478,12|0,2:1|2:0,2:0:0:0:
219,266,118848,5,2,2:0:0:0:
279,25,119107,1,2,2:0:0:0:
486,185,119366,1,10,2:1:0:0:
274,141,119624,5,10,2:0:0:0:
357,105,119754,1,8,2:0:0:0:
347,194,119883,1,10,2:1:0:0:
22,166,120142,6,0,P|79:254|210:216,1,254.999994300306,14|0,2:1|2:0,2:0:0:0:
279,47,120659,2,0,L|209:35,1,67.4999984912575,8|0,2:0|2:0,2:0:0:0:
110,115,120917,2,0,L|177:126,1,67.4999984912575,0|0,2:0|2:0,2:0:0:0:
489,217,121176,6,0,P|432:129|301:167,1,254.999994300306,10|0,2:1|2:0,2:0:0:0:
233,337,121693,2,0,L|303:349,1,67.4999984912575,8|0,2:0|2:0,2:0:0:0:
401,268,121952,2,0,L|334:257,1,67.4999984912575,0|0,2:0|2:0,2:0:0:0:
22,166,122210,6,0,P|79:254|210:216,1,254.999994300306,10|0,2:1|2:0,2:0:0:0:
230,189,122663,1,2,2:0:0:0:
230,189,122728,2,0,P|261:172|295:168,1,67.4999984912575,8|0,2:0|2:0,2:0:0:0:
357,249,122986,2,0,P|326:266|291:270,1,67.4999984912575,2|0,2:0|2:0,2:0:0:0:
435,0,123245,6,0,L|419:64,1,67.4999984912575,10|0,2:1|2:0,2:0:0:0:
256,88,123504,2,0,L|327:68,1,67.4999984912575,2|0,2:0|2:0,2:0:0:0:
420,190,123762,2,0,L|366:137,1,67.4999984912575,10|0,2:0|2:0,2:0:0:0:
172,7,124021,1,2,2:0:0:0:
85,34,124150,1,0,2:0:0:0:
65,120,124279,6,0,P|127:174|206:153,1,170.999996177853,10|0,2:1|2:0,2:0:0:0:
204,168,124797,6,0,P|124:189|62:135,1,170.999996177852,10|0,2:0|2:0,2:0:0:0:
345,110,125314,6,0,P|423:86|487:138,1,170.999996177853,10|0,2:1|2:0,2:0:0:0:
491,123,125831,6,0,P|444:76|386:76,1,128.249997133389,10|0,2:0|2:0,2:0:0:0:
305,117,126090,6,0,P|330:91|359:81,1,67.4999984912575,2|0,2:0|2:0,2:0:0:0:
409,171,126348,6,0,P|441:186|468:212,1,73.499998357147,10|0,2:1|2:0,2:0:0:0:
416,308,126607,6,0,P|410:347|390:381,1,79.4999982230367,2|0,2:0|2:0,2:0:0:0:
262,381,126866,6,0,P|224:385|180:368,1,85.4999980889262,10|0,2:0|2:0,2:0:0:0:
77,277,127124,6,0,P|59:235|61:189,1,91.4999979548158,2|0,2:0|2:0,2:0:0:0:
83,80,127383,5,10,2:1:0:0:
105,77,127512,1,0,2:0:0:0:
126,73,127642,1,2,2:0:0:0:
146,70,127771,1,0,2:0:0:0:
231,107,127900,5,10,2:0:0:0:
322,120,128029,1,8,2:1:0:0:
412,133,128159,1,10,2:0:0:0:
503,146,128288,1,8,2:0:0:0:
512,251,128417,6,0,P|454:339|324:301,1,254.999994300306,10|0,2:1|2:0,2:0:0:0:
256,155,128935,2,0,L|326:144,1,67.4999984912575,8|0,2:0|2:0,2:0:0:0:
426,213,129193,2,0,L|359:224,1,67.4999984912575,0|0,2:0|2:0,2:0:0:0:
0,251,129452,6,0,P|58:339|188:301,1,254.999994300306,10|0,2:1|2:0,2:0:0:0:
256,155,129969,2,0,L|186:144,1,67.4999984912575,8|0,2:0|2:0,2:0:0:0:
86,213,130228,2,0,L|153:224,1,67.4999984912575,0|0,2:0|2:0,2:0:0:0:
483,138,130486,6,0,P|426:50|300:83,1,212.499995250255,10|0,2:1|2:0,2:0:0:0:
301,76,130874,1,2,2:0:0:0:
338,168,131004,2,0,P|367:191|415:198,1,84.9999981001021,8|0,2:0|2:0,2:0:0:0:
439,297,131262,2,0,P|473:285|504:246,1,84.9999981001021,2|0,2:0|2:0,2:0:0:0:
338,168,131521,6,0,P|308:172|277:192,1,67.4999984912575,10|0,2:1|2:0,2:0:0:0:
187,383,131779,6,0,P|221:349|242:296,1,99.999997764826,2|0,2:0|2:0,2:0:0:0:
26,221,132038,6,0,P|67:239|110:241,1,85.9999980777504,10|0,2:0|2:0,2:0:0:0:
152,39,132297,6,0,P|156:90|171:140,1,78.9999982342126,2|0,2:0|2:0,2:0:0:0:
271,191,132555,6,0,L|445:170,1,170.999996177853,10|0,2:1|2:0,2:0:0:0:
441,179,133073,6,0,L|270:202,1,170.999996177852,10|0,2:0|2:0,2:0:0:0:
42,48,133590,6,0,L|217:69,1,170.999996177853,10|0,2:1|2:0,2:0:0:0:
213,59,134107,6,0,L|41:37,1,170.999996177852,10|0,2:0|2:0,2:0:0:0:
0,365,134624,6,0,P|33:342|40:326,1,54.9999987706543,10|0,2:1|2:0,2:0:0:0:
125,324,134883,2,0,P|121:284|103:264,1,54.9999987706543,0|0,2:0|2:0,2:0:0:0:
41,206,135142,2,0,P|130:178|208:263,1,217.499995138497,10|0,2:0|2:0,2:0:0:0:
512,365,135659,6,0,P|479:342|471:326,1,54.9999987706543,10|0,2:1|2:0,2:0:0:0:
386,324,135917,2,0,P|390:284|408:264,1,54.9999987706543,0|0,2:0|2:0,2:0:0:0:
470,206,136176,1,10,2:0:0:0:
256,32,136435,5,8,2:0:0:0:
256,111,136564,1,8,2:0:0:0:
256,192,136693,1,6,2:0:0:0:
256,191,137469,5,0,2:0:0:0:
322,265,137728,1,0,2:0:0:0:
411,218,137986,1,0,2:0:0:0:
306,56,138245,5,10,2:0:0:0:
361,33,138374,1,8,2:0:0:0:
402,75,138504,1,8,2:1:0:0:
172,259,138762,6,0,P|91:233|71:150,1,172.499996144325,14|0,2:1|2:0,2:0:0:0:
143,100,139279,1,10,2:0:0:0:
255,318,139538,2,0,P|211:354|150:356,1,114.99999742955,2|8,2:0|2:1,2:0:0:0:
197,184,140055,5,2,2:0:0:0:
236,139,140185,1,0,2:0:0:0:
292,162,140314,1,10,2:0:0:0:
314,257,140573,1,2,2:0:0:0:
448,278,140831,5,8,2:1:0:0:
512,148,141090,1,0,2:0:0:0:
418,44,141348,1,8,2:0:0:0:
225,124,141607,5,0,2:0:0:0:
349,165,141866,1,10,2:1:0:0:
191,11,142124,1,0,2:0:0:0:
135,214,142383,1,10,2:0:0:0:
349,165,142642,1,0,2:0:0:0:
173,112,142900,6,0,P|114:116|61:144,1,119.999997317791,10|0,2:1|2:0,2:0:0:0:
0,208,143417,1,10,2:0:0:0:
116,359,143676,5,2,2:0:0:0:
90,315,143805,1,0,2:0:0:0:
87,265,143935,1,8,2:1:0:0:
313,356,144193,5,2,2:0:0:0:
261,342,144323,1,0,2:0:0:0:
221,309,144452,1,8,2:0:0:0:
425,200,144710,5,2,2:0:0:0:
386,235,144840,1,0,2:0:0:0:
335,251,144969,1,8,2:1:0:0:
238,180,145228,1,0,2:0:0:0:
280,67,145486,1,8,2:0:0:0:
499,82,145745,6,0,L|369:105,1,119.999997317791,2|0,2:0|2:0,2:0:0:0:
322,165,146262,1,0,2:0:0:0:
145,129,146521,1,10,2:0:0:0:
42,0,146779,1,0,2:0:0:0:
123,44,147038,5,10,2:1:0:0:
70,196,147297,1,2,2:0:0:0:
236,153,147555,1,10,2:0:0:0:
160,356,147814,5,2,2:0:0:0:
220,340,147943,1,0,2:0:0:0:
174,302,148073,1,8,2:1:0:0:
76,300,148331,5,2,2:0:0:0:
309,366,148590,1,10,2:0:0:0:
437,282,148848,1,2,2:0:0:0:
468,134,149107,6,0,P|456:185|504:205,1,109.999997541309,10|0,2:1|2:0,2:0:0:0:
86,79,149624,6,0,P|142:62|132:7,1,124.999997206033,10|0,2:0|2:0,2:0:0:0:
278,383,150142,6,0,P|240:331|186:364,1,139.999996870756,10|0,2:1|2:0,2:0:0:0:
466,120,150659,6,0,P|450:189|516:211,1,154.99999653548,10|0,2:0|2:0,2:0:0:0:
67,243,151176,5,10,2:1:0:0:
151,165,151435,5,8,2:0:0:0:
196,206,151564,1,8,2:0:0:0:
252,218,151693,2,0,P|283:210|307:196,1,49.999998882413,8|0,2:0|2:0,2:0:0:0:
479,5,151952,5,10,2:0:0:0:
427,59,152081,1,8,2:0:0:0:
397,128,152210,2,0,P|389:159|389:190,1,49.999998882413,10|8,2:1|2:0,2:0:0:0:
487,383,152469,5,8,2:0:0:0:
457,309,152598,1,8,2:0:0:0:
397,257,152728,1,8,2:0:0:0:
321,230,152857,5,8,2:1:0:0:
241,234,152986,1,8,2:0:0:0:
169,269,153116,1,8,2:1:0:0:
124,335,153245,6,0,L|183:356,1,59.9999986588956,12|0,2:1|2:0,2:0:0:0:
261,383,153504,1,0,2:0:0:0:
368,336,153762,1,8,2:0:0:0:
406,135,154021,6,0,P|372:114|340:107,1,54.9999987706543,2|0,2:0|2:0,2:0:0:0:
259,40,154279,2,0,P|219:49|192:66,1,54.9999987706543,10|0,2:1|2:0,2:0:0:0:
83,80,154538,2,0,P|62:114|55:145,1,54.9999987706543,2|0,2:0|2:0,2:0:0:0:
0,235,154797,2,0,P|8:274|25:302,1,54.9999987706543,10|0,2:0|2:0,2:0:0:0:
142,356,155055,5,2,2:0:0:0:
221,362,155185,1,0,2:0:0:0:
257,290,155314,5,10,2:1:0:0:
131,246,155573,1,0,2:0:0:0:
327,349,155831,5,10,2:0:0:0:
393,136,156090,1,0,2:0:0:0:
125,113,156348,5,10,2:1:0:0:
322,188,156607,1,0,2:0:0:0:
204,69,156866,5,10,2:0:0:0:
155,197,157124,1,0,2:0:0:0:
297,298,157383,6,0,P|319:293|348:277,1,54.9999987706543,10|0,2:1|2:0,2:0:0:0:
451,307,157642,2,0,P|457:286|458:253,1,54.9999987706543,0|0,2:0|2:0,2:0:0:0:
246,163,157900,6,0,P|240:185|239:217,1,54.9999987706543,10|0,2:0|2:0,2:0:0:0:
151,280,158159,2,0,P|165:296|194:313,1,54.9999987706543,0|0,2:0|2:0,2:0:0:0:
446,240,158417,6,0,L|420:100,1,131.99999704957,10|0,2:1|2:0,2:0:0:0:
336,85,158935,1,10,2:0:0:0:
372,294,159193,1,2,2:0:0:0:
119,324,159452,5,10,2:1:0:0:
45,221,159710,5,0,2:0:0:0:
99,176,159840,1,0,2:0:0:0:
163,203,159969,1,10,2:0:0:0:
143,22,160228,5,0,2:0:0:0:
218,49,160357,1,0,2:0:0:0:
223,129,160486,1,10,2:1:0:0:
373,19,160745,5,0,2:0:0:0:
387,105,160874,1,0,2:0:0:0:
314,153,161004,1,10,2:0:0:0:
171,286,161262,5,0,2:0:0:0:
229,367,161392,1,0,2:0:0:0:
317,321,161521,1,10,2:1:0:0:
259,244,161779,5,0,2:0:0:0:
432,320,162038,1,8,2:0:0:0:
473,144,162297,6,0,P|440:121|410:113,1,64.9999985471369,2|0,2:0|2:0,2:0:0:0:
349,38,162555,2,0,P|313:54|291:77,1,64.9999985471369,10|0,2:1|2:0,2:0:0:0:
166,47,162814,2,0,P|162:87|171:117,1,64.9999985471369,2|0,2:0|2:0,2:0:0:0:
34,171,163073,2,0,P|67:194|97:202,1,64.9999985471369,10|0,2:0|2:0,2:0:0:0:
110,338,163331,2,0,P|146:322|168:299,1,64.9999985471369,2|0,2:0|2:0,2:0:0:0:
233,253,163590,6,0,L|274:269,1,34.9999992176891,10|0,2:1|2:0,2:0:0:0:
392,344,163848,5,0,2:0:0:0:
378,274,163978,1,0,2:0:0:0:
365,204,164107,1,10,2:0:0:0:
472,110,164366,5,0,2:0:0:0:
418,157,164495,1,0,2:0:0:0:
365,204,164624,1,10,2:1:0:0:
230,158,164883,5,0,2:0:0:0:
297,181,165012,1,0,2:0:0:0:
365,204,165142,1,10,2:0:0:0:
334,30,165400,1,0,2:0:0:0:
62,141,165659,6,0,P|146:156|189:115,1,149.999996647239,10|0,2:1|2:0,2:0:0:0:
108,66,166176,1,8,2:0:0:0:
18,236,166435,6,0,P|53:257|95:264,1,74.9999983236195,2|0,2:0|2:0,2:0:0:0:
188,373,166693,2,0,P|219:346|239:308,1,74.9999983236195,10|0,2:1|2:0,2:0:0:0:
399,321,166952,2,0,P|383:283|353:253,1,74.9999983236195,2|0,2:0|2:0,2:0:0:0:
396,99,167210,2,0,P|356:102|318:121,1,74.9999983236195,10|0,2:0|2:0,2:0:0:0:
194,41,167469,2,0,P|185:81|191:123,1,74.9999983236195,2|0,2:0|2:0,2:0:0:0:
256,192,167728,5,10,2:1:0:0:
336,67,167986,1,8,2:0:0:0:
414,78,168116,1,8,2:0:0:0:
493,89,168245,1,8,2:0:0:0:
336,314,168504,5,8,2:0:0:0:
493,292,168762,1,10,2:1:0:0:
179,116,169021,5,8,2:0:0:0:
180,191,169150,1,8,2:0:0:0:
180,266,169279,1,8,2:0:0:0:
393,190,169538,5,8,2:0:0:0:
75,191,169797,1,14,2:1:0:0:
0,124,170831,5,0,2:0:0:0:
47,25,171090,1,10,2:1:0:0:
171,180,171348,5,10,2:0:0:0:
223,81,171478,1,8,2:0:0:0:
147,10,171607,1,10,2:1:0:0:
10,279,171866,6,0,P|81:371|200:335,1,254.999994300306,12|0,2:1|2:0,2:0:0:0:
114,278,172383,1,8,2:0:0:0:
266,5,172642,6,0,P|305:3|346:27,1,84.9999981001021,2|0,2:0|2:0,2:0:0:0:
462,0,172900,2,0,P|474:25|462:71,1,84.9999981001021,10|0,2:1|2:0,2:0:0:0:
194,224,173159,2,0,P|226:244|273:245,1,84.9999981001021,2|0,2:0|2:0,2:0:0:0:
353,345,173417,2,0,P|384:314|392:275,1,84.9999981001021,10|0,2:0|2:0,2:0:0:0:
512,228,173676,2,0,P|501:189|465:171,1,84.9999981001021,2|0,2:0|2:0,2:0:0:0:
109,131,173935,6,0,L|372:111,1,259.999994188548,10|8,2:1|2:0,2:0:0:0:
369,111,174710,1,2,2:0:0:0:
381,209,174840,2,0,L|251:223,1,129.999997094274,2|0,2:0|2:0,2:0:0:0:
35,240,175228,6,0,P|60:218|100:200,1,74.9999983236195,2|0,2:0|2:0,2:0:0:0:
143,100,175486,2,0,P|174:109|212:135,1,74.9999983236195,10|0,2:0|2:0,2:0:0:0:
327,300,175745,1,2,2:0:0:0:
430,361,175874,1,2,2:0:0:0:
501,264,176004,1,8,2:1:0:0:
435,157,176262,5,0,2:0:0:0:
97,200,176521,1,8,2:0:0:0:
239,299,176779,2,0,P|272:283|302:244,1,84.9999981001021,2|0,2:0|2:0,2:0:0:0:
274,68,177038,2,0,L|-26:30,2,299.999993294478,10|2|2,2:1|2:0|2:0,2:0:0:0:
468,217,178073,6,0,P|422:239|387:236,1,74.9999983236195,10|0,2:1|2:0,2:0:0:0:
260,149,178331,1,0,2:0:0:0:
417,64,178590,1,8,2:0:0:0:
384,326,178848,2,0,B|306:312,1,74.9999983236195,2|0,2:0|2:0,2:0:0:0:
277,310,179042,1,2,2:0:0:0:
277,310,179107,5,8,2:1:0:0:
91,189,179366,1,0,2:0:0:0:
211,11,179624,1,8,2:0:0:0:
455,172,179883,5,2,2:0:0:0:
333,207,180012,1,2,2:0:0:0:
364,85,180142,1,10,2:1:0:0:
486,54,180400,5,2,2:0:0:0:
422,297,180659,1,10,2:0:0:0:
245,119,180917,5,2,2:0:0:0:
364,85,181047,1,2,2:0:0:0:
455,172,181176,1,10,2:1:0:0:
333,207,181435,5,0,2:0:0:0:
171,26,181693,1,8,2:0:0:0:
52,224,181952,5,2,2:0:0:0:
173,258,182081,1,2,2:0:0:0:
144,135,182210,1,10,2:1:0:0:
26,97,182469,5,2,2:0:0:0:
81,342,182728,1,10,2:0:0:0:
267,172,182986,5,2,2:0:0:0:
144,135,183116,1,2,2:0:0:0:
52,224,183245,1,10,2:1:0:0:
173,258,183504,5,0,2:0:0:0:
237,40,183762,1,8,2:0:0:0:
482,96,184021,1,2,2:0:0:0:
481,336,184279,6,0,P|380:352|324:272,1,202.499995473773,10|0,2:1|2:0,2:0:0:0:
436,184,184797,1,10,2:0:0:0:
386,115,185055,5,2,2:0:0:0:
71,167,185314,2,0,L|44:173,1,26.2499994132668,8|0,2:1|2:0,2:0:0:0:
15,96,185573,5,2,2:0:0:0:
385,31,185831,2,0,L|412:25,1,26.2499994132668,8|0,2:0|2:0,2:0:0:0:
504,0,186090,5,2,2:0:0:0:
478,272,186348,6,0,L|497:77,1,187.999995797873,10|0,2:1|2:0,2:0:0:0:
137,31,186866,6,0,L|107:273,1,229.9999948591,10|0,2:0|2:0,2:0:0:0:
480,288,187383,6,0,P|499:250|491:192,1,93.9999978989365,10|0,2:1|2:0,2:0:0:0:
314,70,187642,2,0,P|273:73|222:112,1,99.999997764826,2|0,2:0|2:0,2:0:0:0:
207,321,187900,2,0,P|240:364|288:378,1,104.999997653067,10|0,2:0|2:0,2:0:0:0:
399,256,188159,5,10,2:0:0:0:
336,154,188288,1,10,2:0:0:0:
226,203,188417,1,12,2:1:0:0:
295,292,188676,5,0,2:0:0:0:
379,25,188935,1,8,2:0:0:0:
9,144,189193,6,0,P|30:176|73:195,1,84.9999981001021,2|0,2:0|2:0,2:0:0:0:
74,344,189452,2,0,P|110:332|140:296,1,84.9999981001021,10|0,2:1|2:0,2:0:0:0:
278,14,189710,2,0,P|296:47|294:95,1,84.9999981001021,2|0,2:0|2:0,2:0:0:0:
407,181,189969,2,0,P|374:210|335:215,1,84.9999981001021,10|0,2:0|2:0,2:0:0:0:
314,378,190228,2,0,P|276:352|262:315,1,84.9999981001021,2|0,2:0|2:0,2:0:0:0:
144,35,190486,6,0,L|164:298,1,259.999994188548,10|8,2:1|2:0,2:0:0:0:
164,294,191262,1,2,2:0:0:0:
281,284,191392,2,0,L|273:153,1,129.999997094274,2|0,2:0|2:0,2:0:0:0:
303,9,191779,6,0,P|335:13|375:32,1,74.9999983236195,2|0,2:0|2:0,2:0:0:0:
512,0,192038,2,0,P|514:31|505:76,1,74.9999983236195,10|0,2:0|2:0,2:0:0:0:
480,242,192297,1,2,2:0:0:0:
377,303,192426,1,2,2:0:0:0:
306,205,192555,1,8,2:1:0:0:
413,138,192814,5,0,2:0:0:0:
140,62,193073,1,8,2:0:0:0:
26,326,193331,2,0,P|54:349|102:360,1,84.9999981001021,2|0,2:0|2:0,2:0:0:0:
234,275,193590,2,0,L|532:234,2,299.999993294478,10|2|2,2:1|2:0|2:0,2:0:0:0:
62,216,194624,6,0,P|89:196|129:188,1,74.9999983236195,10|0,2:1|2:0,2:0:0:0:
300,230,194883,1,0,2:0:0:0:
142,359,195142,1,8,2:0:0:0:
108,73,195400,2,0,B|187:63,1,74.9999983236195,2|0,2:0|2:0,2:0:0:0:
216,63,195594,1,2,2:0:0:0:
216,63,195659,5,8,2:1:0:0:
412,163,195917,1,0,2:0:0:0:
291,347,196176,1,8,2:0:0:0:
127,164,196435,5,2,2:0:0:0:
249,194,196564,1,2,2:0:0:0:
162,284,196693,1,10,2:1:0:0:
40,250,196952,5,2,2:0:0:0:
216,69,197210,1,10,2:0:0:0:
365,226,197469,5,2,2:0:0:0:
283,314,197598,1,2,2:0:0:0:
161,283,197728,1,10,2:1:0:0:
216,69,197986,5,0,2:0:0:0:
452,155,198245,1,8,2:0:0:0:
283,314,198504,5,2,2:0:0:0:
398,342,198633,1,2,2:0:0:0:
365,226,198762,1,10,2:1:0:0:
243,190,199021,5,2,2:0:0:0:
96,370,199279,1,10,2:0:0:0:
12,122,199538,5,2,2:0:0:0:
99,33,199667,1,2,2:0:0:0:
216,69,199797,1,10,2:1:0:0:
127,160,200055,5,0,2:0:0:0:
188,370,200314,1,8,2:0:0:0:
430,301,200573,1,2,2:0:0:0:
391,56,200831,6,0,P|321:89|310:15,1,179.999995976687,10|0,2:1|2:0,2:0:0:0:
483,87,201348,1,10,2:0:0:0:
312,223,201607,6,0,P|307:258|314:273,1,44.2499990109355,2|0,2:0|0:0,2:0:0:0:
355,340,201866,1,8,2:1:0:0:
94,189,202124,6,0,P|87:213|64:236,1,44.2499990109355,2|0,2:0|0:0,2:0:0:0:
1,276,202383,1,8,2:0:0:0:
168,384,202642,6,0,B|186:308,1,69.9999984353782,2|0,2:0|2:0,2:0:0:0:
229,63,202900,2,0,B|258:56|302:66|321:86|335:107|335:107|349:127|357:148|381:161|406:157|406:157|431:154|457:134|469:91|423:54,1,349.999992176891,12|0,2:1|2:0,2:0:0:0:
345,0,203676,5,2,2:0:0:0:
125,211,203935,1,2,2:0:0:0:
424,298,204193,1,10,2:1:0:0:
264,112,204452,5,10,2:0:0:0:
292,223,204581,1,8,2:0:0:0:
378,144,204710,1,10,2:1:0:0:
40,235,204969,5,14,2:1:0:0:
161,347,205228,5,0,2:0:0:0:
177,351,205357,1,2,2:0:0:0:
246,300,205486,5,8,2:0:0:0:
264,296,205616,1,2,2:0:0:0:
333,349,205745,5,0,2:0:0:0:
350,354,205874,1,2,2:0:0:0:
411,289,206004,5,8,2:1:0:0:
411,289,206392,6,0,P|426:263|433:231,1,49.999998882413,2|8,2:0|2:0,2:0:0:0:
498,185,206650,1,2,2:0:0:0:
480,104,206779,1,2,2:0:0:0:
416,52,206909,1,2,2:0:0:0:
335,53,207038,1,10,2:1:0:0:
335,53,207426,5,2,2:0:0:0:
267,111,207555,1,8,2:0:0:0:
322,255,207814,1,2,2:0:0:0:
233,23,208073,6,0,L|159:43,1,49.999998882413,10|0,2:1|2:0,2:0:0:0:
145,52,208267,1,0,2:0:0:0:
145,52,208331,1,2,2:0:0:0:
33,216,208590,1,10,2:0:0:0:
193,332,208848,1,2,2:0:0:0:
287,137,209107,5,10,2:1:0:0:
365,120,209236,1,2,2:0:0:0:
439,150,209366,1,2,2:0:0:0:
474,222,209495,6,0,P|467:245|455:268,1,49.999998882413,2|8,2:0|2:0,0:0:0:0:
443,352,209754,2,0,P|421:364|397:371,1,49.999998882413,2|0,2:0|2:0,0:0:0:0:
312,350,210012,1,2,2:0:0:0:
273,276,210142,5,10,2:1:0:0:
10,244,210400,1,2,2:0:0:0:
77,377,210659,1,8,2:0:0:0:
217,197,210917,5,2,2:0:0:0:
160,140,211047,1,0,2:0:0:0:
92,182,211176,5,8,2:1:0:0:
187,358,211435,1,2,2:0:0:0:
384,322,211693,1,8,2:0:0:0:
421,126,211952,1,2,2:0:0:0:
248,26,212210,1,8,2:1:0:0:
248,25,212728,5,8,2:0:0:0:
237,110,212857,1,2,2:0:0:0:
172,165,212986,1,2,2:0:0:0:
88,178,213116,1,2,2:0:0:0:
9,146,213245,1,10,2:1:0:0:
9,129,213633,5,2,2:0:0:0:
88,162,213762,1,10,2:0:0:0:
0,383,214021,1,2,2:0:0:0:
216,335,214279,5,10,2:1:0:0:
200,256,214409,1,0,2:0:0:0:
277,237,214538,1,2,2:0:0:0:
298,314,214667,1,0,2:0:0:0:
374,294,214797,1,10,2:0:0:0:
359,86,215055,5,0,2:0:0:0:
437,51,215185,1,2,2:0:0:0:
486,120,215314,1,8,2:1:0:0:
393,201,215573,5,0,2:0:0:0:
266,46,215831,1,8,2:0:0:0:
78,116,216090,1,2,2:0:0:0:
112,308,216348,5,10,2:1:0:0:
192,278,216478,1,2,2:0:0:0:
36,254,216736,6,0,P|63:269|76:283,1,37.4999991618098,2|8,2:0|2:0,2:0:0:0:
258,383,216995,2,0,P|259:353|264:334,1,37.4999991618098,2|0,2:0|2:0,2:0:0:0:
242,154,217254,1,2,2:0:0:0:
157,186,217383,1,8,2:1:0:0:
393,319,217642,5,2,2:0:0:0:
421,257,217771,1,0,2:0:0:0:
424,190,217900,5,10,2:0:0:0:
404,126,218029,1,0,2:0:0:0:
357,76,218159,1,2,2:0:0:0:
296,45,218288,1,0,2:0:0:0:
227,42,218417,5,10,2:1:0:0:
162,63,218547,1,0,2:0:0:0:
110,107,218676,1,2,2:0:0:0:
79,167,218805,1,0,2:0:0:0:
74,236,218935,5,10,2:0:0:0:
149,275,219064,1,2,2:0:0:0:
233,278,219193,1,2,2:0:0:0:
302,229,219323,1,2,2:0:0:0:
328,149,219452,5,8,2:1:0:0:
162,63,219710,1,10,2:0:0:0:
162,63,219840,1,8,2:0:0:0:
87,6,219969,5,10,2:0:0:0:
75,98,220098,1,2,2:0:0:0:
78,101,220228,1,8,2:0:0:0:
2,155,220357,5,10,2:0:0:0:
79,256,220486,5,10,2:1:0:0:
79,256,220616,1,8,2:0:0:0:
79,256,220745,1,8,2:0:0:0:
192,220,220874,5,10,2:0:0:0:
192,220,221004,1,12,2:0:0:0:
252,18,221262,2,0,P|291:-7|307:33,1,104.999997653067,2|0,2:0|2:0,2:0:0:0:
396,59,221521,5,14,2:1:0:0:
410,140,222555,1,0,2:0:0:0:
369,323,223590,5,2,2:0:0:0:
512,269,224624,1,0,2:0:0:0:
49,217,225659,5,2,2:0:0:0:
200,295,226176,1,0,2:0:0:0:
141,227,226693,1,0,2:0:0:0:
186,384,227210,1,0,2:0:0:0:
88,9,227728,5,2,2:0:0:0:
245,52,228245,5,0,2:0:0:0:
216,139,228504,1,0,2:0:0:0:
59,98,228762,5,0,2:0:0:0:
148,73,229021,1,0,2:0:0:0:
281,206,229279,5,0,2:0:0:0:
81,384,229538,1,0,2:0:0:0:
0,348,229667,1,0,2:0:0:0:
21,266,229797,5,14,2:1:0:0:
187,228,230055,1,0,2:0:0:0:
314,347,230314,1,8,2:0:0:0:
493,295,230573,6,0,P|503:274|508:243,1,44.9999989941717,2|0,2:0|2:0,2:0:0:0:
437,155,230831,2,0,P|423:136|400:116,1,44.9999989941717,2|0,2:0|2:0,2:0:0:0:
269,66,231090,2,0,P|246:68|218:79,1,44.9999989941717,2|0,2:0|2:0,2:0:0:0:
87,119,231348,2,0,P|77:139|71:169,1,44.9999989941717,10|0,2:0|2:0,2:0:0:0:
10,259,231607,5,2,2:0:0:0:
80,331,231736,1,0,2:0:0:0:
161,272,231866,1,8,2:1:0:0:
327,144,232124,5,0,2:0:0:0:
389,196,232254,1,0,2:0:0:0:
359,270,232383,1,10,2:0:0:0:
266,359,232642,5,0,2:0:0:0:
279,281,232771,1,0,2:0:0:0:
359,270,232900,1,2,2:0:0:0:
483,306,233159,5,0,2:0:0:0:
408,333,233288,1,0,2:0:0:0:
359,270,233417,1,10,2:0:0:0:
391,70,233676,1,0,2:0:0:0:
131,22,233935,6,0,P|102:42|83:71,1,59.9999986588956,10|0,2:1|2:0,2:0:0:0:
1,140,234193,2,0,P|7:174|24:203,1,59.9999986588956,0|0,2:0|2:0,2:0:0:0:
60,307,234452,2,0,P|92:322|125:324,1,59.9999986588956,8|0,2:0|2:0,2:0:0:0:
252,130,234710,6,0,P|221:116|187:113,1,59.9999986588956,2|0,2:0|2:0,2:0:0:0:
90,147,234969,5,2,2:0:0:0:
211,357,235228,1,2,2:0:0:0:
421,236,235486,1,8,2:0:0:0:
300,26,235745,1,2,2:0:0:0:
256,192,236004,5,12,2:1:0:0:
256,192,236133,12,0,237814,2:0:0:0:
251,188,238073,5,12,2:1:0:0:
260,188,238202,1,8,2:1:0:0:
260,196,238331,1,8,2:0:0:0:
251,196,238460,1,8,2:0:0:0:
244,163,238590,5,8,2:0:0:0:
284,181,238719,1,8,2:1:0:0:
265,219,238848,1,8,2:1:0:0:
225,201,238978,1,8,2:0:0:0:
259,136,239107,5,8,2:0:0:0:
310,195,239236,1,8,2:0:0:0:
251,246,239366,1,10,2:1:0:0:
200,187,239495,1,8,2:1:0:0:
301,113,239624,5,10,2:0:0:0:
334,237,239754,1,8,2:0:0:0:
210,270,239883,1,10,2:1:0:0:
177,146,240012,1,10,2:1:0:0:
334,237,240142,6,0,P|451:256|529:110,1,299.999993294478,12|0,2:1|2:0,2:0:0:0:
360,21,240659,1,8,2:0:0:0:
27,138,240917,6,0,P|45:179|89:209,1,99.999997764826,2|0,2:0|2:0,2:0:0:0:
140,370,241176,2,0,P|184:366|227:333,1,99.999997764826,10|0,2:1|2:0,2:0:0:0:
245,0,241435,2,0,P|209:33|197:81,1,99.999997764826,2|0,2:0|2:0,2:0:0:0:
405,355,241693,2,0,P|414:306|396:260,1,99.999997764826,10|0,2:0|2:0,2:0:0:0:
463,124,241952,2,0,P|421:99|371:103,1,99.999997764826,2|0,2:0|2:0,2:0:0:0:
151,370,242210,6,0,L|165:55,1,309.99999307096,10|8,2:1|2:0,2:0:0:0:
165,61,242986,1,2,2:0:0:0:
298,71,243116,2,0,L|289:232,1,154.99999653548,2|0,2:0|2:0,2:0:0:0:
351,371,243504,6,0,P|382:347|405:305,1,87.4999980442228,2|0,2:0|2:0,2:0:0:0:
512,205,243762,2,0,P|489:174|446:151,1,87.4999980442228,10|0,2:0|2:0,2:0:0:0:
150,356,244021,1,2,2:0:0:0:
29,287,244150,1,2,2:0:0:0:
94,163,244279,1,8,2:1:0:0:
230,125,244538,5,0,2:0:0:0:
499,252,244797,1,8,2:0:0:0:
265,384,245055,2,0,P|295:363|327:305,1,99.999997764826,2|0,2:0|2:0,2:0:0:0:
434,94,245314,2,0,L|70:46,2,359.999991953373,10|2|2,2:1|2:0|2:0,2:0:0:0:
512,210,246348,6,0,P|495:258|468:281,1,74.9999983236195,10|0,2:1|2:0,2:0:0:0:
352,357,246607,1,0,2:0:0:0:
139,272,246866,1,8,2:0:0:0:
330,148,247124,2,0,B|409:159,1,74.9999983236195,2|0,2:0|2:0,2:0:0:0:
439,167,247318,1,2,2:0:0:0:
439,167,247383,5,8,2:1:0:0:
221,320,247642,1,0,2:0:0:0:
95,91,247900,1,8,2:0:0:0:
139,272,248159,5,2,2:0:0:0:
276,238,248288,1,2,2:0:0:0:
174,140,248417,1,10,2:1:0:0:
40,175,248676,5,2,2:0:0:0:
239,373,248935,1,10,2:0:0:0:
412,204,249193,5,2,2:0:0:0:
312,105,249323,1,2,2:0:0:0:
174,140,249452,1,10,2:1:0:0:
377,338,249710,5,0,2:0:0:0:
450,70,249969,1,8,2:0:0:0:
273,237,250228,5,2,2:0:0:0:
174,140,250357,1,2,2:0:0:0:
312,105,250486,1,10,2:1:0:0:
412,204,250745,5,2,2:0:0:0:
127,276,251004,1,10,2:0:0:0:
79,43,251262,5,2,2:0:0:0:
213,9,251392,1,2,2:0:0:0:
312,105,251521,1,10,2:1:0:0:
273,237,251779,5,0,2:0:0:0:
29,159,252038,1,8,2:0:0:0:
213,9,252297,1,2,2:0:0:0:
309,340,252555,6,0,P|410:356|478:261,1,224.999994970858,10|0,2:1|2:0,2:0:0:0:
401,21,253073,1,10,2:0:0:0:
429,112,253331,5,2,2:0:0:0:
95,43,253590,2,0,L|68:37,1,26.2499994132668,8|0,2:1|2:0,2:0:0:0:
29,119,253848,5,2,2:0:0:0:
437,204,254107,2,0,L|464:210,1,26.2499994132668,8|0,2:0|2:0,2:0:0:0:
488,296,254366,5,2,2:0:0:0:
35,362,254624,6,0,L|54:164,1,199.999995529652,10|0,2:1|2:0,2:0:0:0:
488,19,255142,6,0,L|466:266,1,239.999994635582,10|0,2:0|2:0,2:0:0:0:
77,56,255659,6,0,P|126:71|157:106,1,99.999997764826,10|0,2:1|2:0,2:0:0:0:
231,384,255917,2,0,P|220:334|235:287,1,99.999997764826,2|0,2:0|2:0,2:0:0:0:
456,116,256176,2,0,P|418:150|370:158,1,99.999997764826,10|0,2:0|2:0,2:0:0:0:
172,215,256435,5,10,2:0:0:0:
274,111,256564,1,10,2:0:0:0:
311,256,256693,1,12,2:1:0:0:
256,192,256952,5,0,2:0:0:0:
0,239,257210,1,8,2:0:0:0:
222,10,257469,6,0,P|264:44|281:96,1,99.999997764826,2|0,2:0|2:0,2:0:0:0:
175,354,257728,6,0,P|160:301|177:250,1,99.999997764826,10|0,2:1|2:0,2:0:0:0:
416,105,257986,6,0,P|397:155|352:186,1,99.999997764826,2|0,2:0|2:0,2:0:0:0:
74,165,258245,6,0,P|119:135|173:135,1,99.999997764826,10|0,2:0|2:0,2:0:0:0:
386,316,258504,6,0,P|331:314|287:282,1,99.999997764826,2|0,2:0|2:0,2:0:0:0:
82,27,258762,6,0,L|442:57,1,359.999991953373,10|8,2:1|2:0,2:0:0:0:
441,57,259538,1,2,2:0:0:0:
433,205,259667,2,0,L|253:191,1,179.999995976687,2|0,2:0|2:0,2:0:0:0:
0,164,260055,6,0,P|22:190|91:211,1,99.999997764826,2|0,2:0|2:0,2:0:0:0:
95,367,260314,2,0,P|129:360|181:314,1,99.999997764826,10|0,2:0|2:0,2:0:0:0:
260,103,260573,5,2,2:0:0:0:
364,0,260702,1,2,2:0:0:0:
493,64,260831,1,8,2:1:0:0:
463,203,261090,5,0,2:0:0:0:
170,384,261348,1,8,2:0:0:0:
61,53,261607,1,2,2:0:0:0:
463,203,261866,2,0,L|48:272,2,419.999990612269,10|2|2,2:1|2:0|2:0,2:0:0:0:
486,75,262900,6,0,P|457:58|416:54,1,74.9999983236195,10|0,2:1|2:0,2:0:0:0:
244,148,263159,1,0,2:0:0:0:
394,259,263417,1,8,2:0:0:0:
311,26,263676,2,0,B|232:37,1,74.9999983236195,2|0,2:0|2:0,2:0:0:0:
202,45,263870,1,2,2:0:0:0:
202,45,263935,5,8,2:1:0:0:
61,259,264193,1,0,2:0:0:0:
342,372,264452,1,8,2:0:0:0:
365,130,264710,5,2,2:0:0:0:
295,234,264840,1,2,2:0:0:0:
473,182,264969,1,14,2:1:0:0:
335,29,265228,5,2,2:0:0:0:
150,358,265486,1,10,2:0:0:0:
61,259,265745,5,2,2:0:0:0:
189,223,265874,1,2,2:0:0:0:
279,322,266004,1,10,2:1:0:0:
150,358,266262,5,0,2:0:0:0:
512,254,266521,1,8,2:0:0:0:
241,0,266779,5,2,2:0:0:0:
152,119,266909,1,2,2:0:0:0:
14,63,267038,1,10,2:1:0:0:
112,0,267297,5,2,2:0:0:0:
469,168,267555,1,10,2:0:0:0:
140,372,267814,5,2,2:0:0:0:
90,198,267943,1,2,2:0:0:0:
194,267,268073,1,10,2:1:0:0:
22,306,268331,5,0,2:0:0:0:
200,2,268590,1,8,2:0:0:0:
282,325,268848,5,2,2:0:0:0:
420,382,268978,1,2,2:0:0:0:
509,263,269107,1,10,2:1:0:0:
473,145,269366,5,2,2:0:0:0:
113,272,269624,1,10,2:0:0:0:
175,1,269883,5,2,2:0:0:0:
224,131,270012,1,2,2:0:0:0:
87,106,270142,1,10,2:1:0:0:
314,17,270400,5,0,2:0:0:0:
235,367,270659,1,8,2:0:0:0:
487,286,270917,5,2,2:0:0:0:
374,175,271047,1,2,2:0:0:0:
337,335,271176,1,10,2:1:0:0:
487,286,271435,5,2,2:0:0:0:
204,1,271693,1,10,2:0:0:0:
123,241,271952,5,2,2:0:0:0:
8,160,272081,1,2,2:0:0:0:
66,33,272210,1,10,2:1:0:0:
204,1,272469,5,0,2:0:0:0:
306,384,272728,1,8,2:0:0:0:
294,37,272986,5,2,2:0:0:0:
255,191,273116,1,2,2:0:0:0:
217,343,273245,1,14,2:1:0:0:
410,230,273504,5,2,2:0:0:0:
104,153,273762,1,10,2:0:0:0:
230,85,274021,5,2,2:0:0:0:
287,296,274150,2,0,L|249:167,1,109.499997552484,2|0,2:0|2:0,2:0:0:0:
256,191,274797,1,8,2:0:0:0:
355,218,275055,5,2,2:0:0:0:
230,85,275185,1,2,2:0:0:0:
181,264,275314,1,10,2:1:0:0:
206,2,275573,5,2,2:0:0:0:
309,384,275831,1,10,2:0:0:0:
413,148,276090,5,2,2:0:0:0:
95,239,276219,2,0,L|266:189,1,167.249996261672,2|0,2:0|2:0,2:0:0:0:
256,192,276866,1,8,2:0:0:0:
306,28,277124,5,2,2:0:0:0:
198,384,277383,2,0,L|219:316,1,49.999998882413,10|0,2:1|2:0,2:0:0:0:
306,28,277900,1,10,2:0:0:0:
51,139,278159,6,0,L|-5:123,1,49.999998882413,2|8,2:0|2:1,2:0:0:0:
462,244,278676,6,0,L|517:260,1,49.999998882413,2|8,2:0|2:0,2:0:0:0:
205,206,279193,5,10,2:0:0:0:
308,177,279323,5,8,2:0:0:0:
256,192,279452,5,12,2:1:0:0:
325,370,280228,5,2,2:0:0:0:
418,12,280486,1,2,2:0:0:0:
61,112,280745,1,10,2:1:0:0:
322,255,281004,5,10,2:0:0:0:
278,92,281133,1,8,2:0:0:0:
164,214,281262,1,10,2:1:0:0:
481,152,281521,6,0,P|413:54|275:97,1,277.499993797392,14|0,2:1|2:0,2:0:0:0:
164,214,282038,2,0,L|182:138,1,74.9999983236195,8|0,2:0|2:0,2:0:0:0:
114,1,282297,2,0,L|97:76,1,74.9999983236195,0|0,2:0|2:0,2:0:0:0:
50,232,282555,6,0,P|119:330|257:287,1,277.499993797392,10|0,2:1|2:0,2:0:0:0:
367,170,283073,2,0,L|350:246,1,74.9999983236195,8|0,2:0|2:0,2:0:0:0:
418,384,283331,2,0,L|435:309,1,74.9999983236195,0|0,2:0|2:0,2:0:0:0:
481,152,283590,6,0,P|413:54|275:97,1,277.499993797392,10|0,2:1|2:0,2:0:0:0:
263,119,284042,1,2,2:0:0:0:
263,119,284107,2,0,P|230:133|184:132,1,74.9999983236195,8|0,2:0|2:0,2:0:0:0:
123,54,284366,2,0,P|85:54|51:69,1,74.9999983236195,2|0,2:0|2:0,2:0:0:0:
42,377,284624,6,0,L|68:304,1,74.9999983236195,10|0,2:1|2:0,2:0:0:0:
2,154,284883,2,0,L|52:213,1,74.9999983236195,2|0,2:0|2:0,2:0:0:0:
218,229,285142,2,0,L|142:242,1,74.9999983236195,10|0,2:0|2:0,2:0:0:0:
303,341,285400,1,2,2:0:0:0:
418,375,285529,1,0,2:0:0:0:
487,277,285659,6,0,P|512:192|445:118,1,194.999995641411,10|0,2:1|2:0,2:0:0:0:
461,114,286176,6,0,P|525:181|501:272,1,194.999995641411,10|0,2:0|2:0,2:0:0:0:
171,335,286693,6,0,P|107:268|131:177,1,194.999995641411,10|0,2:1|2:0,2:0:0:0:
114,179,287210,6,0,P|93:269|132:326,1,146.249996731058,10|0,2:0|2:0,2:0:0:0:
155,363,287469,6,0,P|124:352|96:319,1,74.9999983236195,2|0,2:0|2:0,2:0:0:0:
0,275,287728,6,0,P|-6:242|3:194,1,82.4999981559815,10|0,2:1|2:0,2:0:0:0:
28,88,287986,6,0,P|54:68|112:57,1,89.9999979883433,2|0,2:0|2:0,2:0:0:0:
246,0,288245,6,0,P|285:14|320:60,1,97.4999978207053,10|0,2:0|2:0,2:0:0:0:
444,113,288504,6,0,P|448:146|421:213,1,104.999997653067,2|0,2:0|2:0,2:0:0:0:
457,324,288762,5,10,2:1:0:0:
432,327,288892,1,0,2:0:0:0:
407,331,289021,1,2,2:0:0:0:
384,334,289150,1,0,2:0:0:0:
343,259,289279,5,10,2:0:0:0:
233,246,289409,1,8,2:1:0:0:
123,233,289538,1,10,2:0:0:0:
13,220,289667,1,8,2:0:0:0:
0,113,289797,6,0,P|68:15|206:58,1,277.499993797392,10|0,2:1|2:0,2:0:0:0:
446,146,290314,2,0,L|370:163,1,74.9999983236195,8|0,2:0|2:0,2:0:0:0:
306,75,290573,2,0,L|381:57,1,74.9999983236195,0|0,2:0|2:0,2:0:0:0:
512,271,290831,6,0,P|444:369|306:326,1,277.499993797392,10|0,2:1|2:0,2:0:0:0:
66,238,291348,2,0,L|142:221,1,74.9999983236195,8|0,2:0|2:0,2:0:0:0:
206,309,291607,2,0,L|131:327,1,74.9999983236195,0|0,2:0|2:0,2:0:0:0:
5,84,291866,6,0,P|73:0|204:57,1,231.24999483116,10|0,2:1|2:0,2:0:0:0:
196,57,292254,1,2,2:0:0:0:
236,145,292383,2,0,P|283:163|324:163,1,92.4999979324642,8|0,2:0|2:0,2:0:0:0:
419,254,292642,2,0,P|459:221|478:185,1,92.4999979324642,2|0,2:0|2:0,2:0:0:0:
487,96,292900,6,0,P|463:77|427:70,1,67.4999984912575,10|0,2:1|2:0,2:0:0:0:
97,186,293159,6,0,P|124:233|172:262,1,109.999997541308,2|0,2:0|2:0,2:0:0:0:
308,359,293417,6,0,P|326:318|329:268,1,93.9999978989365,10|0,2:0|2:0,2:0:0:0:
331,79,293676,6,0,P|280:90|242:124,1,84.9999981001021,2|0,2:0|2:0,2:0:0:0:
259,203,293935,6,0,B|462:228,1,194.999995641411,10|0,2:1|2:0,2:0:0:0:
449,239,294452,6,0,B|249:215,1,194.999995641411,10|0,2:0|2:0,2:0:0:0:
26,88,294969,6,0,B|212:65,1,170.999996177853,10|0,2:1|2:0,2:0:0:0:
198,78,295486,6,0,B|9:103,1,170.999996177852,10|0,2:0|2:0,2:0:0:0:
0,255,296004,6,0,P|30:281|53:288,1,54.9999987706543,10|0,2:1|2:0,2:0:0:0:
72,372,296262,2,0,P|110:357|123:338,1,54.9999987706543,0|0,2:0|2:0,2:0:0:0:
133,255,296521,2,0,P|193:182|286:204,1,199.499995540828,10|0,2:0|2:0,2:0:0:0:
512,255,297038,6,0,P|481:281|458:288,1,54.9999987706543,10|0,2:1|2:0,2:0:0:0:
440,372,297297,2,0,P|402:357|389:338,1,54.9999987706543,0|0,2:0|2:0,2:0:0:0:
334,118,297555,21,10,2:0:0:0:
216,228,297814,21,8,2:0:0:0:
307,207,297943,5,8,2:0:0:0:
243,139,298073,5,14,2:1:0:0:
256,192,298137,12,0,304279,2:0:0:0:
