osu file format v14

[General]
AudioFilename: audio.mp3
AudioLeadIn: 0
PreviewTime: 53792
Countdown: 0
SampleSet: Soft
StackLeniency: 0.7
Mode: 0
LetterboxInBreaks: 0
WidescreenStoryboard: 1

[Editor]
DistanceSpacing: 1.3
BeatDivisor: 4
GridSize: 4
TimelineZoom: 1

[Metadata]
Title:Boku no Tonari de Koi o Shite!
TitleUnicode:僕のとなりで恋をして!
Artist:Chata
ArtistUnicode:茶太
Creator:Dored
Version:PinkHeart's Insane
Source:キミのとなりで恋してる! ~THE RESPECTIVE HAPPINESS~
Tags:Kimi no Tonari de Koi shiteru Galgame Eroge Short Version ALcotハニカム Honey Comb Misure Affirmation Neoskylove Fushimi Rio imoutosan PinkHeart Pata-Mon fuyuyu- Mamayu Kanau Silky
BeatmapID:1680592
BeatmapSetID:799418

[Difficulty]
HPDrainRate:7.2
CircleSize:4
OverallDifficulty:7.5
ApproachRate:8.5
SliderMultiplier:1.6
SliderTickRate:1

[Events]
//Background and Video events
0,0,"Nagisa2.jpg",0,0
//Break Periods
//Storyboard Layer 0 (Background)
//Storyboard Layer 1 (Fail)
//Storyboard Layer 2 (Pass)
//Storyboard Layer 3 (Foreground)
//Storyboard Sound Samples

[TimingPoints]
-2098,659.340659340659,4,2,0,40,1,0
9769,329.67032967033,4,2,0,55,1,0
10428,-133.333333333333,4,2,0,55,0,0
10922,-100,4,2,0,65,0,0
21637,-100,4,2,0,55,0,0
42653,-100,4,2,0,5,0,0
42736,-100,4,2,0,55,0,0
52461,-133.333333333333,4,2,0,55,0,0
53779,-117.647058823529,4,2,0,55,0,0
53944,-105.263157894737,4,2,0,60,0,0
54109,-95.2380952380952,4,2,0,65,0,0
54274,-86.9565217391304,4,2,0,70,0,0
54439,-100,4,2,0,75,0,1
64494,-66.6666666666667,4,2,0,75,0,0
64988,-100,4,2,0,75,0,1
75043,-100,4,2,0,70,0,1
75538,-100,4,2,0,65,0,0
86252,-100,4,2,0,60,0,0
86417,-100,4,2,0,50,0,0
88889,-100,4,2,0,5,0,0

[Colours]
Combo1 : 192,128,0
Combo2 : 0,128,192
Combo3 : 128,128,255
Combo4 : 255,192,0
Combo5 : 255,128,192

[HitObjects]
112,129,374,6,0,P|181:124|219:89,1,120,2|2,0:0|0:0,0:0:0:0:
142,48,1033,1,0,0:0:0:0:
112,129,1198,2,0,P|117:198|148:231,1,80,0|0,3:0|0:0,0:0:0:0:
160,292,1692,6,0,P|117:251|58:241,1,120,2|0,0:0|0:0,0:0:0:0:
183,369,2352,1,0,0:0:0:0:
183,369,2517,2,0,P|206:317|255:287,1,80,0|0,3:0|0:0,0:0:0:0:
417,254,3011,6,0,P|364:282|306:277,1,120,2|2,0:0|0:0,0:0:0:0:
281,154,3670,1,0,0:0:0:0:
281,154,3835,2,0,P|309:183|346:197,1,80,0|0,3:0|0:0,0:0:0:0:
432,171,4330,6,0,P|439:120|485:72,1,120,2|0,0:0|0:0,0:0:0:0:
356,117,4989,1,0,0:0:0:0:
285,70,5154,2,0,P|242:58|185:110,1,120,0|0,3:0|0:0,0:0:0:0:
221,247,5813,6,0,P|237:210|236:171,1,80,2|2,0:0|0:0,0:0:0:0:
153,297,6308,2,0,P|123:272|84:262,1,80,0|2,0:0|0:0,0:0:0:0:
154,192,6802,1,0,0:0:0:0:
237,338,6967,6,0,P|287:362|363:335,1,120,2|0,0:0|0:0,0:0:0:0:
334,212,7791,2,0,B|338:224|316:228|316:228|312:275|275:299,1,80,2|0,3:2|0:0,0:0:0:0:
280,160,8451,6,0,P|341:135|409:205,1,160,2|0,0:0|3:0,0:0:0:0:
258,68,9769,6,0,P|197:93|129:23,2,160,4|0|4,0:3|0:0|3:0,0:0:0:0:
45,40,10593,1,0,1:0:0:0:
45,40,10922,6,0,P|19:121|45:188,1,160,4|0,0:0|0:0,0:0:0:0:
122,115,11417,2,0,P|165:95|218:99,1,80,0|0,1:0|0:0,0:0:0:0:
105,264,11747,2,0,P|62:284|9:280,1,80,0|0,0:0|0:0,0:0:0:0:
182,198,12076,1,0,1:0:0:0:
214,376,12241,6,0,P|234:300|298:254,1,160,2|2,0:0|0:0,0:0:0:0:
160,123,12736,2,0,P|163:162|182:198,1,80,0|0,1:0|0:0,0:0:0:0:
363,173,13065,2,0,P|323:111|254:137,1,160,0|0,0:0|1:0,0:0:0:0:
337,27,13560,6,0,P|376:102|362:172,1,160,0|0,0:0|0:0,0:0:0:0:
234,44,14054,2,0,P|247:81|273:110,1,80,0|0,1:0|0:0,0:0:0:0:
302,277,14384,2,0,P|288:239|262:210,1,80,0|0,0:0|0:0,0:0:0:0:
201,292,14714,1,0,1:0:0:0:
503,279,14878,6,0,L|350:235,1,160,2|2,0:0|0:0,0:0:0:0:
500,184,15373,2,0,P|471:212|432:222,1,80,0|0,1:0|0:0,0:0:0:0:
450,57,15703,2,0,P|508:108|500:185,1,160,0|0,1:3|1:0,0:0:0:0:
367,40,16197,1,0,0:0:0:0:
358,175,16362,6,0,L|430:139,1,80,4|0,0:0|0:0,0:0:0:0:
231,67,16692,2,0,L|303:104,1,80,0|0,1:0|0:0,0:0:0:0:
236,329,17021,2,0,P|276:261|265:183,1,160,0|0,0:0|1:0,0:0:0:0:
434,363,17516,6,0,P|378:308|369:230,1,160,2|0,0:0|0:0,0:0:0:0:
162,352,18010,2,0,P|202:348|236:329,1,80,0|0,1:0|0:0,0:0:0:0:
370,231,18340,2,0,P|341:258|304:273,1,80,2|0,0:0|0:0,0:0:0:0:
106,231,18670,2,0,P|136:255|175:266,1,80,0|0,1:0|0:0,0:0:0:0:
319,120,18999,6,0,P|223:72|182:170,1,240,4|0,0:0|0:0,0:0:0:0:
182,170,19659,1,2,0:0:0:0:
256,192,19823,12,4,21637,0:0:0:0:
81,222,21801,6,0,P|117:195|130:164,1,80,0|0,0:0|1:0,0:0:0:0:
214,35,22131,2,0,P|196:76|200:109,1,80,0|2,0:0|0:0,0:0:0:0:
359,119,22461,2,0,P|359:42|294:4,1,160,0|0,0:0|0:0,0:0:0:0:
244,193,22955,1,0,0:0:0:0:
244,193,23120,2,0,L|159:142,2,80,0|0|0,0:0|1:0|0:0,0:0:0:0:
321,235,23615,1,2,0:2:0:0:
189,263,23779,1,2,0:0:0:0:
335,102,23944,2,0,P|366:172|322:235,1,160,0|0,1:0|0:0,0:0:0:0:
271,48,24439,6,0,P|253:89|255:123,1,80,0|0,0:0|1:0,0:0:0:0:
410,116,24769,2,0,P|375:99|335:103,1,80,0|2,0:0|0:0,0:0:0:0:
329,266,25099,2,0,P|405:262|445:196,1,160,0|0,0:0|0:0,0:0:0:0:
303,347,25593,1,0,3:0:0:0:
360,187,25758,1,0,0:0:0:0:
360,187,25922,1,0,1:0:0:0:
241,280,26087,2,0,B|166:309|146:246|59:288,1,160,0|0,3:0|0:0,0:0:0:0:
19,336,26582,1,0,1:0:0:0:
275,127,26911,5,0,0:0:0:0:
275,127,27076,2,0,P|270:82|250:55,1,80,0|0,0:0|1:0,0:0:0:0:
172,129,27406,2,0,P|175:168|198:200,1,80,0|2,0:0|0:0,0:0:0:0:
373,106,27736,2,0,P|425:95|445:202,1,160,0|0,0:0|0:0,0:0:0:0:
338,278,28230,6,0,L|250:292,1,80,0|0,0:0|0:0,0:0:0:0:
372,194,28560,1,0,1:0:0:0:
425,264,28725,1,0,0:0:0:0:
338,278,28889,1,2,0:0:0:0:
176,171,29054,2,0,P|137:237|172:306,1,160
227,109,29549,1,0,0:0:0:0:
227,109,29714,6,0,P|186:91|153:94,1,80,0|0,0:0|1:0,0:0:0:0:
217,240,30043,2,0,P|258:258|290:254,1,80,0|2,0:0|0:0,0:0:0:0:
394,69,30373,2,0,P|324:96|323:172,1,160,0|0,0:0|0:0,0:0:0:0:
500,249,30867,5,0,3:0:0:0:
499,151,31032,1,0,0:0:0:0:
411,210,31197,1,0,1:0:0:0:
410,306,31362,2,0,P|356:288|316:196,1,160,0|0,0:0|3:0,0:0:0:0:
315,199,31774,1,0,3:0:0:0:
315,199,31856,1,0,1:0:0:0:
411,210,32021,1,0,1:0:0:0:
304,116,32186,1,4,0:0:0:0:
236,228,32351,6,0,P|200:256|152:260,1,80,0|0,0:0|1:0,0:0:0:0:
164,172,32681,2,0,P|118:166|81:135,1,80,0|2,0:0|0:0,0:0:0:0:
36,228,33010,2,0,P|72:264|68:368,1,160,0|0,0:0|0:0,0:0:0:0:
68,116,33505,5,0,3:0:0:0:
68,116,33670,2,0,L|140:68,2,80,0|0|0,0:0|1:0|0:0,0:0:0:0:
0,160,34164,1,0,0:0:0:0:
56,28,34329,1,0,3:0:0:0:
144,168,34494,2,0,P|212:176|236:84,1,160,0|0,1:0|0:0,0:0:0:0:
312,200,34988,6,0,P|344:176|388:168,1,80,0|0,0:0|1:0,0:0:0:0:
380,260,35318,2,0,P|419:265|456:291,1,80,0|2,0:0|0:0,0:0:0:0:
382,167,35648,2,0,P|407:96|482:101,1,160,0|0,0:0|0:0,0:0:0:0:
408,8,36142,5,0,3:0:0:0:
480,100,36307,1,0,0:0:0:0:
382,167,36472,1,0,1:0:0:0:
308,68,36637,2,0,B|233:39|213:102|126:60,1,160,0|0,3:0|3:0,0:0:0:0:
86,12,37132,1,0,1:0:0:0:
72,272,37461,5,0,0:0:0:0:
72,272,37626,2,0,P|100:236|104:200,1,80,0|0,0:0|1:0,0:0:0:0:
64,360,37955,2,0,P|109:354|137:331,1,80,0|2,0:0|0:0,0:0:0:0:
204,240,38285,2,0,P|260:220|336:276,1,160,0|0,0:0|0:0,0:0:0:0:
228,384,38779,6,0,L|256:308,1,80,0|0,3:0|0:0,0:0:0:0:
368,172,39109,2,0,L|396:96,1,80,0|0,1:0|0:0,0:0:0:0:
224,120,39439,2,0,L|275:182,1,80,2|0,0:0|0:0,0:0:0:0:
347,297,39769,2,0,L|399:360,1,80,0|0,1:0|0:0,0:0:0:0:
238,255,40098,6,0,P|195:191|223:119,1,160,4|0,0:0|1:0,0:0:0:0:
350,165,40593,2,0,P|314:180|274:180,1,80,0|0,0:0|3:0,0:0:0:0:
124,124,40922,1,0,3:0:0:0:
56,252,41087,2,0,P|94:268|132:268,1,80,0|0,1:0|0:0,0:0:0:0:
240,212,41417,5,4,0:0:0:0:
320,172,41582,1,0,0:0:0:0:
408,168,41747,1,0,1:0:0:0:
488,204,41911,1,0,0:0:0:0:
376,333,42076,5,0,1:0:0:0:
372,244,42241,1,0,3:0:0:0:
320,172,42406,1,0,1:0:0:0:
244,124,42571,1,0,0:0:0:0:
408,164,42736,6,0,P|460:156|444:68,1,160,4|0,0:0|1:0,0:0:0:0:
360,88,43230,2,0,P|314:88|280:75,1,80,0|0,0:0|0:0,0:0:0:0:
203,31,43560,2,0,P|165:17|126:20,1,80,0|0,0:0|1:0,0:0:0:0:
124,235,43889,6,0,P|191:196|204:120,2,160,0|0|0,0:0|0:0|0:0,0:0:0:0:
46,179,44714,2,0,P|74:151|112:140,1,80,0|0,0:0|0:0,0:0:0:0:
292,208,45043,2,0,P|356:176|364:96,1,120,0|0,1:0|0:0,0:0:0:0:
371,133,45373,6,0,L|408:296,1,160,2|0,0:0|1:0,0:0:0:0:
444,80,45867,6,0,L|480:242,1,160,0|0,0:0|0:0,0:0:0:0:
272,76,46362,6,0,L|308:238,1,160,0|2,1:0|0:0,0:0:0:0:
198,325,46856,6,0,L|220:248,1,80,0|0,0:0|1:0,0:0:0:0:
104,328,47186,2,0,L|125:250,1,80,0|0,0:0|3:0,0:0:0:0:
9,330,47516,2,0,L|30:252,1,80,0|0,0:0|1:0,0:0:0:0:
36,96,47845,1,0,0:0:0:0:
65,175,48010,6,0,B|112:156|120:104|120:104|132:72|168:64,1,160,4|0,0:0|1:0,0:0:0:0:
196,144,48505,2,0,P|220:184|248:200,1,80,2|0,0:0|0:0,0:0:0:0:
324,64,48834,2,0,P|277:64|249:81,1,80,2|0,0:0|1:0,0:0:0:0:
329,214,49164,6,0,B|356:184|352:140|352:140|392:164|432:144,1,160,0|0,3:0|0:0,0:0:0:0:
415,234,49659,1,0,1:0:0:0:
397,69,49823,2,0,P|498:76|482:126,1,160,0|0,0:0|3:0,0:0:0:0:
428,145,50318,1,0,1:0:0:0:
320,40,50483,1,0,0:0:0:0:
276,184,50648,6,0,P|175:177|191:127,1,160,4|0,0:0|1:0,0:0:0:0:
260,13,51142,6,0,B|224:28|221:78|221:78|181:54|144:72,1,160,2|2,0:0|0:0,0:0:0:0:
306,83,51637,6,0,P|299:184|249:168,1,160,0|4,1:0|0:0,0:0:0:0:
392,44,52131,1,0,1:0:0:0:
421,151,52296,1,0,1:0:0:0:
499,70,52461,2,0,L|445:58,1,30.0000011444092,0|0,3:0|3:0,0:0:0:0:
392,44,52626,5,0,3:0:0:0:
312,123,52791,1,0,1:0:0:0:
283,15,52955,1,0,1:0:0:0:
392,44,53120,1,0,3:0:0:0:
341,231,53285,5,4,1:3:0:0:
341,231,53450,1,0,1:3:0:0:
341,231,53615,6,0,L|353:177,1,30.0000011444092,0|0,0:0|0:0,0:0:0:0:
272,188,53779,6,0,L|269:132,1,34.0000006484985,0|0,0:0|0:0,0:0:0:0:
195,165,53944,6,0,L|178:112,1,37.9999989852906,2|0,0:0|0:0,0:0:0:0:
113,162,54109,6,0,L|83:115,1,41.9999987182618,2|0,0:0|0:0,0:0:0:0:
35,180,54274,6,0,L|-5:142,1,46.0000008773804,0|0,0:0|0:0,0:0:0:0:
92,240,54439,6,0,P|96:288|24:364,1,160,4|0,0:0|0:0,0:0:0:0:
216,309,54933,2,0,P|256:300|296:311,1,80,0|0,1:0|0:0,0:0:0:0:
92,240,55263,2,0,P|139:302|217:309,1,160,2|0,0:0|1:0,0:0:0:0:
243,158,55758,6,0,P|320:164|367:226,1,160,2|2,0:0|0:0,0:0:0:0:
188,212,56252,2,0,P|209:178|243:158,1,80,0|0,1:0|0:0,0:0:0:0:
367,226,56582,2,0,P|443:236|503:186,1,160,0|0,3:0|1:0,0:0:0:0:
484,19,57076,6,0,P|422:66|415:143,1,160,0|0,0:0|0:0,0:0:0:0:
291,75,57571,2,0,P|256:56|216:56,1,80,0|0,1:0|0:0,0:0:0:0:
293,216,57900,2,0,P|324:145|291:75,1,160,2|0,0:0|1:0,0:0:0:0:
200,244,58395,6,0,P|136:199|126:122,1,160,2|2,0:0|0:0,0:0:0:0:
265,283,58889,2,0,P|237:255|200:244,1,80,0|0,1:0|0:0,0:0:0:0:
120,376,59219,2,0,P|158:365|187:338,1,80,0|0,1:2|3:0,0:0:0:0:
224,148,59549,1,0,1:0:0:0:
405,268,59714,6,0,P|333:293|268:252,1,160,0|0,0:0|0:0,0:0:0:0:
240,72,60208,2,0,P|219:38|185:17,1,80,0|0,1:0|0:0,0:0:0:0:
163,135,60538,2,0,P|233:169|307:144,1,160,2|0,0:0|1:0,0:0:0:0:
154,280,61032,6,0,P|129:206|164:135,1,160,2|2,0:0|0:0,0:0:0:0:
238,71,61527,2,0,P|266:42|278:5,1,80,0|0,1:0|0:0,0:0:0:0:
94,74,61856,2,0,P|56:65|18:74,1,80,2|0,0:0|3:0,0:0:0:0:
169,196,62186,2,0,P|180:234|208:264,1,80,0|0,1:0|0:0,0:0:0:0:
413,316,62516,6,0,L|256:344,1,160,4|0,0:0|1:0,0:0:0:0:
255,248,63010,1,0,0:0:0:0:
256,248,63175,6,0,L|98:275,1,160,4|0,0:0|1:0,0:0:0:0:
24,212,63670,1,0,0:0:0:0:
24,212,63834,5,4,1:0:0:0:
24,116,63999,1,2,0:0:0:0:
116,86,64164,1,4,1:0:0:0:
172,164,64329,1,0,0:0:0:0:
116,242,64494,1,0,1:0:0:0:
172,320,64659,1,0,1:0:0:0:
264,290,64823,1,0,0:0:0:0:
264,196,64988,6,0,P|292:148|392:128,1,160,4|0,0:0|0:0,0:0:0:0:
350,292,65483,2,0,P|344:253|356:216,1,80,0|0,1:0|0:0,0:0:0:0:
268,324,65812,2,0,P|219:351|123:318,1,160,2|0,0:0|1:0,0:0:0:0:
198,117,66307,6,0,P|228:189|196:260,1,160,2|2,0:0|0:0,0:0:0:0:
124,94,66801,2,0,P|164:97|198:117,1,80,0|0,1:0|0:0,0:0:0:0:
304,264,67131,2,0,P|374:296|446:266,1,160,0|0,3:0|1:0,0:0:0:0:
407,99,67626,6,0,P|329:108|284:172,1,160,0|0,0:0|0:0,0:0:0:0:
464,152,68120,2,0,P|442:118|407:99,1,80,0|0,1:0|0:0,0:0:0:0:
192,148,68450,2,0,P|201:225|265:270,1,160,2|0,0:0|1:0,0:0:0:0:
143,343,68944,6,0,P|188:279|265:269,1,160,2|2,0:0|0:0,0:0:0:0:
412,352,69439,2,0,P|372:350|338:329,1,80,0|0,1:0|0:0,0:0:0:0:
180,112,69769,1,0,1:0:0:0:
280,184,69933,1,0,3:0:0:0:
228,15,70098,2,0,L|293:62,1,80,0|0,1:0|0:0,0:0:0:0:
36,124,70428,6,0,L|166:218,1,160,4|0,0:0|1:0,0:0:0:0:
296,304,70922,2,0,P|260:264|252:240,1,80,0|0,0:0|0:0,0:0:0:0:
371,318,71252,2,0,P|332:318|295:303,1,80,0|0,0:0|1:0,0:0:0:0:
394,76,71582,6,0,P|399:154|352:216,1,160,2|2,0:0|0:0,0:0:0:0:
334,25,72076,2,0,P|369:44|394:76,1,80,0|0,1:0|0:0,0:0:0:0:
256,31,72406,2,0,P|294:21|334:25,1,80,4|0,0:0|0:0,0:0:0:0:
207,92,72736,2,0,P|225:57|256:32,1,80,0|0,1:0|0:0,0:0:0:0:
200,252,73065,6,0,P|148:310|71:321,1,160,4|0,0:0|1:0,0:0:0:0:
208,164,73560,1,0,0:0:0:0:
275,306,73725,2,0,P|337:354|415:349,1,160,2|0,0:0|1:0,0:0:0:0:
375,92,74219,6,0,L|368:252,1,160,4|0,0:0|0:0,0:0:0:0:
287,52,74714,2,0,L|280:212,1,160,0|4,1:0|1:0,0:0:0:0:
188,160,75208,1,0,1:0:0:0:
287,52,75373,1,0,1:0:0:0:
82,167,75538,6,0,P|114:238|187:264,1,160,4|0,0:0|0:0,0:0:0:0:
268,108,76032,2,0,P|300:64|324:52,1,80,0|0,1:0|0:0,0:0:0:0:
341,306,76362,2,0,P|276:263|256:188,1,160,2|0,0:0|1:0,0:0:0:0:
168,0,76856,6,0,P|203:69|182:145,1,160,2|2,0:0|0:0,0:0:0:0:
40,204,77351,2,0,P|64:172|100:155,1,80,0|0,1:0|0:0,0:0:0:0:
240,208,77681,2,0,P|315:228|385:193,1,160,0|0,3:0|1:0,0:0:0:0:
396,6,78175,6,0,P|328:45|304:119,1,160,0|0,0:0|0:0,0:0:0:0:
463,220,78670,2,0,P|467:180|452:144,1,80,0|0,1:0|0:0,0:0:0:0:
385,193,78999,2,0,P|384:271|436:329,1,160,2|0,0:0|1:0,0:0:0:0:
304,168,79494,6,0,P|236:128|159:144,1,160,2|2,0:0|0:0,0:0:0:0:
198,298,79988,2,0,P|206:259|200:220,1,80,0|0,1:0|0:0,0:0:0:0:
80,48,80318,1,0,1:0:0:0:
159,143,80483,1,0,3:0:0:0:
253,63,80648,2,0,P|290:47|329:44,1,80,0|0,1:0|0:0,0:0:0:0:
268,208,80977,6,0,P|282:170|308:141,1,80,4|0,0:0|0:0,0:0:0:0:
304,300,81307,2,0,P|264:306|225:298,1,80,0|0,1:0|0:0,0:0:0:0:
366,223,81637,2,0,P|400:280|364:380,1,160,2|0,0:0|1:0,0:0:0:0:
502,306,82131,6,0,L|366:223,1,160,2|0,0:0|0:0,0:0:0:0:
260,97,82626,2,0,L|328:139,1,80,0|0,1:0|0:0,0:0:0:0:
310,376,82955,2,0,L|312:296,1,80,2|0,0:0|0:0,0:0:0:0:
512,194,83285,2,0,L|455:232,1,80,0|0,1:0|0:0,0:0:0:0:
188,244,83615,6,0,L|324:160,1,160,4|0,0:0|1:0,0:0:0:0:
100,192,84109,1,0,0:0:0:0:
100,192,84274,2,0,L|236:108,1,160,2|0,0:0|1:0,0:0:0:0:
12,140,84769,1,0,0:0:0:0:
12,236,84933,5,4,1:0:0:0:
104,266,85098,1,2,0:0:0:0:
160,188,85263,1,4,1:0:0:0:
104,110,85428,1,0,3:0:0:0:
160,32,85593,5,0,1:0:0:0:
252,62,85757,1,0,1:0:0:0:
252,158,85922,1,0,0:0:0:0:
160,187,86087,1,0,1:0:0:0:
352,197,86252,5,4,0:0:0:0:
256,192,86417,12,0,88889,0:0:0:0:
