osu file format v14

[General]
AudioFilename: audio.mp3
AudioLeadIn: 0
PreviewTime: 53792
Countdown: 0
SampleSet: Soft
StackLeniency: 0.7
Mode: 0
LetterboxInBreaks: 0
WidescreenStoryboard: 0

[Editor]
DistanceSpacing: 1
BeatDivisor: 4
GridSize: 4
TimelineZoom: 2.1

[Metadata]
Title:Boku no Tonari de Koi o Shite!
TitleUnicode:僕のとなりで恋をして!
Artist:Chata
ArtistUnicode:茶太
Creator:Dored
Version:Misure's Insane
Source:キミのとなりで恋してる! ~THE RESPECTIVE HAPPINESS~
Tags:Kimi no Tonari de Koi shiteru Galgame Eroge Short Version ALcotハニカム Honey Comb Misure Affirmation Neoskylove Fushimi Rio imoutosan PinkHeart Pata-Mon fuyuyu- Mamayu Kanau Silky
BeatmapID:1678466
BeatmapSetID:799418

[Difficulty]
HPDrainRate:6
CircleSize:4
OverallDifficulty:8
ApproachRate:9
SliderMultiplier:1.6
SliderTickRate:1

[Events]
//Background and Video events
0,0,"Ayaka.jpg",0,0
//Break Periods
//Storyboard Layer 0 (Background)
//Storyboard Layer 1 (Fail)
//Storyboard Layer 2 (Pass)
//Storyboard Layer 3 (Foreground)
//Storyboard Sound Samples

[TimingPoints]
-2098,659.340659340659,4,2,5,40,1,0
9110,-83.3333333333333,4,2,5,40,0,0
9769,329.67032967033,4,2,5,50,1,0
9769,-125,4,2,5,50,0,0
10428,-100,4,2,5,60,0,0
10593,-100,4,2,5,70,0,0
21307,-111.111111111111,4,2,5,65,0,0
21637,-125,4,2,5,60,0,0
41417,-125,4,2,5,65,0,0
42076,-125,4,2,5,70,0,0
42736,-125,4,2,5,65,0,0
52131,-125,4,2,5,70,0,0
52790,-125,4,2,5,75,0,0
53285,-83.3333333333333,4,2,5,80,0,0
53367,-83.3333333333333,4,2,5,40,0,0
53450,-83.3333333333333,4,2,5,80,0,0
53532,-83.3333333333333,4,2,5,40,0,0
53615,-133.333333333333,4,2,5,50,0,0
53944,-133.333333333333,4,2,5,60,0,0
54109,-100,4,2,5,70,0,0
54274,-80,4,2,5,80,0,0
54439,-90.9090909090909,4,2,5,75,0,1
64823,-90.9090909090909,4,2,5,65,0,0
64988,-90.9090909090909,4,2,5,75,0,1
75538,-100,4,2,5,70,0,0
86252,-100,4,2,5,65,0,0
86582,-100,4,2,5,60,0,0
86911,-100,4,2,5,55,0,0
87241,-100,4,2,5,50,0,0
87571,-100,4,2,5,45,0,0
87900,-100,4,2,5,40,0,0
88230,-100,4,2,5,35,0,0
88560,-100,4,2,5,30,0,0
88889,-100,4,2,5,20,0,0

[Colours]
Combo1 : 255,149,19
Combo2 : 4,173,255
Combo3 : 255,70,163
Combo4 : 255,209,70
Combo5 : 255,164,209

[HitObjects]
180,204,374,5,0,0:0:0:0:
180,204,539,2,0,P|109:233|39:199,1,160,2|0,0:0|3:0,0:0:0:0:
99,60,1528,1,0,0:0:0:0:
99,60,1693,2,0,P|98:99|113:136,1,80,2|0,0:0|0:0,0:0:0:0:
198,81,2187,1,0,0:0:0:0:
309,204,2517,1,0,3:0:0:0:
309,204,2682,1,0,0:0:0:0:
472,107,3011,5,0,0:0:0:0:
472,107,3176,2,0,P|400:77|330:111,1,160,2|0,0:0|3:0,0:0:0:0:
391,252,4165,1,0,0:0:0:0:
391,252,4330,2,0,P|390:212|405:175,1,80,2|0,0:0|0:0,0:0:0:0:
488,232,4824,1,0,0:0:0:0:
349,340,5154,1,0,3:0:0:0:
349,340,5319,1,0,0:0:0:0:
148,252,5649,5,0,0:0:0:0:
148,252,5814,2,0,P|219:222|286:260,1,160,2|0,0:0|3:0,0:0:0:0:
240,368,6802,1,0,0:0:0:0:
240,368,6967,2,0,P|200:369|162:354,1,80,2|0,0:0|0:0,0:0:0:0:
148,252,7462,1,0,0:0:0:0:
148,252,7792,2,0,P|108:251|70:265,1,80,0|0,3:0|0:0,0:0:0:0:
24,80,8451,6,0,P|53:131|110:143,1,120,2|0,0:0|0:0,0:0:0:0:
212,16,9110,2,0,P|220:62|203:106,1,95.9999970703126,0|0,3:0|0:0,0:0:0:0:
128,296,9769,6,2,P|189:226|281:231,1,192,0|0,0:0|0:0,0:0:0:0:
340,320,10428,1,8,0:0:0:0:
483,121,10593,1,8,0:0:0:0:
483,121,10922,6,0,P|462:196|492:269,1,160,4|8,0:1|0:3,0:0:0:0:
340,144,11417,2,0,L|359:221,1,80,8|0,0:0|0:0,0:0:0:0:
197,199,11747,2,0,L|265:243,1,80,8|8,0:3|0:3,0:0:0:0:
165,91,12076,1,8,0:0:0:0:
48,152,12241,6,0,P|71:227|44:300,1,160,2|8,0:0|0:3,0:0:0:0:
197,199,12736,2,0,L|177:276,1,80,8|0,0:0|0:0,0:0:0:0:
360,224,13065,2,0,L|296:272,2,80,8|8|8,0:3|0:3|0:0,0:0:0:0:
296,36,13560,6,0,P|240:91|163:90,1,160,2|8,0:0|0:3,0:0:0:0:
380,116,14054,2,0,L|457:95,1,80,8|0,0:0|0:0,0:0:0:0:
283,200,14384,2,0,L|359:223,1,80,8|8,0:3|0:3,0:0:0:0:
472,192,14713,1,8,0:0:0:0:
484,328,14878,6,0,P|406:327|351:382,1,160,2|8,0:0|0:3,0:0:0:0:
244,380,15373,2,0,L|225:303,1,80,8|0,0:0|0:0,0:0:0:0:
283,200,15703,1,8,0:3:0:0:
283,200,15867,1,8,0:3:0:0:
146,285,16032,2,0,L|225:302,1,80,8|0,0:0|0:0,0:0:0:0:
71,110,16362,6,0,P|48:143|40:182,1,80,4|0,0:1|0:0,0:0:0:0:
244,111,16692,2,0,P|203:108|165:120,1,80,8|0,0:0|0:0,0:0:0:0:
329,262,17022,2,0,P|310:225|281:198,1,80,8|8,0:3|0:3,0:0:0:0:
224,301,17351,1,8,0:0:0:0:
404,384,17516,6,0,L|430:226,1,160,2|8,0:0|0:3,0:0:0:0:
376,128,18010,2,0,P|415:126|453:113,1,80,8|0,0:0|0:0,0:0:0:0:
264,8,18340,2,0,P|303:9|341:22,1,80,8|8,0:3|0:3,0:0:0:0:
192,133,18670,2,0,P|231:131|269:118,1,80,8|0,0:0|0:0,0:0:0:0:
128,24,18999,6,0,P|77:83|0:89,1,160,4|8,0:1|0:0,0:0:0:0:
0,252,19494,1,0,0:0:0:0:
80,328,19659,2,0,L|150:289,1,80,8|8,0:3|0:3,0:0:0:0:
240,136,19988,2,0,L|229:215,1,80,8|0,0:0|0:0,0:0:0:0:
409,359,20318,5,4,0:1:0:0:
353,215,20483,1,8,0:0:0:0:
288,312,20648,1,8,0:0:0:0:
456,244,20812,1,8,0:3:0:0:
456,244,20895,1,8,0:3:0:0:
456,244,20977,1,8,0:3:0:0:
356,112,21142,1,8,0:3:0:0:
212,160,21307,6,0,B|204:92|204:92|208:84|208:84|200:17,1,143.999995605469,8|4,0:0|0:1,0:0:0:0:
20,44,21801,6,0,P|51:44|81:56,2,64,0|8|0,0:0|0:0|0:0,0:0:0:0:
33,148,22296,1,0,0:0:0:0:
33,148,22461,1,8,0:3:0:0:
121,200,22626,2,0,P|139:174|154:146,1,64,8|0,0:0|0:0,0:0:0:0:
48,308,22955,6,0,P|111:313|174:326,1,128,8|8,0:3|0:0,0:0:0:0:
332,220,23450,2,0,P|269:224|206:237,1,128,8|8,0:3|0:3,0:0:0:0:
344,320,23944,2,0,P|406:332|470:338,1,128,8|8,0:0|0:3,0:0:0:0:
400,148,24439,5,0,0:0:0:0:
284,76,24604,1,8,0:0:0:0:
333,220,24769,1,0,0:0:0:0:
415,86,24933,2,0,P|411:117|400:147,1,64,0|8,0:0|0:3,0:0:0:0:
346,281,25263,2,0,P|335:251|333:220,1,64,8|0,0:0|0:0,0:0:0:0:
200,108,25593,6,0,P|169:100|137:100,2,64,8|8|8,0:3|0:3|0:0,0:0:0:0:
228,208,26087,2,0,P|164:213|101:227,1,128,8|8,0:3|0:3,0:0:0:0:
4,316,26582,2,0,P|66:330|130:335,1,128,8|8,0:0|0:3,0:0:0:0:
316,276,27076,5,0,0:0:0:0:
218,145,27241,2,0,P|219:176|227:207,1,64,8|0,0:0|0:0,0:0:0:0:
372,64,27571,1,0,0:0:0:0:
332,160,27736,1,8,0:3:0:0:
168,56,27900,2,0,P|139:42|107:37,1,64,8|0,0:0|0:0,0:0:0:0:
28,148,28230,6,0,P|38:211|55:272,1,128,8|8,0:3|0:0,0:0:0:0:
141,180,28725,2,0,P|158:118|168:55,1,128,8|8,0:3|0:3,0:0:0:0:
236,232,29219,2,0,P|246:295|263:356,1,128,8|8,0:0|0:3,0:0:0:0:
420,200,29714,6,0,P|389:211|358:218,1,64,0|8,0:0|0:0,0:0:0:0:
276,136,30043,1,0,0:0:0:0:
348,16,30208,2,0,P|352:47|362:77,1,64,0|8,0:0|0:3,0:0:0:0:
508,160,30538,1,8,0:0:0:0:
460,56,30703,1,0,0:0:0:0:
276,136,30867,6,0,P|244:130|215:117,2,64,8|8|8,0:3|0:3|0:0,0:0:0:0:
200,16,31362,2,0,P|137:28|77:48,1,128,8|8,0:3|0:3,0:0:0:0:
77,48,31774,1,8,0:3:0:0:
77,48,31856,1,8,0:0:0:0:
215,117,32021,1,8,0:3:0:0:
16,184,32186,1,4,0:1:0:0:
156,256,32351,6,0,P|156:224|150:192,2,64,0|8|0,0:0|0:0|0:0,0:0:0:0:
72,312,32846,1,0,0:0:0:0:
72,312,33011,1,8,0:3:0:0:
160,376,33176,2,0,P|189:364|221:358,1,64,8|0,0:0|0:0,0:0:0:0:
356,384,33505,6,0,P|368:321|374:257,1,128,8|8,0:3|0:0,0:0:0:0:
252,136,33999,2,0,P|257:199|270:262,1,128,8|8,0:3|0:3,0:0:0:0:
356,160,34494,2,0,P|368:97|374:33,1,128,8|8,0:0|0:3,0:0:0:0:
152,80,34988,5,0,0:0:0:0:
232,156,35154,1,8,0:0:0:0:
276,4,35319,1,0,0:0:0:0:
356,160,35483,2,0,P|344:189|341:221,1,64,0|8,0:0|0:3,0:0:0:0:
416,316,35812,1,8,0:0:0:0:
416,316,35977,1,0,0:0:0:0:
512,200,36142,6,0,P|480:204|449:213,1,64,8|8,0:3|0:3,0:0:0:0:
341,221,36472,1,8,0:0:0:0:
272,96,36637,2,0,P|333:113|396:122,1,128,8|8,0:3|0:3,0:0:0:0:
208,8,37131,2,0,P|144:17|83:34,1,128,8|8,0:0|0:3,0:0:0:0:
116,248,37626,5,0,0:0:0:0:
182,125,37791,2,0,P|192:156|196:188,1,64,8|0,0:0|0:0,0:0:0:0:
24,136,38121,1,0,0:0:0:0:
24,136,38286,1,8,0:3:0:0:
53,235,38450,2,0,P|84:244|116:248,1,64,8|0,0:0|0:0,0:0:0:0:
256,324,38780,6,0,P|194:336|132:355,2,128,8|8|0,0:3|0:0|0:0,0:0:0:0:
411,251,39604,1,8,0:3:0:0:
344,144,39768,1,8,0:0:0:0:
292,228,39933,1,0,0:0:0:0:
500,216,40098,6,0,P|509:185|513:153,1,64,8|0,0:3|0:0,0:0:0:0:
411,251,40428,2,0,P|419:314|435:376,1,128,8|0,0:0|0:0,0:0:0:0:
500,216,40922,1,8,0:3:0:0:
324,212,41087,2,0,P|312:241|304:272,1,64,8|0,0:0|0:0,0:0:0:0:
168,384,41417,5,8,0:3:0:0:
47,268,41582,1,2,0:0:0:0:
212,291,41747,1,8,0:0:0:0:
65,368,41911,1,8,0:3:0:0:
138,219,42076,1,2,0:0:0:0:
168,384,42241,1,8,0:3:0:0:
168,384,42323,1,8,0:3:0:0:
168,384,42406,1,8,0:0:0:0:
212,291,42571,1,0,0:0:0:0:
23,178,42736,6,0,P|74:215|137:219,1,128,4|8,0:1|0:0,0:0:0:0:
0,90,43230,2,0,P|25:147|78:182,1,128,2|8,0:0|0:3,0:0:0:0:
22,6,43724,2,0,P|13:36|16:68,1,64,8|0,0:0|0:0,0:0:0:0:
192,172,44054,6,0,P|254:178|311:150,1,128,8|8,0:3|0:0,0:0:0:0:
128,107,44548,2,0,P|179:144|242:148,1,128,2|8,0:0|0:3,0:0:0:0:
132,20,45043,1,8,0:0:0:0:
360,80,45373,6,0,L|344:207,2,128,8|8|0,0:3|0:0|0:0,0:0:0:0:
440,176,46197,1,8,0:3:0:0:
268,272,46362,2,0,L|247:211,1,64,8|0,0:0|0:0,0:0:0:0:
96,296,46692,6,0,P|127:292|157:281,1,64,8|8,0:3|0:3,0:0:0:0:
40,156,47021,2,0,P|29:186|25:217,1,64,8|0,0:0|0:0,0:0:0:0:
160,96,47351,2,0,P|130:83|99:77,1,64,0|8,0:0|0:3,0:0:0:0:
148,196,47681,1,8,0:0:0:0:
256,136,47845,1,0,0:0:0:0:
256,136,48010,6,0,P|270:73|278:10,1,128,4|8,0:1|0:0,0:0:0:0:
148,33,48505,2,0,P|151:65|160:96,1,64,2|0,0:0|0:0,0:0:0:0:
316,115,48834,2,0,P|285:124|256:136,1,64,8|8,0:3|0:0,0:0:0:0:
192,232,49164,6,0,P|254:243|318:248,1,128,2|0,0:0|0:0,0:0:0:0:
374,31,49659,1,8,0:0:0:0:
316,115,49823,1,0,0:0:0:0:
464,176,49988,2,0,P|471:145|474:113,2,64,0|8|8,0:0|0:3|0:0,0:0:0:0:
368,220,50483,1,0,0:0:0:0:
364,352,50648,6,0,P|425:334|488:322,1,128,4|8,0:1|0:0,0:0:0:0:
260,248,51142,2,0,P|262:279|270:310,1,64,2|0,0:0|0:0,0:0:0:0:
200,156,51472,1,8,0:3:0:0:
136,268,51637,2,0,P|73:256|11:237,1,128,8|8,0:0|0:3,0:0:0:0:
0,80,52131,5,8,0:0:0:0:
72,164,52296,1,2,0:0:0:0:
152,20,52461,1,8,0:3:0:0:
152,20,52543,1,8,0:3:0:0:
152,20,52626,1,8,0:3:0:0:
200,156,52790,2,0,P|192:187|180:217,1,64,10|8,0:0|0:3,0:0:0:0:
72,164,53120,1,8,0:0:0:0:
40,308,53285,6,0,P|63:298|85:292,1,47.9999985351563,8|0,0:0|0:0,0:0:0:0:
240,384,53450,2,0,P|216:377|194:367,1,47.9999985351563,8|0,0:0|0:0,0:0:0:0:
320,292,53615,5,2,0:0:0:0:
320,292,53697,1,2,0:0:0:0:
320,292,53779,1,2,0:0:0:0:
320,292,53862,1,2,0:0:0:0:
320,292,53944,6,0,P|323:308|328:324,1,30.0000011444092,8|0,0:3|0:0,0:0:0:0:
396,240,54109,6,0,P|415:245|434:250,1,40,8|0,0:0|0:0,0:0:0:0:
392,148,54274,6,0,P|410:129|427:111,1,50,8|0,0:0|0:0,0:0:0:0:
280,20,54439,6,0,P|303:101|383:133,1,176.000005371094,4|0,0:1|0:0,0:0:0:0:
260,212,54933,1,8,0:0:0:0:
176,60,55098,1,0,0:0:0:0:
52,144,55263,2,0,P|92:160|135:171,1,88.000002685547,8|8,0:3|0:3,0:0:0:0:
252,124,55593,1,8,0:0:0:0:
176,272,55758,6,0,P|89:280|2:292,1,176.000005371094,8|8,0:3|0:3,0:0:0:0:
96,324,56252,1,8,0:0:0:0:
135,171,56417,1,0,0:0:0:0:
268,240,56582,2,0,P|261:283|248:325,1,88.000002685547,0|8,0:0|0:3,0:0:0:0:
252,124,56911,1,8,0:0:0:0:
368,256,57076,6,0,P|439:205|508:151,1,176.000005371094,8|0,0:3|0:0,0:0:0:0:
316,48,57571,1,8,0:0:0:0:
352,156,57736,1,0,0:0:0:0:
196,152,57900,2,0,P|183:110|176:65,1,88.000002685547,8|8,0:3|0:3,0:0:0:0:
268,240,58230,1,8,0:0:0:0:
168,296,58395,6,0,P|87:261|4:233,1,176.000005371094,8|8,0:3|0:3,0:0:0:0:
296,280,58889,2,0,P|282:321|274:365,1,88.000002685547,8|0,0:0|0:0,0:0:0:0:
105,211,59219,1,0,0:0:0:0:
168,296,59384,1,8,0:3:0:0:
248,132,59549,1,8,0:0:0:0:
394,243,59714,6,0,P|435:229|479:221,2,88.000002685547,8|0|0,0:3|0:0|0:0,0:0:0:0:
266,223,60208,1,8,0:0:0:0:
360,336,60373,1,0,0:0:0:0:
196,380,60538,2,0,P|182:338|174:294,1,88.000002685547,8|8,0:3|0:3,0:0:0:0:
284,304,60867,1,8,0:0:0:0:
183,173,61032,6,0,P|120:232|35:242,1,176.000005371094,8|8,0:3|0:3,0:0:0:0:
32,72,61527,2,0,P|43:114|66:151,1,88.000002685547,8|0,0:0|0:0,0:0:0:0:
183,13,61856,2,0,P|171:55|148:92,1,88.000002685547,8|8,0:3|0:3,0:0:0:0:
33,241,62186,2,0,P|64:271|102:292,1,88.000002685547,8|0,0:0|0:0,0:0:0:0:
331,189,62516,6,0,P|271:196|156:212,2,176.000005371094,4|8|8,0:1|0:0|0:3,0:0:0:0:
468,208,63340,1,0,0:0:0:0:
331,189,63505,1,8,0:0:0:0:
384,308,63670,1,0,0:0:0:0:
416,120,63834,5,8,0:3:0:0:
336,28,63999,2,0,P|316:35|294:38,1,44.0000013427735,2|0,0:0|0:0,0:0:0:0:
208,100,64164,2,0,P|186:95|165:88,1,44.0000013427735,10|0,0:0|0:0,0:0:0:0:
61,98,64329,2,0,P|44:82|29:66,1,44.0000013427735,2|0,0:0|0:0,0:0:0:0:
0,228,64494,5,8,0:3:0:0:
33,199,64576,1,2,0:0:0:0:
77,200,64659,1,2,0:0:0:0:
112,225,64741,1,0,0:0:0:0:
127,265,64823,1,8,0:0:0:0:
111,306,64906,1,0,0:0:0:0:
76,331,64988,6,0,P|123:261|207:263,1,176.000005371094,4|0,0:1|0:0,0:0:0:0:
280,356,65482,1,8,0:0:0:0:
408,256,65647,1,0,0:0:0:0:
284,152,65812,2,0,P|292:195|303:237,1,88.000002685547,8|8,0:3|0:3,0:0:0:0:
388,104,66142,1,8,0:0:0:0:
296,24,66307,6,0,P|213:54|128:78,1,176.000005371094,8|8,0:3|0:3,0:0:0:0:
16,168,66801,2,0,P|41:203|65:240,1,88.000002685547,8|0,0:0|0:0,0:0:0:0:
208,264,67131,1,0,0:0:0:0:
132,172,67296,1,8,0:3:0:0:
48,328,67460,1,8,0:0:0:0:
244,348,67626,6,0,P|255:260|269:173,1,176.000005371094,8|0,0:3|0:0,0:0:0:0:
380,324,68120,1,8,0:0:0:0:
292,264,68285,1,0,0:0:0:0:
402,113,68450,2,0,P|415:155|421:199,1,88.000002685547,8|8,0:3|0:3,0:0:0:0:
268,173,68779,1,8,0:0:0:0:
323,0,68944,6,0,P|379:64|464:71,1,176.000005371094,8|8,0:3|0:3,0:0:0:0:
507,183,69439,2,0,P|463:187|421:199,1,88.000002685547,8|0,0:0|0:0,0:0:0:0:
268,173,69768,1,0,0:0:0:0:
364,296,69933,1,8,0:3:0:0:
196,328,70098,2,0,P|186:285|181:241,1,88.000002685547,8|0,0:0|0:0,0:0:0:0:
168,80,70428,6,0,P|112:144|27:151,1,176.000005371094,4|8,0:1|0:0,0:0:0:0:
54,283,70922,2,0,P|92:261|134:248,1,88.000002685547,0|8,0:0|0:3,0:0:0:0:
222,301,71252,2,0,P|265:301|308:311,1,88.000002685547,8|8,0:3|0:0,0:0:0:0:
368,204,71582,6,0,P|404:126|372:47,1,176.000005371094,8|8,0:3|0:3,0:0:0:0:
160,106,72076,2,0,P|160:149|170:192,1,88.000002685547,8|0,0:0|0:0,0:0:0:0:
257,242,72406,2,0,P|279:279|309:312,1,88.000002685547,0|8,0:0|0:3,0:0:0:0:
409,311,72736,2,0,P|447:332|489:345,1,88.000002685547,8|0,0:0|0:0,0:0:0:0:
503,141,73065,6,0,P|418:136|367:203,1,176.000005371094,4|8,0:1|0:0,0:0:0:0:
177,264,73560,1,0,0:0:0:0:
295,103,73725,1,8,0:3:0:0:
295,303,73889,1,8,0:3:0:0:
177,141,74054,1,8,0:0:0:0:
26,297,74219,6,0,P|108:316|176:264,1,176.000005371094,4|8,0:1|0:3,0:0:0:0:
120,52,74714,1,8,0:0:0:0:
40,156,74878,1,8,0:3:0:0:
40,156,74961,1,8,0:3:0:0:
40,156,75043,1,8,0:0:0:0:
243,176,75208,2,0,P|248:154|249:132,1,44.0000013427735,8|0,0:3|0:0,0:0:0:0:
160,222,75373,2,0,P|166:243|176:262,1,44.0000013427735,8|0,0:0|0:0,0:0:0:0:
264,336,75538,6,0,P|188:320|107:306,1,160,4|8,0:1|0:3,0:0:0:0:
40,156,76032,2,0,P|27:193|18:232,1,80,8|0,0:0|0:0,0:0:0:0:
141,129,76362,2,0,P|128:90|120:51,1,80,8|8,0:3|0:3,0:0:0:0:
248,72,76692,1,8,0:0:0:0:
360,172,76857,6,0,P|346:217|322:327,1,160,2|8,0:0|0:3,0:0:0:0:
476,360,77351,1,8,0:0:0:0:
476,360,77516,1,0,0:0:0:0:
464,264,77681,2,0,P|426:251|386:247,1,80,8|8,0:3|0:3,0:0:0:0:
322,327,78010,1,8,0:0:0:0:
204,208,78176,6,0,P|285:192|360:171,1,160,2|8,0:0|0:3,0:0:0:0:
396,28,78670,2,0,P|359:44|328:69,1,80,8|0,0:0|0:0,0:0:0:0:
232,40,78999,2,0,P|209:72|193:109,2,80,8|8|8,0:3|0:3|0:0,0:0:0:0:
80,12,79494,6,0,P|92:66|109:169,1,160,2|8,0:0|0:3,0:0:0:0:
168,324,79989,2,0,P|183:287|190:247,1,80,8|0,0:0|0:0,0:0:0:0:
44,248,80319,1,8,0:3:0:0:
44,248,80483,1,8,0:3:0:0:
109,169,80648,2,0,P|144:188|181:201,1,80,8|0,0:0|0:0,0:0:0:0:
316,320,80977,6,0,P|363:259|441:260,2,160,4|8|8,0:1|0:0|0:3,0:0:0:0:
120,288,81801,1,8,0:3:0:0:
181,201,81966,1,8,0:0:0:0:
204,360,82132,6,0,P|126:339|47:327,1,160,2|8,0:0|0:3,0:0:0:0:
62,143,82626,2,0,P|63:182|74:221,1,80,8|0,0:0|0:0,0:0:0:0:
186,55,82955,2,0,P|167:89|157:128,1,80,8|8,0:3|0:3,0:0:0:0:
337,40,83285,2,0,P|304:60|276:89,1,80,8|0,0:0|0:0,0:0:0:0:
326,271,83615,6,0,P|402:276|442:211,1,160,4|8,0:1|0:0,0:0:0:0:
221,222,84110,1,0,0:0:0:0:
305,348,84275,2,0,P|317:309|326:270,1,80,8|8,0:3|0:3,0:0:0:0:
202,145,84604,2,0,P|209:184|221:222,1,80,8|0,0:0|0:0,0:0:0:0:
484,244,84933,5,8,0:3:0:0:
444,144,85098,2,0,P|424:147|405:152,1,40,2|0,0:0|0:0,0:0:0:0:
323,112,85263,2,0,P|307:124|293:138,1,40,10|0,0:0|0:0,0:0:0:0:
202,145,85428,2,0,P|195:163|190:183,1,40,2|0,0:0|0:0,0:0:0:0:
133,279,85593,5,8,0:0:0:0:
13,142,85758,1,8,0:3:0:0:
190,183,85922,1,2,0:0:0:0:
23,253,86087,1,2,0:0:0:0:
113,98,86252,1,4,0:1:0:0:
256,192,86334,12,2,88889,3:2:0:0:
