osu file format v14

[General]
AudioFilename: audio.mp3
AudioLeadIn: 0
PreviewTime: 53792
Countdown: 0
SampleSet: Soft
StackLeniency: 0.4
Mode: 0
LetterboxInBreaks: 0
WidescreenStoryboard: 0

[Editor]
DistanceSpacing: 1.4
BeatDivisor: 4
GridSize: 16
TimelineZoom: 2.1

[Metadata]
Title:Boku no Tonari de Koi o Shite!
TitleUnicode:僕のとなりで恋をして!
Artist:Chata
ArtistUnicode:茶太
Creator:Dored
Version:Hard
Source:キミのとなりで恋してる! ~THE RESPECTIVE HAPPINESS~
Tags:Kimi no Tonari de Koi shiteru Galgame Eroge Short Version ALcotハニカム Honey Comb Misure Affirmation Neoskylove Fushimi Rio imoutosan PinkHeart Pata-Mon fuyuyu- Mamayu Kanau Silky
BeatmapID:1678465
BeatmapSetID:799418

[Difficulty]
HPDrainRate:5
CircleSize:3.8
OverallDifficulty:6
ApproachRate:7.7
SliderMultiplier:1.4
SliderTickRate:1

[Events]
//Background and Video events
0,0,"Rina2.jpg",0,0
//Break Periods
//Storyboard Layer 0 (Background)
//Storyboard Layer 1 (Fail)
//Storyboard Layer 2 (Pass)
//Storyboard Layer 3 (Foreground)
//Storyboard Sound Samples

[TimingPoints]
-2098,659.340659340659,4,2,0,40,1,0
374,-66.6666666666667,4,2,0,40,0,0
9769,329.67032967033,4,2,0,55,1,0
9769,-125,4,2,0,55,0,0
10922,-100,4,2,0,65,0,0
21637,-111.111111111111,4,2,0,55,0,0
54439,-100,4,2,0,75,0,1
63834,-100,4,2,0,75,0,0
64988,-100,4,2,0,75,0,1
75538,-100,4,2,0,60,0,0
86334,-100,4,2,0,50,0,0
88889,-100,4,2,0,5,0,0

[Colours]
Combo1 : 192,128,0
Combo2 : 0,128,192
Combo3 : 255,0,128
Combo4 : 255,192,0
Combo5 : 255,128,192

[HitObjects]
400,64,374,6,0,L|295:73,1,105.000004005432,2|0,0:0|0:0,0:0:0:0:
220,112,869,2,0,L|167:107,1,52.5000020027161,2|0,0:0|0:0,0:0:0:0:
96,64,1198,1,2,3:2:0:0:
96,232,1527,1,0,0:0:0:0:
96,232,1693,6,0,L|96:337,1,105.000004005432,2|0,0:0|3:0,0:0:0:0:
168,378,2187,2,0,L|220:373,1,52.5000020027161,2|0,0:0|0:0,0:0:0:0:
296,337,2516,1,2,3:2:0:0:
350,90,3011,6,0,L|455:99,1,105.000004005432,2|0,0:0|0:0,0:0:0:0:
455,184,3506,2,0,L|402:189,1,52.5000020027161,2|0,0:0|0:0,0:0:0:0:
352,257,3836,1,2,3:2:0:0:
268,111,4165,1,0,0:0:0:0:
268,111,4330,6,0,L|163:120,1,105.000004005432,2|0,0:0|3:2,0:0:0:0:
112,187,4825,2,0,L|112:239,1,52.5000020027161,2|0,0:0|0:0,0:0:0:0:
112,323,5154,1,2,3:2:0:0:
360,368,5649,1,0,0:0:0:0:
360,368,5814,6,0,P|411:367|456:341,1,105.000004005432,2|0,0:0|0:0,0:0:0:0:
434,259,6308,2,0,P|382:259|337:285,1,105.000004005432,2|0,0:0|0:0,0:0:0:0:
278,346,6802,1,0,0:0:0:0:
278,346,6967,6,0,P|199:337|121:332,1,157.500006008148,2|0,0:0|0:0,0:0:0:0:
31,189,7792,2,0,P|75:163|127:163,1,105.000004005432,2|0,3:2|0:0,0:0:0:0:
276,242,8451,6,0,P|328:242|373:216,1,105.000004005432,2|0,0:0|0:0,0:0:0:0:
432,155,8945,1,0,0:0:0:0:
371,95,9110,2,0,L|266:86,1,105.000004005432,2|0,3:2|0:0,0:0:0:0:
96,30,9769,6,0,L|100:85,1,56,2|0,0:0|0:0,0:0:0:0:
144,164,10098,2,0,L|139:219,1,56,2|0,0:0|0:0,0:0:0:0:
96,299,10428,1,0,1:0:0:0:
234,372,10593,1,0,1:0:0:0:
234,372,10922,6,0,P|295:342|361:360,1,140,4|0,2:1|0:0,0:0:0:0:
432,292,11417,2,0,L|425:222,1,70,0|0,1:0|0:0,0:0:0:0:
480,140,11747,2,0,L|473:70,1,70,2|0,0:0|0:0,0:0:0:0:
404,0,12076,1,0,1:0:0:0:
334,69,12241,6,0,P|264:60|194:56,1,140,2|0,0:0|0:0,0:0:0:0:
112,112,12736,2,0,L|118:181,1,70,0|0,1:0|0:0,0:0:0:0:
198,237,13065,2,0,P|263:218|325:248,1,140,2|0,0:0|1:0,0:0:0:0:
317,346,13560,6,0,P|251:364|189:334,1,140,2|0,0:0|0:0,0:0:0:0:
110,279,14054,2,0,L|40:272,1,70,0|0,1:0|0:0,0:0:0:0:
48,175,14384,2,0,L|117:181,1,70,2|0,0:0|0:0,0:0:0:0:
198,237,14714,1,0,1:0:0:0:
286,194,14878,6,0,P|290:124|298:54,1,140,2|0,0:0|0:0,0:0:0:0:
208,16,15373,2,0,L|138:22,1,70,0|0,1:0|0:0,0:0:0:0:
43,47,15703,2,0,P|20:111|47:174,1,140,2|0,0:0|1:0,0:0:0:0:
145,170,16197,1,0,0:0:0:0:
160,267,16362,6,0,L|229:274,1,70,4|0,2:1|0:0,0:0:0:0:
290,352,16692,2,0,L|359:345,1,70,0|0,1:0|0:0,0:0:0:0:
394,254,17021,2,0,L|324:247,1,70,2|0,0:0|0:0,0:0:0:0:
254,179,17351,1,0,1:0:0:0:
311,99,17516,6,0,P|245:80|183:110,1,140,2|0,0:0|0:0,0:0:0:0:
114,181,18010,2,0,L|44:174,1,70,0|0,1:0|0:0,0:0:0:0:
44,272,18340,2,0,L|113:278,1,70,2|0,0:0|0:0,0:0:0:0:
112,375,18670,2,0,L|43:369,1,70,0|0,1:0|0:0,0:0:0:0:
113,278,18999,6,0,P|174:248|240:267,1,140,4|0,2:1|1:0,0:0:0:0:
310,337,19494,1,2,0:0:0:0:
379,267,19659,2,0,P|398:201|368:139,1,140,2|0,0:0|1:0,0:0:0:0:
174,171,20318,5,4,2:1:0:0:
256,192,20400,12,0,21307,1:0:0:0:
108,67,21637,6,0,L|103:130,1,62.9999980773926,4|0,0:0|0:0,0:0:0:0:
64,208,21966,2,0,L|69:271,1,62.9999980773926,0|0,1:0|0:0,0:0:0:0:
135,326,22296,1,0,0:0:0:0:
191,257,22461,2,0,P|243:226|303:240,1,125.999996154785,2|0,0:0|0:0,0:0:0:0:
356,312,22955,6,0,L|350:374,1,62.9999980773926,2|0,0:0|0:0,0:0:0:0:
262,376,23285,2,0,L|256:313,1,62.9999980773926,0|0,1:0|0:0,0:0:0:0:
303,240,23615,1,0,0:0:0:0:
249,170,23779,2,0,P|194:144|135:161,1,125.999996154785,2|0,0:0|0:0,0:0:0:0:
91,240,24274,6,0,L|28:234,1,62.9999980773926,2|0,0:0|0:0,0:0:0:0:
18,146,24604,2,0,L|12:83,1,62.9999980773926,0|0,1:0|0:0,0:0:0:0:
74,20,24933,1,0,0:0:0:0:
137,83,25098,2,0,P|199:74|262:72,1,125.999996154785,2|0,0:0|0:0,0:0:0:0:
347,48,25593,6,0,L|409:53,1,62.9999980773926,2|0,0:0|0:0,0:0:0:0:
480,106,25922,1,0,1:0:0:0:
459,191,26087,2,0,P|450:253|448:316,1,125.999996154785,2|0,0:0|0:0,0:0:0:0:
368,348,26582,1,0,1:0:0:0:
368,348,26911,6,0,L|305:343,1,62.9999980773926,2|0,0:0|0:0,0:0:0:0:
240,284,27241,2,0,L|177:289,1,62.9999980773926,0|0,1:0|0:0,0:0:0:0:
121,356,27571,1,0,0:0:0:0:
57,295,27736,2,0,P|55:232|46:169,1,125.999996154785,2|0,0:0|0:0,0:0:0:0:
112,112,28230,6,0,L|175:117,1,62.9999980773926,2|0,0:0|0:0,0:0:0:0:
240,176,28560,2,0,L|303:171,1,62.9999980773926,0|0,1:0|0:0,0:0:0:0:
368,230,28889,1,0,0:0:0:0:
427,164,29054,2,0,P|440:103|408:50,1,125.999996154785,2|0,0:0|0:0,0:0:0:0:
327,85,29549,6,0,L|264:80,1,62.9999980773926,2|0,0:0|0:0,0:0:0:0:
198,20,29878,2,0,L|135:25,1,62.9999980773926,0|0,1:0|0:0,0:0:0:0:
68,81,30208,1,0,0:0:0:0:
125,149,30373,2,0,P|116:211|114:274,1,125.999996154785,2|0,0:0|0:0,0:0:0:0:
160,349,30867,6,0,L|223:354,1,62.9999980773926,2|0,0:0|0:0,0:0:0:0:
284,290,31197,1,0,1:0:0:0:
345,353,31362,2,0,P|406:366|459:334,1,125.999996154785,2|0,0:0|3:0,0:0:0:0:
471,292,31774,1,0,3:0:0:0:
471,292,31856,1,0,1:0:0:0:
436,210,32021,1,0,0:0:0:0:
488,138,32186,6,0,L|483:75,1,62.9999980773926,4|0,0:0|0:0,0:0:0:0:
420,14,32516,2,0,L|357:9,1,62.9999980773926,0|0,1:0|0:0,0:0:0:0:
269,2,32845,1,0,0:0:0:0:
219,76,33010,2,0,P|206:137|238:190,1,125.999996154785,2|0,0:0|0:0,0:0:0:0:
295,256,33505,6,0,L|358:251,1,62.9999980773926,2|0,0:0|0:0,0:0:0:0:
357,339,33834,2,0,L|294:344,1,62.9999980773926,0|0,1:0|0:0,0:0:0:0:
217,298,34164,1,0,0:0:0:0:
140,343,34329,2,0,P|77:339|34:295,1,125.999996154785,2|0,0:0|0:0,0:0:0:0:
114,258,34823,6,0,L|109:195,1,62.9999980773926,2|0,0:0|0:0,0:0:0:0:
36,144,35153,2,0,L|31:81,1,62.9999980773926,0|0,1:0|0:0,0:0:0:0:
92,17,35483,1,0,0:0:0:0:
156,78,35648,2,0,P|218:76|281:67,1,125.999996154785,2|0,0:0|0:0,0:0:0:0:
343,129,36142,6,0,L|337:191,1,62.9999980773926,2|0,0:0|0:0,0:0:0:0:
360,277,36472,1,0,1:0:0:0:
282,318,36637,2,0,P|219:308|156:307,1,125.999996154785,2|0,0:0|0:0,0:0:0:0:
77,346,37131,1,0,1:0:0:0:
77,346,37461,6,0,L|72:283,1,62.9999980773926,2|0,0:0|0:0,0:0:0:0:
13,218,37790,2,0,L|18:155,1,62.9999980773926,0|0,1:0|0:0,0:0:0:0:
84,98,38120,1,0,0:0:0:0:
99,185,38285,2,0,P|142:228|203:231,1,125.999996154785,2|0,0:0|0:0,0:0:0:0:
248,155,38779,6,0,L|248:92,1,62.9999980773926,2|0,0:0|0:0,0:0:0:0:
332,65,39109,2,0,L|332:128,1,62.9999980773926,0|0,1:0|0:0,0:0:0:0:
416,155,39439,2,0,L|416:92,1,62.9999980773926,2|0,0:0|0:0,0:0:0:0:
500,65,39769,2,0,L|500:128,1,62.9999980773926,0|0,1:0|0:0,0:0:0:0:
481,213,40098,6,0,P|426:242|366:226,2,125.999996154785,2|0|0,0:0|1:0|0:0,0:0:0:0:
416,155,40922,1,0,0:0:0:0:
330,148,41087,2,0,L|267:142,1,62.9999980773926,0|0,1:0|0:0,0:0:0:0:
205,80,41417,6,0,L|205:17,2,62.9999980773926,2|2|0,0:0|0:0|1:0,0:0:0:0:
142,142,41911,1,2,0:0:0:0:
205,204,42076,2,0,L|205:267,1,62.9999980773926,2|2,0:0|0:0,0:0:0:0:
205,355,42406,1,0,1:0:0:0:
205,355,42736,6,0,P|262:332|319:354,1,125.999996154785,4|0,0:0|1:0,0:0:0:0:
370,282,43230,2,0,L|432:276,1,62.9999980773926
469,356,43560,2,0,L|406:361,1,62.9999980773926,0|0,0:0|1:0,0:0:0:0:
319,354,43889,6,0,P|282:304|290:243,1,125.999996154785,2|0,0:0|0:0,0:0:0:0:
364,194,44384,1,0,1:0:0:0:
315,120,44549,2,0,L|189:130,1,125.999996154785,2|0,0:0|0:0,0:0:0:0:
154,212,45043,1,0,1:0:0:0:
154,212,45373,6,0,P|109:170|103:109,1,125.999996154785,2|0,0:0|1:0,0:0:0:0:
189,129,45867,2,0,P|202:69|252:33,1,125.999996154785,2|0,0:0|0:0,0:0:0:0:
278,119,46362,2,0,L|340:113,1,62.9999980773926,0|0,1:0|0:0,0:0:0:0:
372,196,46692,6,0,L|310:202,2,62.9999980773926,2|2|0,0:0|0:0|1:0,0:0:0:0:
459,188,47186,1,2,0:0:0:0:
422,268,47351,2,0,L|422:331,1,62.9999980773926,2|2,0:0|0:0,0:0:0:0:
340,367,47681,1,0,1:0:0:0:
263,324,47845,1,2,0:0:0:0:
245,237,48010,6,0,P|193:206|133:218,1,125.999996154785,4|0,0:0|1:0,0:0:0:0:
78,290,48505,2,0,L|83:352,1,62.9999980773926
172,356,48834,2,0,L|177:293,1,62.9999980773926,0|0,0:0|1:0,0:0:0:0:
245,237,49164,6,0,P|297:206|357:218,1,125.999996154785,2|0,0:0|0:0,0:0:0:0:
420,280,49659,1,0,1:0:0:0:
358,218,49823,2,0,P|348:155|347:92,1,125.999996154785,2|0,0:0|0:0,0:0:0:0:
408,29,50318,1,0,1:0:0:0:
431,114,50483,1,0,0:0:0:0:
346,92,50648,6,0,P|283:88|236:129,1,125.999996154785,4|0,0:0|1:0,0:0:0:0:
203,209,51142,2,0,P|155:248|94:245,1,125.999996154785,2|0,0:0|0:0,0:0:0:0:
32,181,51637,2,0,L|27:119,1,62.9999980773926,0|0,1:0|0:0,0:0:0:0:
20,30,51966,6,0,L|83:30,1,62.9999980773926,4|0,3:0|3:0,0:0:0:0:
159,74,52296,1,0,1:0:0:0:
236,31,52461,1,0,3:0:0:0:
236,31,52543,1,0,3:0:0:0:
236,31,52626,2,0,L|299:31,1,62.9999980773926,0|0,3:0|3:0,0:0:0:0:
375,75,52955,1,0,1:0:0:0:
298,118,53120,1,2,0:0:0:0:
374,162,53285,5,0,1:0:0:0:
452,32,53450,1,0,1:0:0:0:
452,32,53944,2,0,L|389:32,2,62.9999980773926,0|0|0,3:0|3:0|3:0,0:0:0:0:
467,129,54439,6,0,P|399:138|358:192,1,140,4|0,0:0|0:0,0:0:0:0:
367,291,54933,2,0,L|373:360,1,70,0|0,1:0|0:0,0:0:0:0:
275,369,55263,2,0,L|268:299,1,70,2|0,0:0|0:0,0:0:0:0:
260,202,55593,1,0,1:0:0:0:
179,257,55758,6,0,P|113:275|51:245,1,140,2|0,0:0|0:0,0:0:0:0:
73,149,56252,2,0,L|142:142,1,70,0|0,1:0|0:0,0:0:0:0:
235,107,56582,2,0,P|304:111|374:119,1,140,2|0,0:0|1:0,0:0:0:0:
399,214,57076,6,0,P|329:209|259:201,1,140,4|0,0:0|0:0,0:0:0:0:
166,236,57571,2,0,L|96:242,1,70,0|0,1:0|0:0,0:0:0:0:
27,312,57900,2,0,L|33:381,1,70,2|0,0:0|0:0,0:0:0:0:
121,337,58230,1,0,1:0:0:0:
216,369,58395,6,0,P|285:360|355:356,1,140,2|0,0:0|0:0,0:0:0:0:
405,271,58889,2,0,L|335:264,1,70,0|0,1:0|0:0,0:0:0:0:
259,201,59219,2,0,P|234:137|258:72,1,140,2|0,0:0|1:0,0:0:0:0:
332,136,59714,6,0,L|471:123,1,140,4|0,0:0|0:0,0:0:0:0:
422,38,60208,2,0,L|352:45,1,70,0|0,1:0|0:0,0:0:0:0:
257,72,60538,2,0,L|187:65,1,70,2|0,0:0|0:0,0:0:0:0:
100,20,60867,1,0,1:0:0:0:
34,92,61032,6,0,P|43:161|47:231,1,140,2|0,0:0|0:0,0:0:0:0:
133,181,61527,2,0,L|202:174,1,70,0|0,1:0|0:0,0:0:0:0:
280,234,61856,2,0,L|286:303,1,70,2|0,0:0|0:0,0:0:0:0:
363,362,62186,2,0,L|433:356,1,70,0|0,1:0|0:0,0:0:0:0:
497,281,62516,6,0,P|438:244|370:255,1,140,4|0,0:0|1:0,0:0:0:0:
286,303,63010,1,0,0:0:0:0:
198,262,63175,2,0,L|127:267,1,70,4|0,0:0|0:0,0:0:0:0:
136,364,63505,2,0,L|206:358,1,70,0|0,1:0|0:0,0:0:0:0:
286,303,63834,6,0,L|280:234,1,70,2|2,0:0|0:0,0:0:0:0:
209,165,64164,1,0,1:0:0:0:
277,95,64329,1,2,0:0:0:0:
207,27,64494,2,0,L|138:20,1,70,2|2,0:0|0:0,0:0:0:0:
57,75,64823,1,0,1:0:0:0:
80,172,64988,6,0,P|146:192|209:164,1,140,4|0,0:0|0:0,0:0:0:0:
280,234,65483,2,0,L|286:303,1,70,0|0,1:0|0:0,0:0:0:0:
363,362,65813,2,0,L|433:356,1,70,2|0,0:0|0:0,0:0:0:0:
498,285,66142,1,0,1:0:0:0:
472,191,66307,6,0,P|414:153|346:162,1,140,2|0,0:0|0:0,0:0:0:0:
280,234,66801,2,0,L|211:240,1,70,0|0,1:0|0:0,0:0:0:0:
124,191,67131,2,0,P|86:133|95:65,1,140,2|0,0:0|1:0,0:0:0:0:
188,32,67626,6,0,P|257:28|327:20,1,140,4|0,0:0|0:0,0:0:0:0:
410,72,68120,2,0,L|404:141,1,70,0|0,1:0|0:0,0:0:0:0:
327,200,68450,2,0,L|257:194,1,70,2|0,0:0|0:0,0:0:0:0:
192,120,68779,1,0,1:0:0:0:
124,191,68944,6,0,P|131:260|136:330,1,140,2|0,0:0|0:0,0:0:0:0:
230,360,69439,2,0,L|237:290,1,70,0|0,1:0|0:0,0:0:0:0:
326,330,69769,2,0,P|393:343|452:309,1,140,2|0,0:0|1:0,0:0:0:0:
466,212,70263,1,0,0:0:0:0:
452,115,70428,6,0,P|393:81|326:94,1,140,4|0,0:0|1:0,0:0:0:0:
256,162,70922,2,0,L|185:167,1,70,2|0,0:0|0:0,0:0:0:0:
112,232,71252,2,0,L|42:225,1,70,2|0,0:0|1:0,0:0:0:0:
5,133,71582,6,0,P|57:88|125:89,1,140,2|0,0:0|0:0,0:0:0:0:
186,166,72076,2,0,L|257:161,1,70,0|0,1:0|0:0,0:0:0:0:
325,94,72406,2,0,L|395:99,1,70,2|0,0:0|0:0,0:0:0:0:
467,165,72736,2,0,L|461:235,1,70,0|0,1:0|0:0,0:0:0:0:
378,287,73065,6,0,P|308:279|238:274,1,140,4|0,0:0|1:0,0:0:0:0:
160,336,73560,1,0,0:0:0:0:
68,300,73725,2,0,P|38:238|56:172,1,140,4|0,0:0|1:0,0:0:0:0:
152,196,74219,6,0,P|157:266|160:336,1,140,4|0,0:0|0:0,0:0:0:0:
251,372,74714,2,0,L|321:366,1,70,0|0,1:0|0:0,0:0:0:0:
378,287,75043,1,0,1:0:0:0:
338,197,75208,1,0,1:0:0:0:
396,118,75373,1,0,1:0:0:0:
356,28,75538,6,0,P|286:33|216:36,1,140,4|0,2:1|0:0,0:0:0:0:
163,118,76032,2,0,L|93:112,1,70,0|0,1:0|0:0,0:0:0:0:
35,192,76362,2,0,L|41:262,1,70,2|0,0:0|0:0,0:0:0:0:
93,345,76692,1,0,1:0:0:0:
177,292,76856,6,0,P|247:287|317:284,1,140,2|0,0:0|0:0,0:0:0:0:
393,345,77351,2,0,L|463:339,1,70,0|0,1:0|0:0,0:0:0:0:
512,253,77681,2,0,P|456:211|389:217,1,140,2|0,0:0|1:0,0:0:0:0:
316,284,78175,6,0,P|312:214|308:144,1,140,2|0,0:0|0:0,0:0:0:0:
222,97,78670,2,0,L|152:103,1,70,0|0,1:0|0:0,0:0:0:0:
152,5,78999,2,0,L|222:-1,1,70,2|0,0:0|0:0,0:0:0:0:
307,47,79329,1,0,1:0:0:0:
392,0,79494,6,0,P|459:12|501:66,1,140,2|0,0:0|0:0,0:0:0:0:
441,144,79988,1,0,1:0:0:0:
485,231,80153,1,0,0:0:0:0:
416,300,80318,2,0,P|346:296|276:292,1,140,2|0,0:0|1:0,0:0:0:0:
193,235,80812,1,0,0:0:0:0:
185,334,80977,6,0,L|115:328,1,70,4|0,2:1|0:0,0:0:0:0:
123,229,81307,2,0,L|193:235,1,70,0|0,1:0|0:0,0:0:0:0:
276,292,81637,2,0,L|346:286,1,70,2|0,0:0|0:0,0:0:0:0:
399,204,81966,1,0,1:0:0:0:
345,122,82131,6,0,P|275:117|205:114,1,140,2|0,0:0|0:0,0:0:0:0:
136,42,82626,2,0,L|67:48,1,70,0|0,1:0|0:0,0:0:0:0:
25,137,82955,2,0,L|31:206,1,70,2|0,0:0|0:0,0:0:0:0:
122,244,83285,2,0,L|128:175,1,70,0|0,1:0|0:0,0:0:0:0:
205,114,83615,6,0,P|272:129|312:184,1,140,4|0,2:1|1:0,0:0:0:0:
280,277,84109,1,2,0:0:0:0:
336,357,84274,2,0,P|405:353|475:349,1,140,2|0,0:0|1:0,0:0:0:0:
426,264,84769,1,0,0:0:0:0:
475,179,84933,6,0,L|469:110,1,70,2|2,0:0|0:0,0:0:0:0:
411,29,85263,1,0,1:0:0:0:
313,38,85428,1,2,0:0:0:0:
272,126,85593,2,0,L|203:120,1,70,2|2,0:0|0:0,0:0:0:0:
104,111,85922,1,0,1:0:0:0:
160,31,86087,1,2,0:0:0:0:
146,199,86252,5,4,2:1:0:0:
256,192,86334,12,0,88889,0:0:0:0:
