osu file format v14

[General]
AudioFilename: audio.mp3
AudioLeadIn: 0
PreviewTime: 53792
Countdown: 0
SampleSet: Soft
StackLeniency: 0.7
Mode: 0
LetterboxInBreaks: 0
WidescreenStoryboard: 1

[Editor]
DistanceSpacing: 1.3
BeatDivisor: 4
GridSize: 32
TimelineZoom: 1

[Metadata]
Title:Boku no Tonari de Koi o Shite!
TitleUnicode:僕のとなりで恋をして!
Artist:Chata
ArtistUnicode:茶太
Creator:Dored
Version:Rio's Insane
Source:キミのとなりで恋してる! ~THE RESPECTIVE HAPPINESS~
Tags:Kimi no Tonari de Koi shiteru Galgame Eroge Short Version ALcotハニカム Honey Comb Misure Affirmation Neoskylove Fushimi Rio imoutosan PinkHeart Pata-Mon fuyuyu- Mamayu Kanau Silky
BeatmapID:1680593
BeatmapSetID:799418

[Difficulty]
HPDrainRate:8
CircleSize:4
OverallDifficulty:8
ApproachRate:9.3
SliderMultiplier:1.6
SliderTickRate:1

[Events]
//Background and Video events
0,0,"Rina1.jpg",0,0
//Break Periods
//Storyboard Layer 0 (Background)
//Storyboard Layer 1 (Fail)
//Storyboard Layer 2 (Pass)
//Storyboard Layer 3 (Foreground)
//Storyboard Sound Samples

[TimingPoints]
-2098,659.340659340659,4,2,0,40,1,0
9769,329.67032967033,4,2,0,55,1,0
10428,-133.333333333333,4,2,0,55,0,0
10922,-100,4,2,0,65,0,0
21637,-100,4,2,0,55,0,0
42653,-100,4,2,0,5,0,0
42736,-100,4,2,0,55,0,0
53615,-66.6666666666667,4,2,0,55,0,0
53944,-66.6666666666667,4,2,0,60,0,0
54109,-66.6666666666667,4,2,0,65,0,0
54274,-66.6666666666667,4,2,0,70,0,0
54439,-100,4,2,0,75,0,1
61856,-90.9090909090909,4,2,0,75,0,1
62186,-83.3333333333333,4,2,0,75,0,1
62516,-66.6666666666667,4,2,0,75,0,1
64494,-66.6666666666667,4,2,0,75,0,0
64988,-100,4,2,0,75,0,1
75043,-66.6666666666667,4,2,0,70,0,1
75538,-100,4,2,0,65,0,0
86252,-100,4,2,0,60,0,0
86417,-100,4,2,0,50,0,0
88889,-100,4,2,0,5,0,0

[Colours]
Combo1 : 0,128,255
Combo2 : 128,128,255
Combo3 : 255,0,128
Combo4 : 255,192,0
Combo5 : 255,128,192

[HitObjects]
105,102,374,6,0,B|158:119|194:86|194:86|257:63|296:117,1,200,2|2,0:0|3:2,0:0:0:0:
288,108,1528,1,0,0:0:0:0:
227,160,1692,2,0,P|231:218|256:256,1,80,2|0,0:0|3:2,0:0:0:0:
304,286,2187,1,2,0:0:0:0:
157,247,2352,2,0,P|126:253|103:266,1,40,0|2,0:0|3:2,0:0:0:0:
354,112,3011,6,0,B|390:134|396:182|396:182|416:218|454:225,1,160,2|0,0:0|0:0,0:0:0:0:
454,225,3836,1,2,3:2:0:0:
484,50,4165,1,0,0:0:0:0:
512,168,4330,2,0,P|505:133|471:144,1,80,2|0,0:0|3:2,0:0:0:0:
474,272,4824,2,0,L|511:256,1,40,2|0,0:0|0:0,0:0:0:0:
359,263,5154,1,2,3:2:0:0:
359,263,5484,2,0,L|396:247,1,40
388,345,5813,6,0,B|336:361|294:323|294:323|260:323|250:357,1,160,2|0,0:0|3:0,0:0:0:0:
90,181,6802,2,0,L|76:144,1,40,0|2,0:0|0:0,0:0:0:0:
60,261,7132,2,0,P|112:264|150:242,1,80
210,104,7791,2,0,P|181:147|181:191,1,80,2|0,3:2|0:0,0:0:0:0:
270,331,8451,2,0,B|265:269|224:250|224:250|212:263|217:269,1,120,2|0,0:0|0:0,0:0:0:0:
256,192,9110,12,0,10263,0:0:0:0:
289,66,10428,5,4,3:0:0:0:
223,318,10593,2,0,P|230:275|214:229,1,90.0000034332277,0|0,1:0|0:0,0:0:0:0:
120,212,10922,6,0,P|152:284|223:318,1,160,4|0,0:0|0:0,0:0:0:0:
109,166,11417,2,0,P|81:199|72:247,1,80,0|0,1:0|0:0,0:0:0:0:
92,90,11747,2,0,P|157:46|235:55,1,160,0|0,0:0|1:0,0:0:0:0:
397,152,12241,6,0,P|319:143|263:198,1,160,2|2,0:0|0:0,0:0:0:0:
440,164,12736,2,0,P|424:123|387:91,1,80,0|0,1:0|0:0,0:0:0:0:
465,198,13065,2,0,P|482:158|479:109,1,80,0|0,0:0|0:0,0:0:0:0:
388,256,13395,1,0,1:0:0:0:
288,74,13560,6,0,P|216:41|147:73,1,160,0|0,0:0|0:0,0:0:0:0:
353,33,14054,2,0,P|316:46|288:74,1,80,0|0,1:0|0:0,0:0:0:0:
408,250,14384,2,0,P|416:173|362:119,1,160,0|0,0:0|1:0,0:0:0:0:
458,43,14878,6,0,P|437:115|362:119,1,160,2|2,0:0|0:0,0:0:0:0:
168,55,15373,2,0,P|118:59|91:72,1,80,0|0,1:0|0:0,0:0:0:0:
137,242,15703,1,0,1:3:0:0:
263,86,15867,1,0,3:0:0:0:
283,333,16032,2,0,P|318:349|358:350,1,80,0|0,1:0|0:0,0:0:0:0:
152,148,16362,6,0,P|112:151|77:170,1,80,4|0,0:0|0:0,0:0:0:0:
238,169,16692,2,0,P|238:129|222:92,1,80,0|0,1:0|0:0,0:0:0:0:
137,242,17021,2,0,P|197:291|275:289,1,160,0|0,0:0|1:0,0:0:0:0:
379,54,17516,6,0,P|457:45|513:100,1,160,2|0,0:0|0:0,0:0:0:0:
336,66,18011,2,0,P|352:25|389:-7,1,80,0|0,1:0|0:0,0:0:0:0:
311,100,18340,2,0,P|294:60|297:11,1,80,2|0,0:0|0:0,0:0:0:0:
317,141,18670,2,0,P|276:124|244:87,1,80,0|0,1:0|0:0,0:0:0:0:
428,235,18999,6,0,P|409:310|339:344,2,160,4|0|0,0:0|1:0|0:0,0:0:0:0:
406,142,19823,1,0,0:0:0:0:
207,255,19988,1,0,1:0:0:0:
336,250,20153,1,0,0:0:0:0:
153,40,20318,5,4,0:0:0:0:
208,249,20483,1,0,1:0:0:0:
258,0,20648,1,0,1:0:0:0:
103,282,20812,5,0,3:0:0:0:
93,300,20894,1,0,3:0:0:0:
84,318,20976,1,0,3:0:0:0:
61,172,21142,1,0,3:0:0:0:
169,380,21307,1,0,1:0:0:0:
0,257,21472,1,0,0:0:0:0:
123,88,21637,5,4,0:0:0:0:
177,268,21801,2,0,L|197:187,1,80,0|0,0:0|1:0,0:0:0:0:
241,332,22131,2,0,L|261:251,1,80,0|2,0:0|0:0,0:0:0:0:
322,346,22461,2,0,P|359:370|458:313,1,160,0|0,0:0|0:0,0:0:0:0:
429,164,22955,5,0,0:0:0:0:
382,294,23120,1,0,0:0:0:0:
368,214,23285,1,0,1:0:0:0:
444,245,23450,1,0,0:0:0:0:
306,263,23615,2,0,L|208:274,1,80,2|2,0:2|0:0,0:0:0:0:
491,120,23944,2,0,P|502:195|444:245,1,160,0|0,1:0|0:0,0:0:0:0:
370,110,24439,6,0,L|428:166,1,80,0|0,0:0|1:0,0:0:0:0:
282,133,24769,2,0,L|340:189,1,80,0|2,0:0|0:0,0:0:0:0:
296,370,25098,2,0,P|248:309|274:237,1,160,0|0,0:0|0:0,0:0:0:0:
375,361,25593,5,0,3:0:0:0:
363,223,25758,1,0,0:0:0:0:
329,297,25922,1,0,1:0:0:0:
410,289,26087,2,0,L|493:281,1,80,0|0,3:0|0:0,0:0:0:0:
168,306,26417,1,0,0:0:0:0:
329,297,26582,1,0,1:0:0:0:
99,54,26911,5,0,0:0:0:0:
74,130,27076,1,0,0:0:0:0:
20,69,27241,1,0,1:0:0:0:
152,113,27406,1,0,0:0:0:0:
47,205,27571,1,2,0:0:0:0:
152,112,27736,2,0,P|228:115|266:181,1,160,0|0,0:0|0:0,0:0:0:0:
193,263,28230,6,0,L|188:184,1,80,0|0,0:0|0:0,0:0:0:0:
274,25,28560,1,0,1:0:0:0:
266,181,28725,1,0,0:0:0:0:
280,105,28889,1,2,0:0:0:0:
286,260,29054,1,0,0:0:0:0:
345,61,29219,2,0,P|419:43|473:97,1,160,0|0,1:0|0:0,0:0:0:0:
457,176,29714,5,0,0:0:0:0:
397,122,29878,1,0,1:0:0:0:
332,263,30043,1,0,0:0:0:0:
381,200,30208,1,2,0:0:0:0:
301,189,30373,2,0,L|221:189,1,80,0|0,0:0|1:0,0:0:0:0:
281,325,30703,1,0,0:0:0:0:
216,183,30867,5,0,3:0:0:0:
296,183,31032,1,0,0:0:0:0:
178,203,31197,5,0,1:0:0:0:
333,162,31362,1,0,0:0:0:0:
152,243,31527,5,0,3:0:0:0:
359,122,31692,1,0,3:0:0:0:
366,104,31774,1,0,3:0:0:0:
366,84,31856,1,0,1:0:0:0:
276,260,32021,5,0,1:0:0:0:
235,105,32186,5,4,0:0:0:0:
181,285,32351,2,0,L|161:204,1,80,0|0,0:0|1:0,0:0:0:0:
117,349,32681,2,0,L|97:268,1,80,0|2,0:0|0:0,0:0:0:0:
55,53,33010,2,0,P|30:126|78:186,1,160,0|0,0:0|0:0,0:0:0:0:
135,36,33505,5,0,3:0:0:0:
112,113,33670,1,0,0:0:0:0:
212,18,33834,1,0,1:0:0:0:
189,95,33999,1,0,0:0:0:0:
289,0,34164,1,0,0:0:0:0:
266,77,34329,1,0,3:0:0:0:
342,58,34494,2,0,P|413:86|427:161,1,160,0|0,1:0|0:0,0:0:0:0:
367,214,34988,5,0,0:0:0:0:
351,136,35153,1,0,1:0:0:0:
442,240,35318,1,0,0:0:0:0:
306,266,35483,1,2,0:0:0:0:
288,187,35648,2,0,P|237:128|162:140,1,160,0|0,0:0|0:0,0:0:0:0:
184,280,36142,6,0,L|210:205,2,80,0|0|0,3:0|0:0|1:0,0:0:0:0:
162,363,36637,2,0,L|187:287,1,80,0|0,3:0|0:0,0:0:0:0:
268,57,36966,1,0,3:0:0:0:
216,201,37131,1,0,1:0:0:0:
268,57,37461,5,0,0:0:0:0:
394,186,37626,2,0,L|471:166,1,80,0|0,0:0|1:0,0:0:0:0:
326,120,37956,2,0,L|403:100,1,80,0|2,0:0|0:0,0:0:0:0:
335,333,38285,2,0,P|287:273|314:202,1,160,0|0,0:0|0:0,0:0:0:0:
210,294,38779,6,0,P|163:291|127:306,1,80,0|0,3:0|0:0,0:0:0:0:
368,260,39109,2,0,P|409:240|433:209,1,80,0|0,1:0|0:0,0:0:0:0:
299,50,39439,2,0,P|284:93|289:132,1,80,2|0,0:0|0:0,0:0:0:0:
277,344,39769,2,0,P|291:300|286:261,1,80,0|0,1:0|0:0,0:0:0:0:
44,88,40098,6,0,B|87:108|129:90|129:90|174:48|244:78,1,160,4|0,0:0|1:0,0:0:0:0:
256,192,40593,1,0,0:0:0:0:
363,45,40758,1,0,3:0:0:0:
187,147,40922,2,0,P|174:184|181:224,1,80,0|0,3:0|1:0,0:0:0:0:
363,227,41252,1,0,0:0:0:0:
256,80,41417,5,4,0:0:0:0:
363,45,41582,1,0,0:0:0:0:
428,136,41747,1,0,1:0:0:0:
363,227,41911,1,0,0:0:0:0:
256,192,42076,5,0,1:0:0:0:
149,157,42241,1,0,3:0:0:0:
84,248,42406,1,0,0:0:0:0:
149,339,42571,1,0,0:0:0:0:
256,304,42736,6,0,B|274:265|254:216|254:216|285:246|285:307,1,160,4|0,0:0|1:0,0:0:0:0:
182,362,43230,1,0,0:0:0:0:
170,263,43395,1,0,0:0:0:0:
339,353,43560,1,0,0:0:0:0:
170,263,43725,1,0,1:0:0:0:
375,271,43889,6,0,P|423:245|439:184,1,120,0|0,0:0|0:0,0:0:0:0:
391,124,44219,2,0,P|367:155|363:195,1,80,0|0,0:0|1:0,0:0:0:0:
466,115,44549,2,0,P|451:78|419:54,1,80,0|0,0:0|0:0,0:0:0:0:
362,194,44878,1,0,0:0:0:0:
338,66,45043,2,0,P|306:41|267:37,1,80,0|0,1:0|0:0,0:0:0:0:
73,148,45373,6,0,P|138:153|112:226,1,160,0|0,0:0|1:0,0:0:0:0:
29,72,45867,6,0,P|4:137|73:148,1,160
206,32,46362,6,0,P|230:97|161:108,1,160,0|2,1:0|0:0,0:0:0:0:
286,163,46856,5,0,0:0:0:0:
161,108,47021,1,0,1:0:0:0:
247,233,47186,1,0,0:0:0:0:
161,108,47351,1,0,3:0:0:0:
177,273,47516,1,0,0:0:0:0:
326,232,47681,2,0,P|355:206|366:168,1,80,0|0,1:0|0:0,0:0:0:0:
290,53,48010,6,0,B|260:115|288:166|288:166|291:144|304:122,1,160,4|0,0:0|1:0,0:0:0:0:
442,54,48505,2,0,P|407:73|368:74,1,80,2|0,0:0|0:0,0:0:0:0:
199,53,48834,2,0,P|159:54|125:72,1,80,2|0,0:0|1:0,0:0:0:0:
187,275,49164,2,0,P|221:217|181:142,1,160,0|0,3:0|0:0,0:0:0:0:
45,113,49659,6,0,P|105:161|180:141,1,160,0|0,1:0|3:0,0:0:0:0:
257,52,50153,1,0,3:0:0:0:
230,224,50318,1,0,1:0:0:0:
393,162,50483,1,0,0:0:0:0:
388,345,50648,6,0,P|327:296|325:219,1,160,4|0,0:0|1:0,0:0:0:0:
286,28,51142,2,0,P|343:36|378:83,1,120,2|0,0:0|0:0,0:0:0:0:
392,161,51472,1,2,0:0:0:0:
189,115,51637,2,0,B|193:145|220:160|220:160|243:112|300:105,1,160,0|4,1:0|0:0,0:0:0:0:
167,232,52131,5,0,1:0:0:0:
237,33,52296,1,0,1:0:0:0:
289,258,52461,1,0,3:0:0:0:
295,281,52543,1,0,3:0:0:0:
301,304,52626,1,0,3:0:0:0:
137,106,52790,5,0,1:0:0:0:
362,158,52955,1,0,1:0:0:0:
171,224,53120,1,0,3:0:0:0:
445,120,53285,5,4,1:3:0:0:
56,66,53450,1,0,1:3:0:0:
132,243,53615,5,0,0:0:0:0:
138,223,53697,1,0,0:0:0:0:
140,203,53779,1,0,0:0:0:0:
136,183,53862,1,0,0:0:0:0:
125,167,53944,6,0,P|93:148|63:147,1,60.0000022888184,2|0,0:0|0:0,0:0:0:0:
10,195,54109,6,0,P|9:231|24:257,1,60.0000022888184,2|0,0:0|0:0,0:0:0:0:
201,183,54274,6,0,P|201:146|187:120,1,60.0000022888184,0|0,0:0|0:0,0:0:0:0:
144,246,54439,6,0,P|193:307|270:321,1,160,4|0,0:0|0:0,0:0:0:0:
133,200,54934,2,0,P|107:235|103:283,1,80,0|0,1:0|0:0,0:0:0:0:
232,12,55263,2,0,P|246:88|201:151,1,160,2|0,0:0|1:0,0:0:0:0:
0,100,55758,6,0,P|65:57|143:66,1,160,2|2,0:0|0:0,0:0:0:0:
279,227,56252,2,0,P|314:252|362:256,1,80,0|0,1:0|0:0,0:0:0:0:
229,204,56582,2,0,P|236:246|267:284,1,80,0|0,3:0|0:0,0:0:0:0:
241,117,56911,1,0,1:0:0:0:
384,344,57076,6,0,P|440:290|434:212,1,160,0|0,0:0|0:0,0:0:0:0:
473,147,57571,2,0,P|462:185|435:213,1,80,0|0,1:0|0:0,0:0:0:0:
271,71,57900,2,0,P|348:81|394:145,1,160,2|0,0:0|1:0,0:0:0:0:
299,271,58395,6,0,B|267:216|302:161|302:161|317:182|311:202,1,160,2|2,0:0|0:0,0:0:0:0:
300,318,58889,2,0,P|259:300|232:261,1,80,0|0,1:0|0:0,0:0:0:0:
392,267,59219,1,0,1:2:0:0:
206,174,59384,1,0,3:0:0:0:
159,349,59549,1,0,1:0:0:0:
296,203,59714,6,0,P|288:126|227:79,1,160,0|0,0:0|0:0,0:0:0:0:
278,251,60208,2,0,P|316:243|348:219,1,80,0|0,1:0|0:0,0:0:0:0:
205,173,60538,2,0,P|174:244|196:319,1,160,2|0,0:0|1:0,0:0:0:0:
146,114,61032,6,0,P|214:104|205:172,1,160,2|2,0:0|0:0,0:0:0:0:
55,146,61527,6,0,P|55:87|63:67,1,80,0|0,1:0|0:0,0:0:0:0:
158,287,61856,6,0,P|125:230|123:205,1,88.000002685547,2|0,0:0|3:0,0:0:0:0:
325,350,62186,6,0,P|263:314|250:293,1,95.9999970703126,0|0,1:0|0:0,0:0:0:0:
505,263,62516,6,0,P|410:268|479:335,1,240.000009155274,4|0,0:0|1:0,0:0:0:0:
464,142,63010,1,0,0:0:0:0:
317,328,63175,6,0,P|224:303|304:251,1,240.000009155274,4|0,0:0|1:0,0:0:0:0:
138,357,63670,1,0,0:0:0:0:
165,58,63834,5,4,1:0:0:0:
91,282,63999,1,2,0:0:0:0:
208,123,64164,5,4,1:0:0:0:
0,166,64329,1,0,0:0:0:0:
195,200,64494,5,0,1:0:0:0:
69,58,64659,1,0,1:0:0:0:
110,199,64823,1,0,1:0:0:0:
297,44,64988,6,0,P|375:42|436:91,1,160,4|0,0:0|0:0,0:0:0:0:
256,74,65483,2,0,P|254:34|272:0,1,80,0|0,1:0|0:0,0:0:0:0:
467,171,65812,2,0,P|448:247|385:293,1,160,2|0,0:0|1:0,0:0:0:0:
215,119,66307,6,0,P|136:117|75:166,1,160,2|2,0:0|0:0,0:0:0:0:
256,149,66801,2,0,P|257:109|239:74,1,80,0|0,1:0|0:0,0:0:0:0:
264,199,67131,2,0,P|293:172|305:134,1,80,0|0,3:0|0:0,0:0:0:0:
177,224,67461,1,0,1:0:0:0:
327,49,67626,6,0,P|383:92|379:184,1,160,0|0,0:0|0:0,0:0:0:0:
275,41,68120,2,0,P|301:11|339:0,1,80,0|0,1:0|0:0,0:0:0:0:
326,242,68450,2,0,P|260:268|183:219,1,160,2|0,0:0|1:0,0:0:0:0:
124,327,68944,6,0,P|194:301|187:227,1,160,2|2,0:0|0:0,0:0:0:0:
98,176,69439,5,0,1:0:0:0:
187,227,69604,1,0,0:0:0:0:
213,95,69769,5,0,1:0:0:0:
67,257,69933,1,0,3:0:0:0:
40,80,70098,5,0,1:0:0:0:
193,319,70263,1,0,0:0:0:0:
294,74,70428,6,0,P|370:36|449:73,1,160,4|0,0:0|1:0,0:0:0:0:
368,310,70922,2,0,P|318:293|281:243,1,80,0|0,0:0|0:0,0:0:0:0:
372,137,71252,2,0,P|382:188|357:245,1,80,0|0,0:0|1:0,0:0:0:0:
241,114,71582,6,0,B|279:135|295:172|295:172|257:179|219:157,1,160,2|2,0:0|0:0,0:0:0:0:
117,37,72076,2,0,P|148:85|148:128,1,80,0|0,1:0|0:0,0:0:0:0:
96,258,72406,2,0,P|93:200|114:163,1,80,4|0,0:0|0:0,0:0:0:0:
284,50,72736,2,0,P|257:100|220:122,1,80,0|0,1:0|0:0,0:0:0:0:
360,58,73065,6,0,P|316:120|240:113,1,160,4|0,0:0|1:0,0:0:0:0:
425,0,73560,1,0,0:0:0:0:
335,234,73725,1,2,0:0:0:0:
426,134,73889,1,0,3:0:0:0:
467,262,74054,1,0,1:0:0:0:
240,113,74219,6,0,P|161:111|100:160,1,160,4|0,0:0|0:0,0:0:0:0:
336,164,74714,1,0,1:0:0:0:
196,215,74878,1,0,0:0:0:0:
261,56,75043,6,0,L|240:112,1,60.0000022888184,4|0,1:0|0:0,0:0:0:0:
233,261,75208,6,0,L|195:214,1,60.0000022888184,0|0,1:0|0:0,0:0:0:0:
70,134,75373,6,0,L|129:124,1,60.0000022888184,0|0,1:0|0:0,0:0:0:0:
363,67,75538,6,0,P|334:140|360:214,1,160,4|0,0:0|0:0,0:0:0:0:
386,25,76033,2,0,P|342:28|302:56,1,80,0|0,1:0|0:0,0:0:0:0:
439,287,76362,2,0,P|468:214|443:141,1,160,2|0,0:0|1:0,0:0:0:0:
257,237,76856,6,0,B|305:197|372:215|372:215|362:234|345:239,1,160,2|2,0:0|0:0,0:0:0:0:
222,273,77351,2,0,P|215:229|231:183,1,80,0|0,1:0|0:0,0:0:0:0:
216,314,77680,2,0,P|181:287|159:243,1,80,0|0,3:0|0:0,0:0:0:0:
312,326,78010,1,0,1:0:0:0:
273,111,78175,6,0,P|196:100|137:151,1,160,0|0,0:0|0:0,0:0:0:0:
331,61,78670,2,0,P|295:78|273:110,1,80,0|0,1:0|0:0,0:0:0:0:
388,278,78999,2,0,P|399:201|348:142,1,160,2|0,0:0|1:0,0:0:0:0:
405,19,79494,6,0,P|409:96|348:142,1,160,2|2,0:0|0:0,0:0:0:0:
185,104,79988,2,0,P|224:98|262:107,1,80,0|0,1:0|0:0,0:0:0:0:
57,288,80318,1,0,1:0:0:0:
103,141,80483,1,0,3:0:0:0:
205,344,80648,2,0,P|243:353|282:346,1,80,0|0,1:0|0:0,0:0:0:0:
192,200,80977,6,0,P|213:234|246:257,1,80,4|0,0:0|0:0,0:0:0:0:
284,89,81307,2,0,P|274:127|282:166,1,80,0|0,1:0|0:0,0:0:0:0:
500,180,81637,2,0,P|446:123|370:130,1,160,2|0,0:0|1:0,0:0:0:0:
154,38,82131,6,0,P|208:95|284:88,1,160,2|0,0:0|0:0,0:0:0:0:
449,36,82626,2,0,P|411:26|372:34,1,80,0|0,1:0|0:0,0:0:0:0:
281,291,82955,2,0,P|300:256|302:217,1,80,2|0,0:0|0:0,0:0:0:0:
283,87,83285,2,0,P|308:117|344:133,1,80,0|0,1:0|0:0,0:0:0:0:
457,219,83615,6,0,B|382:189|382:254|302:216,1,160,4|0,0:0|1:0,0:0:0:0:
420,291,84109,1,0,0:0:0:0:
347,147,84274,2,0,P|333:109|330:69,1,80,0|0,0:0|0:0,0:0:0:0:
338,309,84604,1,0,1:0:0:0:
424,130,84769,1,0,0:0:0:0:
173,170,84933,5,4,1:0:0:0:
271,93,85098,1,2,0:0:0:0:
208,256,85263,5,4,1:0:0:0:
237,9,85428,1,0,3:0:0:0:
261,181,85592,5,0,1:0:0:0:
184,83,85757,1,0,1:0:0:0:
347,147,85922,5,0,1:0:0:0:
99,118,86087,1,0,1:0:0:0:
413,266,86252,5,4,0:0:0:0:
256,192,86417,12,0,88889,0:0:0:0:
