osu file format v14

[General]
AudioFilename: Chata - Aru Shoujo no Senzai Ishiki.mp3
AudioLeadIn: 0
PreviewTime: 28236
Countdown: 0
SampleSet: Soft
StackLeniency: 0.4
Mode: 0
LetterboxInBreaks: 0
WidescreenStoryboard: 0

[Editor]
DistanceSpacing: 1
BeatDivisor: 6
GridSize: 8
TimelineZoom: 4.700004

[Metadata]
Title:Aru Shoujo no Senzai Ishiki
TitleUnicode:竜の涙 聲の羅針盤
Artist:Chata
ArtistUnicode:茶太
Creator:PandaHero
Version:Extra
Source:
Tags:PolyphonicBranch 超会 竜の涙 聲の羅針盤 Ryuunonamida Koenorashinban リュウノナミダ コエノラシンバン
BeatmapID:1263027
BeatmapSetID:597446

[Difficulty]
HPDrainRate:6
CircleSize:4.5
OverallDifficulty:8
ApproachRate:9.2
SliderMultiplier:2
SliderTickRate:2

[Events]
//Background and Video events
0,0,"241253252.jpg",0,0
//Break Periods
//Storyboard Layer 0 (Background)
//Storyboard Layer 1 (Fail)
//Storyboard Layer 2 (Pass)
//Storyboard Layer 3 (Foreground)
//Storyboard Sound Samples

[TimingPoints]
486,428.571428571429,5,2,1,25,1,0
486,-142.857142857143,5,2,1,25,0,0
5628,-142.857142857143,5,2,1,35,0,0
7343,-111.111111111111,5,2,1,35,0,0
8200,-90.909090909091,5,2,1,40,0,0
9057,-200,5,2,1,45,0,0
9700,-111.111111111111,5,2,1,30,0,0
10557,-111.111111111111,5,2,1,30,0,0
11200,-111.111111111111,5,2,1,30,0,0
19771,-111.111111111111,5,2,1,30,0,0
28343,-58.8235294117647,5,1,2,40,0,1
30057,-142.857142857143,5,2,2,30,0,0
30414,-142.857142857143,5,2,1,30,0,0
31758,292.682926829268,4,2,1,30,1,0
33477,285.714285714286,6,2,1,40,1,0
33477,-80,6,1,1,40,0,1
47191,-200,6,2,1,40,0,0
52334,-142.857142857143,6,2,1,40,0,0
62619,-90.9090909090909,6,2,1,40,0,0
63191,-142.857142857143,6,2,1,40,0,0
66047,292.682926829268,4,1,1,40,1,0
66047,-200,4,1,1,35,0,0
68055,292.682926829268,5,1,1,40,1,0
69480,428.571428571429,5,2,1,40,1,0
69480,-100,5,2,1,40,0,0
78051,-100,5,2,1,40,0,0
95194,-200,5,2,1,30,0,0
98620,292.682926829268,4,2,1,35,1,0
100339,285.714285714286,6,2,1,40,1,0
100339,-80,6,1,1,40,0,1
114053,-200,6,2,1,35,0,0
117481,-200,6,2,1,20,0,0
119196,-142.857142857143,6,2,1,40,0,0
126053,-111.111111111111,6,2,1,40,0,0
132904,292.682926829268,4,2,1,40,1,0
132904,-142.857142857143,4,1,1,35,0,0
133774,292.682926829268,4,2,1,40,1,0
136115,-142.857142857143,4,2,1,40,0,0
136408,-142.857142857143,4,2,1,30,0,0
136700,-142.857142857143,4,2,1,20,0,0
136993,-142.857142857143,4,2,1,15,0,0
137286,-142.857142857143,4,2,2,15,0,0
138064,428.571428571429,4,2,1,30,1,0
138064,-200,4,2,1,25,0,0
151778,-142.857142857143,4,2,1,25,0,0
165492,-200,4,2,2,30,0,0
165599,-200,4,2,2,15,0,0
167206,-200,4,2,3,30,0,0
167314,-200,4,2,3,15,0,0
168064,-200,4,2,2,30,0,0
168171,-200,4,2,2,15,0,0
168492,-200,4,2,2,5,0,0
168913,923.076923076923,4,2,4,30,1,0
169143,-100,4,2,4,15,0,0
169848,1200,4,2,5,30,1,0
170148,-100,4,2,5,15,0,0
170906,1481.48148148148,4,2,6,30,1,0
170906,-200,4,2,6,30,0,0
171276,-200,4,2,6,15,0,0
172387,-200,4,2,6,10,0,0
173868,-200,4,2,6,5,0,0

[Colours]
Combo1 : 128,128,128
Combo2 : 218,139,101
Combo3 : 213,125,125
Combo4 : 238,57,57
Combo5 : 154,14,14
Combo6 : 192,192,192

[HitObjects]
31,37,486,5,8,0:1:0:0:
121,37,700,1,2,0:0:0:0:
212,40,914,1,0,0:0:0:0:
212,40,1021,1,0,0:0:0:0:
303,37,1128,1,2,0:0:0:0:
394,37,1343,1,8,0:1:0:0:
480,110,1771,5,8,0:1:0:0:
389,110,1985,1,2,0:0:0:0:
298,113,2200,1,0,0:0:0:0:
298,113,2307,1,0,0:0:0:0:
207,110,2414,1,2,0:0:0:0:
116,110,2628,1,8,0:1:0:0:
32,184,3057,69,8,0:1:0:0:
116,212,3271,1,2,0:0:0:0:
116,300,3486,1,0,0:0:0:0:
116,300,3593,1,0,0:0:0:0:
44,352,3700,1,2,0:0:0:0:
32,184,3914,1,8,0:1:0:0:
480,184,4343,5,8,0:1:0:0:
396,212,4557,1,2,0:0:0:0:
396,300,4771,1,0,0:0:0:0:
396,300,4879,1,0,0:0:0:0:
468,352,4985,1,2,0:0:0:0:
480,184,5200,1,8,0:1:0:0:
180,40,5628,70,2,L|179:198,1,139.999995727539,6|0,0:0|0:0,0:0:0:0:
456,40,6486,2,0,L|456:130,1,69.9999978637696,6|0,0:0|0:0,0:0:0:0:
308,40,6914,2,0,L|308:134,1,69.9999978637696,6|0,0:0|0:0,0:0:0:0:
328,360,7343,6,0,L|320:253,1,89.9999972534181,6|0,0:0|0:0,0:0:0:0:
184,360,7771,2,0,L|192:253,1,89.9999972534181,6|0,0:0|0:0,0:0:0:0:
352,248,8200,6,0,L|342:113,1,110.000003356934,6|0,0:0|0:0,0:0:0:0:
160,248,8628,2,0,L|172:115,1,110.000003356934,6|0,0:0|0:0,0:0:0:0:
376,212,9057,22,2,L|364:68,1,125,2|0,0:0|0:0,0:0:0:0:
328,32,9700,6,0,L|332:70,1,29.9999990844727,2|2,0:0|0:0,0:0:0:0:
152,128,9914,2,0,L|155:166,2,29.9999990844727,2|2|2,0:0|0:0|0:0,0:0:0:0:
248,116,10128,2,0,L|253:146,2,29.9999990844727,2|2|2,0:0|0:0|0:0,0:0:0:0:
60,68,10343,70,0,L|65:113,1,29.9999990844727,2|0,0:0|0:0,0:0:0:0:
75,227,10557,2,8,L|72:196,1,29.9999990844727,0|0,0:1|0:1,0:1:0:0:
82,326,10771,1,8,0:1:0:0:
21,114,11200,22,0,P|84:107|139:78,1,89.9999972534181,6|0,0:0|0:1,0:0:0:0:
214,28,11628,1,2,1:2:0:0:
182,162,11843,2,0,L|163:223,1,44.999998626709,2|2,0:0|1:2,0:0:0:0:
251,116,12057,1,0,0:0:0:0:
433,135,12271,5,2,0:0:0:0:
389,140,12378,1,2,0:0:0:0:
348,160,12485,1,2,0:0:0:0:
318,194,12592,1,2,0:0:0:0:
298,234,12700,5,2,0:0:0:0:
342,237,12807,1,2,0:0:0:0:
383,253,12914,1,2,0:0:0:0:
412,286,13021,1,2,0:0:0:0:
379,317,13128,2,2,P|361:334|346:358,1,44.999998626709
194,353,13343,54,0,P|168:310|115:277,1,89.9999972534181,6|2,0:0|0:0,0:0:0:0:
11,307,13771,1,2,1:2:0:0:
42,192,13986,2,0,P|55:161|74:129,1,44.999998626709,2|2,0:0|1:2,0:0:0:0:
113,70,14200,1,2,0:0:0:0:
298,31,14414,5,2,0:0:0:0:
329,63,14521,1,2,0:0:0:0:
350,102,14628,1,2,0:0:0:0:
345,146,14735,1,2,0:0:0:0:
318,182,14843,5,2,0:0:0:0:
286,213,14950,1,2,0:0:0:0:
267,253,15057,1,2,0:0:0:0:
270,297,15164,1,2,0:0:0:0:
297,332,15271,2,2,P|316:351|350:363,1,44.999998626709
471,292,15486,54,0,P|479:247|470:193,1,89.9999972534181,6|2,0:0|0:0,0:0:0:0:
396,102,15914,1,2,1:2:0:0:
345,211,16128,2,0,P|334:236|328:260,1,44.999998626709,2|2,0:0|1:2,0:0:0:0:
408,177,16343,1,2,0:0:0:0:
244,97,16557,5,2,0:0:0:0:
228,138,16664,1,2,0:0:0:0:
193,166,16771,1,2,0:0:0:0:
148,171,16878,1,2,0:0:0:0:
103,160,16986,5,2,0:0:0:0:
58,165,17093,1,2,0:0:0:0:
23,193,17200,1,2,0:0:0:0:
7,234,17307,1,2,0:0:0:0:
19,277,17414,2,2,P|34:303|54:326,1,44.999998626709
191,349,17628,54,0,P|231:329|275:320,1,89.9999972534181,6|2,0:0|0:0,0:0:0:0:
402,351,18057,1,2,1:2:0:0:
355,232,18271,2,0,P|352:208|353:178,1,44.999998626709,2|2,0:0|1:2,0:0:0:0:
383,97,18486,1,2,0:0:0:0:
482,255,18700,5,2,0:0:0:0:
451,288,18807,1,2,0:0:0:0:
409,306,18914,1,2,0:0:0:0:
364,302,19021,1,2,0:0:0:0:
322,285,19128,5,2,0:0:0:0:
279,270,19235,1,2,0:0:0:0:
234,266,19342,1,2,0:0:0:0:
191,279,19449,1,2,0:0:0:0:
150,299,19557,2,2,P|119:311|83:308,1,44.999998626709
18,168,19771,53,6,0:0:0:0:
99,38,19986,1,8,0:1:0:0:
138,187,20200,2,0,L|155:253,1,44.999998626709,2|0,0:0|0:0,0:0:0:0:
190,93,20414,2,0,L|207:159,1,44.999998626709,2|2,0:0|0:0,0:0:0:0:
232,20,20628,1,2,0:0:0:0:
305,243,20843,5,2,0:0:0:0:
342,267,20950,1,2,0:0:0:0:
385,281,21057,1,2,0:0:0:0:
429,283,21164,1,2,0:0:0:0:
473,274,21271,5,2,0:0:0:0:
432,254,21378,1,2,0:0:0:0:
387,256,21485,1,2,0:0:0:0:
342,267,21592,1,2,0:0:0:0:
316,304,21700,2,2,P|308:333|306:362,1,44.999998626709
223,245,21914,54,0,P|192:207|137:184,1,89.9999972534181,6|8,0:0|0:1,0:0:0:0:
11,267,22343,2,0,L|23:337,1,44.999998626709,2|0,0:0|0:0,0:0:0:0:
65,162,22557,2,0,L|77:232,1,44.999998626709,2|2,0:0|0:0,0:0:0:0:
117,88,22771,1,2,0:0:0:0:
348,35,22986,5,2,0:0:0:0:
392,41,23093,1,2,0:0:0:0:
430,64,23200,1,2,0:0:0:0:
457,100,23307,1,2,0:0:0:0:
469,143,23414,5,2,0:0:0:0:
436,174,23521,1,2,0:0:0:0:
411,211,23628,1,2,0:0:0:0:
401,254,23735,1,2,0:0:0:0:
404,299,23843,2,2,P|421:334|443:364,1,44.999998626709
200,348,24057,53,6,0:0:0:0:
261,177,24271,1,8,0:1:0:0:
81,213,24486,2,0,P|52:220|25:229,1,44.999998626709,2|0,0:0|0:0,0:0:0:0:
141,142,24700,2,0,L|169:134|197:126,1,44.999998626709,2|2,0:0|0:0,0:0:0:0:
51,129,24914,1,2,0:0:0:0:
254,26,25128,5,2,0:0:0:0:
276,65,25235,1,2,0:0:0:0:
283,109,25342,1,2,0:0:0:0:
277,153,25449,1,2,0:0:0:0:
256,193,25557,5,2,0:0:0:0:
236,233,25664,1,2,0:0:0:0:
231,277,25771,1,2,0:0:0:0:
246,319,25878,1,2,0:0:0:0:
280,348,25986,2,2,P|313:354|350:348,1,44.999998626709
473,209,26200,54,0,P|424:206|381:229,1,89.9999972534181,6|8,0:0|0:1,0:0:0:0:
231,277,26628,2,2,L|257:333,1,44.999998626709,2|0,0:0|0:0,0:0:0:0:
132,210,26843,2,2,L|158:266,1,44.999998626709
55,165,27057,1,2,0:0:0:0:
231,60,27271,5,2,0:0:0:0:
272,76,27378,1,2,0:0:0:0:
317,81,27486,1,2,0:0:0:0:
361,75,27593,1,2,0:0:0:0:
400,52,27700,5,2,0:0:0:0:
358,25,27807,1,2,0:0:0:0:
309,18,27914,1,2,0:0:0:0:
259,22,28021,1,2,0:0:0:0:
214,42,28128,2,2,P|193:63|185:86,1,44.999998626709
29,228,28343,70,0,L|97:185,2,56.6666677474976,4|0|0,0:0|0:0|0:0,0:0:0:0:
174,197,28557,2,0,L|236:157,2,56.6666677474976
316,197,28771,2,0,L|373:160,2,56.6666677474976
430,228,28986,2,0,L|486:190,2,56.6666677474976
313,27,29200,6,0,P|307:55|304:83,1,56.6666677474976,4|0,0:0|0:0,0:0:0:0:
277,31,29343,2,0,P|277:60|281:88,1,56.6666677474976
248,44,29486,2,0,P|256:71|268:97,1,56.6666677474976
227,61,29628,2,0,P|241:85|258:108,1,56.6666677474976
213,81,29771,2,0,P|233:101|255:119,1,56.6666677474976
203,103,29914,2,0,P|227:118|254:128,1,56.6666677474976
206,128,30057,22,0,P|231:136|263:136,1,46.6666652425131,12|0,0:1|0:0,0:0:0:0:
368,113,30414,2,0,L|395:105,2,23.3333326212565,2|2|0,0:0|0:0|0:0,0:0:0:0:
388,184,30700,2,0,L|415:176,2,23.3333326212565,2|2|0,0:0|0:0|0:0,0:0:0:0:
150,230,31057,2,0,L|122:237,2,23.3333326212565,2|2|0,0:0|0:0|0:0,0:0:0:0:
166,320,31343,2,0,L|139:326,2,23.3333326212565,2|2|0,0:0|0:0|0:0,0:0:0:0:
236,262,31628,2,0,L|266:255,1,23.3333326212565,2|0,0:0|0:0,0:0:0:0:
345,239,31758,21,8,0:1:0:0:
442,120,32050,1,8,0:1:0:0:
446,276,32343,1,8,0:1:0:0:
355,67,32636,1,8,0:1:0:0:
355,332,32928,1,8,0:1:0:0:
255,31,33221,1,8,0:1:0:0:
255,353,33477,22,0,L|256:162,1,187.5,6|2,0:2|0:2,0:0:0:0:
255,165,33762,1,4,0:0:0:0:
64,62,33905,2,0,B|110:58|110:58|125:52|125:52|186:62,1,125,12|2,0:0|0:2,0:0:0:0:
309,90,34191,1,4,0:0:0:0:
34,164,34334,2,0,P|32:219|38:298,1,125,12|2,0:0|0:2,0:0:0:0:
370,202,34619,2,0,P|372:257|366:336,1,125,12|2,0:0|0:2,0:0:0:0:
194,202,34905,2,0,P|192:257|198:336,1,125,12|8,0:0|0:0,0:0:0:0:
472,361,35191,6,0,P|488:262|470:167,1,187.5,12|2,0:0|0:2,0:0:0:0:
473,176,35477,1,4,0:0:0:0:
324,126,35619,1,2,0:2:0:0:
445,35,35762,2,0,P|403:126|396:222,1,187.5,12|2,0:0|0:2,0:0:0:0:
395,212,36048,1,4,0:0:0:0:
413,336,36191,1,8,0:0:0:0:
293,297,36334,1,4,0:0:0:0:
283,172,36477,1,2,0:2:0:0:
283,172,36548,2,0,P|312:134|340:115,1,62.5,2|12,0:2|0:0,0:0:0:0:
214,248,36762,1,8,0:0:0:0:
40,361,36905,70,0,P|24:262|42:167,1,187.5,6|2,0:2|0:2,0:0:0:0:
38,176,37191,1,4,0:0:0:0:
134,96,37334,2,0,B|171:68|171:68|181:56|181:56|238:33,2,125,12|4|2,0:0|0:0|0:2,0:0:0:0:
214,248,37762,2,0,P|254:293|325:328,1,125,12|2,0:0|0:2,0:0:0:0:
435,341,38048,1,4,0:0:0:0:
445,216,38191,2,0,B|417:160|417:160|403:152|403:152|373:117,1,125,12|2,0:0|0:2,0:0:0:0:
247,129,38477,1,12,0:0:0:0:
214,248,38619,6,0,P|197:284|191:335,1,62.5,6|0,0:2|0:2,0:2:0:0:
185,218,38762,2,0,P|164:251|154:301,1,62.5,2|0,0:2|0:2,0:2:0:0:
157,185,38905,2,0,P|133:216|119:265,1,62.5,2|0,0:2|0:2,0:2:0:0:
143,151,39048,2,0,P|116:180|98:228,1,62.5,2|0,0:2|0:2,0:2:0:0:
142,120,39191,2,0,P|113:147|90:192,1,62.5,2|0,0:2|0:2,0:2:0:0:
146,90,39334,2,0,P|114:114|88:158,1,62.5,2|0,0:2|0:2,0:2:0:0:
150,59,39477,69,2,0:3:0:0:
121,70,39548,1,2,0:3:0:0:
95,88,39619,1,2,0:3:0:0:
75,112,39691,1,2,0:3:0:0:
58,138,39762,5,2,0:3:0:0:
47,174,39834,1,2,0:3:0:0:
42,210,39905,1,2,0:3:0:0:
45,247,39977,1,2,0:3:0:0:
56,282,40048,69,2,0:3:0:0:
105,282,40119,1,2,0:3:0:0:
153,294,40191,1,2,0:3:0:0:
195,319,40262,1,2,0:3:0:0:
230,354,40334,6,0,P|336:343|397:280,1,187.5,6|2,0:2|0:2,0:0:0:0:
391,289,40619,1,4,0:0:0:0:
481,87,40762,2,0,B|448:119|448:119|434:127|434:127|403:180,1,125,12|2,0:0|0:2,0:0:0:0:
343,292,41048,1,4,0:0:0:0:
212,117,41191,2,0,P|181:174|178:242,1,125,12|2,0:0|0:2,0:0:0:0:
82,25,41477,2,0,P|51:82|48:150,1,125,12|2,0:0|0:2,0:0:0:0:
318,266,41762,2,0,P|287:319|236:356,1,125,12|8,0:0|0:0,0:0:0:0:
47,356,42048,70,0,P|103:269|202:228,1,187.5,12|2,0:0|0:2,0:0:0:0:
175,232,42334,1,4,0:0:0:0:
296,261,42477,1,8,0:0:0:0:
465,356,42619,2,0,P|438:300|392:258,1,125,12|2,0:0|0:2,0:0:0:0:
448,73,42905,2,0,P|392:99|350:145,1,125,12|2,0:0|0:2,0:0:0:0:
296,261,43191,1,4,0:0:0:0:
244,146,43334,1,12,0:0:0:0:
244,146,43405,2,0,P|209:112|177:97,1,62.5,2|4,0:2|0:0,0:0:0:0:
52,136,43619,1,12,0:0:0:0:
160,339,43762,6,0,P|256:356|369:331,1,187.5,6|2,0:2|0:2,0:0:0:0:
343,341,44048,1,4,0:0:0:0:
475,244,44191,2,0,B|430:233|430:233|415:226|415:226|343:226,2,125,12|4|12,0:0|0:0|0:0,0:0:0:0:
160,192,44619,2,0,L|24:192,1,125,12|2,0:0|0:2,0:0:0:0:
256,192,44905,1,4,0:0:0:0:
382,50,45048,2,0,B|337:39|337:39|322:32|322:32|257:33,2,125,12|4|12,0:0|0:0|0:0,0:0:0:0:
221,134,45477,53,6,0:2:0:0:
190,128,45548,1,0,0:2:0:0:
159,132,45619,1,2,0:2:0:0:
129,143,45691,1,0,0:2:0:0:
103,161,45762,1,2,0:2:0:0:
84,186,45834,1,0,0:2:0:0:
68,219,45905,5,2,0:2:0:0:
66,256,45976,1,0,0:2:0:0:
82,297,46048,1,2,0:2:0:0:
109,330,46119,1,0,0:2:0:0:
148,350,46191,1,2,0:2:0:0:
197,355,46262,1,0,0:2:0:0:
242,334,46334,5,6,0:2:0:0:
283,306,46405,1,0,0:2:0:0:
330,291,46476,1,2,0:2:0:0:
380,295,46548,1,0,0:2:0:0:
433,311,46619,1,2,0:2:0:0:
377,338,46690,1,0,0:2:0:0:
315,330,46761,1,2,0:2:0:0:
267,288,46833,1,0,0:2:0:0:
236,232,46905,2,0,P|181:213|113:229,1,125,6|2,0:2|0:2,0:2:0:0:
32,128,47191,38,2,B|107:53|107:53|199:32,1,200,6|0,0:0|0:0,0:0:0:0:
215,68,48048,2,2,B|122:89|122:89|46:162,1,200,2|0,0:0|0:0,0:0:0:0:
103,255,48905,2,0,P|121:237|141:222,1,50,2|0,0:0|0:0,0:0:0:0:
298,151,49191,2,0,P|250:161|198:187,1,100,2|0,0:0|0:0,0:0:0:0:
67,323,49619,1,2,0:0:0:0:
67,323,49762,2,2,B|127:359|158:324|192:285|265:352,1,200,2|0,0:0|0:0,0:0:0:0:
467,294,50619,53,2,0:0:0:0:
438,304,50905,1,2,0:0:0:0:
410,315,51191,1,2,0:0:0:0:
391,323,51477,5,2,0:0:0:0:
372,329,51762,1,2,0:0:0:0:
352,334,52048,1,2,0:0:0:0:
334,338,52334,6,2,P|273:293|240:196,1,174.999994659424,6|0,0:0|0:0,0:0:0:0:
240,202,52762,1,8,0:1:0:0:
191,125,52905,1,2,0:0:0:0:
100,129,53048,1,2,0:0:0:0:
58,209,53191,2,2,P|37:264|35:359,2,139.999995727539,8|2|2,0:1|1:2|1:2,0:0:0:0:
222,30,54048,5,2,0:0:0:0:
484,36,54334,2,0,L|473:115,1,69.9999978637696,2|8,0:0|0:1,0:0:0:0:
313,36,54619,2,0,L|324:115,1,69.9999978637696,2|0,1:2|0:1,0:0:0:0:
468,348,54905,2,0,L|457:269,1,69.9999978637696,8|0,1:1|0:0,0:0:0:0:
333,194,55191,2,0,L|342:263,1,69.9999978637696,2|0,1:2|0:0,0:0:0:0:
215,165,55477,2,0,L|206:96,1,69.9999978637696,8|0,1:1|0:0,0:0:0:0:
34,41,55762,70,2,P|17:118|36:227,1,174.999994659424,6|0,1:2|0:0,0:0:0:0:
30,212,56191,1,8,0:1:0:0:
168,291,56334,2,0,P|192:316|209:352,1,69.9999978637696,0|2,0:0|0:0,0:0:0:0:
29,370,56619,2,2,P|54:313|120:246,2,139.999995727539,8|2|2,0:1|1:2|1:2,0:0:0:0:
388,73,57477,2,0,P|367:109|366:142,1,69.9999978637696,2|0,1:2|0:0,0:0:0:0:
263,115,57762,2,0,P|283:150|312:168,1,69.9999978637696,2|8,0:0|1:1,0:0:0:0:
226,242,58048,2,0,P|267:241|296:225,1,69.9999978637696,2|0,0:0|0:0,0:0:0:0:
331,26,58334,6,0,P|320:66|328:98,1,69.9999978637696,8|0,1:1|0:0,0:0:0:0:
180,140,58619,2,0,P|209:169|241:178,1,69.9999978637696,2|0,1:2|0:0,0:0:0:0:
200,335,58905,2,0,P|240:324|264:301,1,69.9999978637696,8|0,1:1|0:0,0:0:0:0:
419,111,59191,70,2,P|455:164|460:226,1,104.999996795654,6|0,1:2|0:0,0:0:0:0:
461,210,59477,1,4,0:1:0:0:
445,300,59619,1,8,0:1:0:0:
363,341,59762,1,4,0:1:0:0:
284,294,59905,1,8,0:1:0:0:
132,348,60048,2,0,P|104:301|44:266,1,104.999996795654,2|0,0:0|0:0,0:0:0:0:
58,268,60334,2,0,P|100:237|126:192,1,104.999996795654,4|0,1:1|0:0,0:0:0:0:
122,185,60619,2,0,P|88:152|62:136,1,69.9999978637696,8|0,1:0|0:0,0:0:0:0:
199,41,60905,6,2,P|255:47|326:30,1,104.999996795654,6|0,0:0|0:0,0:0:0:0:
309,37,61191,1,4,0:1:0:0:
487,122,61334,1,8,0:1:0:0:
487,122,61477,2,0,P|427:143|375:134,1,104.999996795654,2|0,0:0|0:0,0:0:0:0:
356,298,61762,2,0,P|335:238|344:186,1,104.999996795654,2|0,0:0|0:0,0:0:0:0:
239,146,62048,2,0,P|273:129|318:127,1,69.9999978637696,12|0,1:1|0:0,0:0:0:0:
418,224,62334,2,0,P|435:258|437:303,1,69.9999978637696,12|0,1:1|0:0,0:0:0:0:
252,354,62619,70,2,B|191:300|171:331|155:357|90:289,1,165.000005035401,6|0,1:2|0:0,0:0:0:0:
96,298,62905,1,4,0:1:0:0:
13,214,63048,1,8,0:1:0:0:
61,81,63191,2,0,P|98:112|126:148,1,69.9999978637696,4|0,0:1|0:0,0:0:0:0:
233,41,63477,2,2,P|233:95|210:169,1,104.999996795654,6|0,1:2|0:0,0:0:0:0:
217,157,63762,1,4,0:1:0:0:
173,245,63905,1,8,0:1:0:0:
295,224,64048,2,0,B|343:260|343:260|368:324,1,104.999996795654,4|0,0:1|0:0,0:0:0:0:
362,315,64334,6,2,P|393:258|399:199,1,104.999996795654,6|0,1:2|0:0,0:0:0:0:
395,147,64619,2,0,P|384:120|349:83,1,69.9999978637696,12|0,0:1|0:0,0:0:0:0:
201,30,64905,2,0,P|226:53|243:84,1,69.9999978637696,12|0,0:1|0:0,0:0:0:0:
95,35,65191,2,0,P|124:53|146:81,1,69.9999978637696,2|0,0:0|0:0,0:0:0:0:
60,188,65477,2,0,P|93:198|121:219,1,69.9999978637696,8|0,0:1|0:0,0:0:0:0:
0,265,65762,2,0,P|34:263|68:273,1,69.9999978637696,12|0,0:1|0:0,0:0:0:0:
281,358,66047,37,6,0:2:0:0:
485,225,66339,1,2,0:2:0:0:
485,225,66412,1,0,0:2:0:0:
485,225,66486,1,2,0:2:0:0:
412,359,66632,1,2,0:2:0:0:
385,140,66925,1,2,0:2:0:0:
342,225,67071,1,2,0:2:0:0:
342,225,67144,1,0,0:2:0:0:
342,225,67217,1,2,0:2:0:0:
430,67,67364,1,2,0:2:0:0:
281,84,67510,2,0,P|255:126|232:183,1,100,2|0,0:2|0:2,0:2:0:0:
219,133,68055,6,2,P|233:105|255:72,2,50,2|2|2,0:2|0:2|0:2,0:2:0:0:
188,234,68347,1,2,0:2:0:0:
321,32,68640,1,2,0:2:0:0:
31,68,68933,1,2,0:2:0:0:
75,158,69080,1,2,0:2:0:0:
140,82,69226,1,2,0:2:0:0:
30,347,69480,6,0,P|105:331|192:360,2,150,6|2|0,1:2|1:2|1:2,0:2:0:0:
232,78,70551,2,0,P|230:107|232:132,1,50,2|0,0:0|0:0,0:0:0:0:
326,137,70765,2,0,P|324:166|326:191,1,50,2|0,0:0|0:0,0:0:0:0:
415,204,70980,2,0,P|413:233|415:258,1,50,2|0,0:0|0:0,0:0:0:0:
269,343,71194,2,0,P|293:359|315:369,1,50,2|0,0:0|0:0,0:0:0:0:
327,257,71408,2,0,P|339:283|354:303,1,50,0|0,1:2|1:2,0:2:0:0:
481,203,71622,6,0,P|475:125|430:55,2,150,6|2|2,1:2|1:2|1:2,0:2:0:0:
134,355,72694,1,2,0:0:0:0:
154,309,72801,1,0,0:0:0:0:
154,259,72908,1,2,0:0:0:0:
135,214,73015,1,0,0:0:0:0:
109,171,73122,5,2,0:0:0:0:
97,122,73229,1,0,0:0:0:0:
104,72,73336,1,2,1:2:0:0:
143,41,73443,1,0,0:0:0:0:
193,38,73551,2,0,P|218:58|236:86,1,50,2|2,1:2|1:2,0:0:0:0:
154,259,73765,54,0,P|115:317|42:349,2,150,6|2|0,1:2|1:2|1:2,0:0:0:0:
482,310,74837,2,0,P|467:337|459:372,1,50,2|0,0:0|0:0,0:0:0:0:
439,227,75051,2,0,P|417:249|400:280,1,50,2|0,0:0|0:0,0:0:0:0:
429,135,75265,2,0,P|402:150|378:177,1,50,2|0,0:0|0:0,0:0:0:0:
435,48,75480,2,0,P|391:63|372:78,1,50,2|0,1:2|0:0,0:0:0:0:
227,110,75694,2,0,P|270:125|289:140,1,50,2|0,1:2|1:0,0:0:0:0:
117,194,75908,6,0,P|80:254|78:352,2,150,6|2|2,1:2|1:2|1:2,0:0:0:0:
478,35,76980,1,2,0:0:0:0:
436,62,77087,1,0,0:0:0:0:
407,103,77194,2,0,P|402:124|398:160,2,33.3333333333333,2|0|0,0:0|0:0|0:0,0:0:0:0:
310,112,77408,2,0,P|316:132|330:165,2,33.3333333333333,2|0|0,0:0|0:0|0:0,0:0:0:0:
231,174,77622,2,0,P|248:190|275:210,2,33.3333333333333,2|0|0,0:0|0:0|0:0,0:0:0:0:
199,263,77837,2,0,P|218:269|241:275,2,33.3333333333333,2|0|0,0:0|0:0|0:0,0:0:0:0:
189,353,78051,70,0,P|143:335|101:287,1,100,6|0,1:2|0:0,0:0:0:0:
85,259,78372,1,0,0:0:0:0:
85,259,78480,2,0,P|47:291|0:306,1,100,8|2,0:1|0:0,0:0:0:0:
56,180,78908,2,0,P|73:160|93:143,1,50,2|0,0:0|0:0,0:0:0:0:
180,101,79122,1,8,0:1:0:0:
308,33,79337,2,0,P|299:86|253:141,1,100,2|0,1:2|0:0,0:0:0:0:
237,158,79658,1,0,0:0:0:0:
237,158,79765,1,8,0:1:0:0:
159,24,79980,1,8,0:1:0:0:
188,171,80194,6,0,P|203:229|234:271,1,100,6|0,1:2|0:0,0:0:0:0:
264,292,80515,1,0,0:0:0:0:
264,292,80622,1,8,0:1:0:0:
353,193,80837,1,2,0:0:0:0:
411,273,81051,2,0,L|430:298,2,25,2|2|2,0:0|0:0|0:0,0:0:0:0:
472,353,81265,1,8,0:1:0:0:
512,225,81480,1,2,1:2:0:0:
473,100,81694,2,0,P|440:114|406:137,1,50,2|0,0:0|0:0,0:0:0:0:
351,184,81908,1,8,0:1:0:0:
268,53,82122,1,8,0:1:0:0:
155,158,82337,70,0,P|108:182|52:184,1,100,6|0,1:2|0:0,0:0:0:0:
11,180,82658,1,0,0:0:0:0:
11,180,82765,2,0,P|2:229|11:277,1,100,8|2,0:1|0:0,0:0:0:0:
56,344,83122,2,0,P|77:349|104:363,2,33.3333333333333,2|2|2,0:0|0:0|0:0,0:0:0:0:
177,346,83408,1,8,0:1:0:0:
128,233,83622,1,2,0:0:0:0:
239,131,83837,2,0,P|243:157|240:189,1,50,2|0,0:0|0:0,0:0:0:0:
199,263,84051,1,8,0:1:0:0:
144,115,84265,1,8,0:1:0:0:
313,160,84480,6,0,P|359:194|387:240,1,100,6|0,1:2|0:0,0:0:0:0:
404,273,84801,1,0,0:0:0:0:
404,273,84908,1,8,0:1:0:0:
303,357,85122,1,2,0:0:0:0:
251,298,85265,2,0,P|241:282|228:250,2,33.3333333333333,2|2|2,0:0|0:0|0:0,0:0:0:0:
240,179,85551,1,8,0:1:0:0:
404,273,85765,2,0,P|436:194|430:116,1,150,2|0,0:0|0:0,0:0:0:0:
397,32,86194,1,8,0:1:0:0:
366,71,86301,1,0,0:0:0:0:
318,87,86408,1,8,0:1:0:0:
268,82,86515,1,0,0:0:0:0:
226,54,86622,70,0,P|186:84|158:135,1,100,6|0,1:2|0:0,0:0:0:0:
155,176,86944,1,0,0:0:0:0:
155,176,87051,1,8,0:1:0:0:
226,281,87265,1,2,0:0:0:0:
141,334,87480,2,0,L|108:352,2,25,2|2|2,1:2|0:0|0:0,0:0:0:0:
38,324,87694,1,8,0:1:0:0:
17,205,87908,1,2,1:2:0:0:
112,120,88122,2,0,P|123:147|126:173,1,50,2|0,0:0|0:0,0:0:0:0:
107,260,88337,1,8,0:1:0:0:
33,126,88551,1,8,0:1:0:0:
190,138,88765,6,0,P|244:146|303:131,1,100,6|0,1:2|0:0,0:0:0:0:
334,118,89087,1,0,0:0:0:0:
334,118,89194,1,8,0:1:0:0:
420,215,89408,1,2,0:0:0:0:
473,99,89622,2,0,P|445:117|417:137,1,50,2|0,1:2|0:0,0:0:0:0:
355,188,89837,1,8,0:1:0:0:
368,315,90051,2,0,P|321:286|260:278,1,100,2|0,1:2|0:0,0:0:0:0:
228,288,90372,1,0,0:0:0:0:
228,288,90480,1,8,0:1:0:0:
92,353,90694,1,8,0:1:0:0:
39,209,90908,70,0,P|30:153|46:87,1,100,6|0,1:2|0:0,0:0:0:0:
52,62,91230,1,0,0:0:0:0:
52,62,91337,1,8,0:1:0:0:
168,116,91551,1,2,0:0:0:0:
108,227,91765,2,0,P|96:248|88:275,1,50,2|0,1:2|0:0,0:0:0:0:
71,366,91980,1,8,0:1:0:0:
215,320,92194,2,0,P|267:313|323:333,1,100,2|0,1:2|0:0,0:0:0:0:
356,349,92515,1,0,0:0:0:0:
356,349,92622,1,8,0:1:0:0:
291,209,92837,1,8,0:1:0:0:
353,72,93051,6,0,P|395:47|450:37,1,100,6|0,1:2|0:0,0:0:0:0:
494,42,93372,1,0,0:0:0:0:
494,42,93480,1,8,0:1:0:0:
426,145,93694,1,2,0:0:0:0:
308,129,93908,2,0,P|274:130|234:140,1,50,2|0,1:2|0:0,0:0:0:0:
167,161,94122,1,8,0:1:0:0:
285,215,94337,2,0,B|347:257|347:257|382:329,1,150,2|0,1:2|0:0,0:0:0:0:
347,362,94765,1,8,0:1:0:0:
336,339,94872,1,0,0:0:0:0:
325,315,94980,1,8,0:1:0:0:
314,292,95087,1,0,0:0:0:0:
304,268,95194,38,0,L|258:159,1,100,6|0,0:0|0:0,0:0:0:0:
228,95,95837,2,0,L|216:68,1,25,2|0,0:0|0:0,0:0:0:0:
159,161,96051,2,0,L|159:236,2,75,6|2|2,0:0|0:0|0:0,0:0:0:0:
127,43,96908,6,2,L|127:364,1,300,6|0,0:0|0:0,0:0:0:0:
128,344,98620,5,8,0:1:0:0:
128,324,98912,1,8,0:1:0:0:
128,303,99205,1,8,0:1:0:0:
128,262,99498,1,8,0:1:0:0:
126,222,99790,1,8,0:1:0:0:
126,161,100083,1,8,0:1:0:0:
128,358,100339,22,0,P|208:335|330:361,1,187.5,6|2,0:2|0:2,0:0:0:0:
309,351,100624,1,4,0:0:0:0:
488,220,100767,2,0,B|452:241|452:241|446:254|446:254|420:267|394:315,1,125,8|4,0:0|0:0,0:0:0:0:
309,228,101053,1,2,0:2:0:0:
402,33,101196,2,0,P|359:70|322:150,1,125,12|2,0:0|0:2,0:0:0:0:
73,25,101481,2,0,P|41:71|26:158,1,125,12|2,0:0|0:2,0:0:0:0:
235,31,101767,2,0,P|203:77|188:164,1,125,12|8,0:0|0:1,0:0:0:0:
322,354,102053,6,0,P|432:337|488:274,1,187.5,12|2,0:0|0:2,0:0:0:0:
482,284,102339,1,4,0:0:0:0:
362,182,102481,1,8,0:0:0:0:
190,354,102624,2,0,P|80:337|24:274,1,187.5,12|2,0:0|0:2,0:0:0:0:
29,284,102910,1,12,0:0:0:0:
150,182,103052,1,8,0:0:0:0:
258,293,103196,1,4,0:0:0:0:
290,140,103339,2,0,L|305:64,1,62.5,8|2,0:0|0:2,0:0:0:0:
355,0,103481,2,0,L|334:127,1,125,4|8,0:0|0:0,0:0:0:0:
280,360,103767,70,0,P|206:291|107:290,1,187.5,6|2,0:2|0:2,0:0:0:0:
123,285,104053,1,4,0:0:0:0:
51,93,104196,2,0,B|45:135|59:160|59:160|57:174|57:174|74:212,2,125,12|4|2,0:0|0:0|0:2,0:0:0:0:
255,27,104624,2,0,P|269:89|271:221,1,187.5,12|2,0:0|0:2,0:0:0:0:
271,212,104910,1,4,0:0:0:0:
271,212,104981,1,2,0:2:0:0:
195,283,105053,2,0,B|154:295|137:318|137:318|124:322|124:322|96:354,2,125,12|4|12,0:0|0:0|0:1,0:0:0:0:
443,348,105481,5,6,0:2:0:0:
454,319,105552,1,0,0:2:0:0:
461,288,105623,1,2,0:2:0:0:
461,257,105695,1,0,0:2:0:0:
455,219,105767,1,2,0:2:0:0:
432,180,105839,69,0,0:2:0:0:
385,196,105910,1,2,0:2:0:0:
335,196,105981,1,0,0:2:0:0:
288,180,106053,1,2,0:2:0:0:
249,149,106124,1,0,0:2:0:0:
223,107,106196,1,2,0:2:0:0:
225,57,106267,1,0,0:2:0:0:
242,16,106339,5,2,0:3:0:0:
241,34,106410,1,2,0:3:0:0:
240,53,106481,1,2,0:3:0:0:
239,72,106553,1,2,0:3:0:0:
239,90,106624,1,2,0:3:0:0:
238,109,106696,1,2,0:3:0:0:
237,128,106767,1,2,0:3:0:0:
236,147,106838,1,2,0:3:0:0:
236,165,106910,1,2,0:3:0:0:
235,184,106981,1,2,0:3:0:0:
234,203,107053,1,2,0:3:0:0:
233,221,107124,1,2,0:3:0:0:
231,239,107196,70,0,P|148:253|65:186,1,187.5,6|2,0:2|0:2,0:0:0:0:
69,194,107481,1,4,0:0:0:0:
174,31,107624,2,0,B|140:56|140:56|136:69|136:69|112:85|92:136,1,125,8|4,0:0|0:0,0:0:0:0:
59,280,107910,1,2,0:2:0:0:
299,294,108053,2,0,P|365:314|418:368,1,125,12|2,0:0|0:2,0:0:0:0:
327,118,108339,2,0,P|374:168|393:241,1,125,12|2,0:0|0:2,0:0:0:0:
467,31,108624,2,0,P|482:98|462:171,1,125,12|8,0:0|0:0,0:0:0:0:
298,291,108910,6,0,P|218:289|132:364,1,187.5,12|2,0:0|0:2,0:0:0:0:
137,353,109196,1,4,0:0:0:0:
38,213,109339,2,0,B|17:153|17:153|25:73,2,125,12|4|2,0:0|0:0|0:2,0:0:0:0:
194,194,109767,2,0,P|221:109|197:11,1,187.5,12|2,0:0|0:2,0:0:0:0:
199,15,110053,1,4,0:0:0:0:
109,145,110196,2,0,L|117:224,1,62.5,12|0,0:0|0:0,0:0:0:0:
176,272,110339,1,4,0:0:0:0:
281,217,110481,1,12,0:0:0:0:
365,33,110624,70,0,P|391:104|372:229,1,187.5,6|2,0:2|0:2,0:0:0:0:
379,213,110910,1,4,0:0:0:0:
176,272,111053,2,0,B|215:287|231:311|231:311|245:315|245:315|270:349,1,125,12|4,0:0|0:0,0:0:0:0:
386,329,111339,1,2,0:2:0:0:
228,171,111481,2,0,P|139:181|66:255,1,187.5,12|2,0:0|0:2,0:0:0:0:
70,246,111767,1,4,0:0:0:0:
254,366,111910,2,0,B|228:332|228:332|215:328|215:328|199:304|159:288,1,125,12|4,0:0|0:0,0:0:0:0:
37,331,112196,1,12,0:0:0:0:
6,123,112339,5,6,0:2:0:0:
41,88,112410,1,0,0:2:0:0:
85,65,112481,1,2,0:2:0:0:
134,63,112552,1,0,0:2:0:0:
180,82,112624,1,2,0:2:0:0:
222,110,112696,1,0,0:2:0:0:
265,133,112767,1,2,0:2:0:0:
315,137,112838,1,0,0:2:0:0:
362,122,112910,1,2,0:2:0:0:
398,87,112981,1,0,0:2:0:0:
410,38,113053,69,2,0:2:0:0:
362,67,113124,1,0,0:2:0:0:
332,115,113196,1,6,0:2:0:0:
332,170,113267,1,0,0:2:0:0:
351,222,113338,1,2,0:2:0:0:
383,268,113410,1,0,0:2:0:0:
432,293,113481,1,2,0:2:0:0:
487,303,113553,5,0,0:2:0:0:
436,279,113624,1,2,0:2:0:0:
381,292,113695,1,0,0:2:0:0:
335,325,113767,1,6,0:2:0:0:
280,341,113839,1,0,0:2:0:0:
224,335,113910,1,2,0:2:0:0:
172,312,113981,1,0,0:2:0:0:
141,294,114053,38,2,P|158:199|237:134,1,200,6|0,0:0|0:0,0:0:0:0:
311,79,114910,2,2,P|212:87|122:18,1,200,2|0,0:0|0:0,0:0:0:0:
42,77,115767,2,0,L|43:137,1,50,2|2,0:0|0:0,0:0:0:0:
81,205,116053,2,0,L|81:94,1,100,2|0,0:0|0:0,0:0:0:0:
135,263,116624,2,2,B|194:311|228:280|260:250|330:290,1,200,2|0,0:0|0:0,0:0:0:0:
455,356,117481,53,2,0:0:0:0:
488,261,117767,1,2,0:0:0:0:
432,177,118053,1,2,0:0:0:0:
333,157,118339,5,2,0:0:0:0:
299,86,118624,1,2,0:0:0:0:
377,89,118910,1,2,0:0:0:0:
289,228,119196,6,2,P|221:233|141:193,1,139.999995727539,6|0,1:2|0:0,0:0:0:0:
81,153,119624,1,8,0:1:0:0:
86,62,119767,1,2,0:0:0:0:
170,27,119910,1,2,0:0:0:0:
155,205,120053,2,0,P|123:271|54:323,2,139.999995727539,8|2|2,0:1|1:2|1:2,0:0:0:0:
301,143,120910,6,0,P|279:177|270:229,1,69.9999978637696,2|0,0:0|0:0,0:0:0:0:
346,353,121196,2,0,P|347:318|358:285,1,69.9999978637696,2|8,0:0|0:1,0:0:0:0:
476,197,121481,2,0,P|478:237|459:286,1,69.9999978637696,2|0,0:0|0:0,0:0:0:0:
367,77,121767,6,0,P|393:53|431:37,1,69.9999978637696,8|0,0:1|0:0,0:0:0:0:
301,143,122053,2,0,P|281:171|271:205,1,69.9999978637696,2|0,1:2|0:0,0:0:0:0:
270,34,122339,2,0,P|243:56|225:86,1,69.9999978637696,2|0,1:2|0:0,0:0:0:0:
199,301,122624,54,0,P|172:256|86:198,1,139.999995727539,6|0,1:2|0:0,0:0:0:0:
17,237,123053,1,8,0:1:0:0:
20,328,123196,1,2,0:0:0:0:
107,354,123339,1,2,0:0:0:0:
102,204,123481,2,0,P|88:135|41:71,2,139.999995727539,8|2|2,0:1|1:2|1:2,0:0:0:0:
299,82,124339,6,0,P|277:120|243:139,1,69.9999978637696,2|0,0:0|0:0,0:0:0:0:
364,197,124624,2,0,P|321:208|284:197,1,69.9999978637696,2|8,0:0|0:1,0:0:0:0:
305,314,124910,2,0,P|267:292|248:258,1,69.9999978637696,2|0,1:2|0:0,0:0:0:0:
342,29,125196,6,0,P|320:67|286:86,1,69.9999978637696,8|0,1:1|0:0,0:0:0:0:
431,190,125481,2,0,P|388:201|351:190,1,69.9999978637696,2|0,1:2|0:0,0:0:0:0:
357,357,125767,2,0,P|319:335|300:301,1,69.9999978637696,2|0,1:2|0:0,0:0:0:0:
78,351,126053,54,0,P|156:324|200:266,1,134.999995880127,6|0,1:2|0:0,0:0:0:0:
191,273,126339,1,4,0:1:0:0:
97,156,126481,1,8,0:1:0:0:
82,275,126624,1,4,0:1:0:0:
199,175,126767,1,8,0:1:0:0:
199,175,126910,2,0,P|183:104|139:41,1,134.999995880127,2|0,0:0|0:0,0:0:0:0:
137,46,127196,2,0,P|120:96|121:150,1,89.9999972534181,4|0,0:1|0:0,0:0:0:0:
180,307,127481,2,0,P|225:328|262:362,1,89.9999972534181,8|0,0:1|0:0,0:0:0:0:
465,356,127767,6,0,P|482:293|462:206,1,134.999995880127,6|0,1:2|0:0,0:0:0:0:
467,214,128053,2,0,P|409:250|338:253,1,134.999995880127,4|0,0:1|0:0,0:0:0:0:
333,253,128339,2,0,P|290:239|231:250,1,89.9999972534181,4|0,0:1|0:1,0:0:0:0:
130,356,128624,2,0,P|76:311|9:301,1,134.999995880127,2|0,1:2|0:0,0:0:0:0:
31,258,128910,2,0,P|49:217|81:186,1,89.9999972534181,8|2,0:1|0:2,0:0:0:0:
12,34,129196,2,0,P|66:79|101:88,1,89.9999972534181,8|2,0:1|0:2,0:0:0:0:
346,41,129481,70,0,P|308:90|214:125,1,134.999995880127,6|0,1:2|0:0,0:0:0:0:
234,124,129767,1,4,0:1:0:0:
83,84,129910,1,8,0:1:0:0:
134,202,130053,2,0,P|160:240|223:273,1,89.9999972534181,4|0,0:1|0:0,0:0:0:0:
378,352,130339,2,0,P|442:287|459:238,1,134.999995880127,6|0,1:2|0:0,0:0:0:0:
459,236,130624,1,4,0:1:0:0:
442,76,130767,1,8,0:1:0:0:
347,161,130910,2,0,P|313:193|292:237,1,89.9999972534181,4|0,0:1|0:0,0:0:0:0:
252,356,131196,6,0,P|216:318|170:294,1,89.9999972534181,6|0,1:2|0:0,0:0:0:0:
31,272,131481,2,0,P|16:322|18:374,1,89.9999972534181,2|8,1:2|0:1,0:0:0:0:
121,241,131767,2,0,P|135:190|133:138,1,89.9999972534181,2|0,1:2|0:0,0:0:0:0:
16,61,132053,2,2,P|40:107|79:142,1,89.9999972534181,6|0,1:2|0:0,0:0:0:0:
198,219,132339,2,0,P|248:233|300:231,1,89.9999972534181,2|8,1:2|0:1,0:0:0:0:
432,194,132624,2,0,P|478:169|513:130,1,89.9999972534181,2|0,1:2|0:0,0:0:0:0:
434,33,132904,37,6,0:2:0:0:
337,232,133196,1,2,0:2:0:0:
337,232,133269,1,0,0:2:0:0:
337,232,133343,1,2,0:2:0:0:
305,117,133489,1,2,0:2:0:0:
412,270,133774,1,0,0:2:0:0:
319,354,133920,1,0,0:2:0:0:
319,354,133993,1,0,0:2:0:0:
319,354,134066,1,0,0:2:0:0:
216,272,134213,1,2,0:2:0:0:
212,146,134359,6,0,P|229:109|254:63,1,66.6666666666667,2|0,0:2|0:2,0:2:0:0:
430,75,134652,1,4,0:1:0:0:
395,154,134871,1,4,0:1:0:0:
315,26,135091,1,4,0:1:0:0:
256,192,135164,12,8,137286,0:1:0:0:
195,39,138064,70,0,L|212:139,1,100,2|2,0:0|0:0,0:0:0:0:
301,137,138921,2,2,L|318:37,1,100,4|2,0:1|0:0,0:0:0:0:
168,253,139778,2,0,L|185:353,1,100,2|2,0:0|0:0,0:0:0:0:
329,351,140635,2,2,L|345:252,1,100,4|2,0:1|0:0,0:0:0:0:
255,32,141492,6,0,L|255:145,1,100,2|2,0:0|0:0,0:0:0:0:
256,354,142349,2,2,L|256:243,1,100,4|2,0:1|0:0,0:0:0:0:
256,58,143206,2,0,L|256:174,1,100,2|2,0:0|0:0,0:0:0:0:
255,325,144064,2,2,L|255:213,1,100,4|2,0:1|0:0,0:0:0:0:
358,73,144921,70,0,L|295:156,1,100,2|2,0:0|0:0,0:0:0:0:
154,311,145778,2,2,L|217:228,1,100,4|2,0:1|0:0,0:0:0:0:
321,33,146635,2,0,L|244:102,1,100,2|2,0:0|0:0,0:0:0:0:
57,231,147492,2,2,L|134:162,1,100,4|2,0:1|0:0,0:0:0:0:
472,42,148349,6,0,P|474:137|462:248,1,200,2|4,0:0|0:1,0:0:0:0:
383,348,149635,1,2,0:0:0:0:
268,181,150064,2,2,B|141:108|108:264|-31:158,1,300,2|4,0:0|0:1,0:0:0:0:
170,25,151778,6,0,P|182:62|179:120,3,69.9999978637696,2|0|0|0,0:0|0:0|0:0|0:0,0:0:0:0:
300,74,152635,2,0,P|282:108|239:147,3,69.9999978637696,4|0|0|0,0:1|0:0|0:0|0:0,0:0:0:0:
359,181,153492,2,0,P|326:202|269:214,3,69.9999978637696,2|0|0|0,0:0|0:0|0:0|0:0,0:0:0:0:
361,302,154349,2,0,P|322:304|266:286,3,69.9999978637696,4|0|0|0,0:1|0:0|0:0|0:0,0:0:0:0:
144,282,155206,6,0,P|141:320|159:376,3,69.9999978637696,2|0|0|0,0:0|0:0|0:0|0:0,0:0:0:0:
150,162,156064,2,0,P|152:123|134:67,3,69.9999978637696,4|0|0|0,0:1|0:0|0:0|0:0,0:0:0:0:
89,217,156921,2,0,P|50:214|-5:232,3,69.9999978637696,2|0|0|0,0:0|0:0|0:0|0:0,0:0:0:0:
209,223,157779,2,0,P|247:225|303:207,3,69.9999978637696,4|0|0|0,0:1|0:0|0:0|0:0,0:0:0:0:
258,64,158635,70,0,P|270:101|267:159,3,69.9999978637696,2|0|0|0,0:0|0:0|0:0|0:0,0:0:0:0:
388,113,159492,2,0,P|370:147|327:186,3,69.9999978637696,4|0|0|0,0:1|0:0|0:0|0:0,0:0:0:0:
447,220,160349,2,0,P|414:241|357:253,3,69.9999978637696,2|0|0|0,0:0|0:0|0:0|0:0,0:0:0:0:
449,341,161206,2,0,P|410:343|354:325,3,69.9999978637696,4|0|0|0,0:1|0:0|0:0|0:0,0:0:0:0:
202,332,162064,6,0,P|167:338|132:336,3,69.9999978637696,2|0|0|0,0:0|0:0|0:0|0:0,0:0:0:0:
310,332,162921,2,0,P|344:338|379:336,3,69.9999978637696,4|0|0|0,0:1|0:0|0:0|0:0,0:0:0:0:
197,219,163778,2,0,P|170:196|139:180,3,69.9999978637696,2|0|0|0,0:0|0:0|0:0|0:0,0:0:0:0:
315,219,164635,2,0,P|341:196|372:180,3,69.9999978637696,4|0|0|0,0:1|0:0|0:0|0:1,0:0:0:0:
94,350,165492,38,0,P|12:203|108:33,1,375,2|0,0:0|0:0,0:0:0:0:
154,84,167206,2,0,P|202:143|203:246,1,175,2|0,0:0|0:0,0:0:0:0:
176,66,168064,2,0,P|212:133|193:234,1,175,2|0,0:0|0:0,0:0:0:0:
296,250,168913,6,0,P|381:299|432:302,1,150,2|0,0:0|0:0,0:0:0:0:
423,188,169848,2,0,P|369:238|296:250,1,150,2|0,0:0|0:0,0:0:0:0:
209,33,170906,70,0,P|309:81|286:257,1,300,2|0,0:0|0:0,0:0:0:0:
