osu file format v14

[General]
AudioFilename: audio.mp3
AudioLeadIn: 0
PreviewTime: 75507
Countdown: 0
SampleSet: Soft
StackLeniency: 0.5
Mode: 0
LetterboxInBreaks: 0
WidescreenStoryboard: 1

[Editor]
DistanceSpacing: 1.8
BeatDivisor: 16
GridSize: 4
TimelineZoom: 1.3

[Metadata]
Title:Isshun no Qualia
TitleUnicode:一瞬のクオリア
Artist:Chata & Shimotsuki Haruka
ArtistUnicode:茶太・霜月はるか
Creator:wyrio
Version:Moment of Inertia
Source:
Tags:朝を唄うエルミット Nao Hiyama 日山尚 myu Lunala Japanese pop
BeatmapID:2354197
BeatmapSetID:1126767

[Difficulty]
HPDrainRate:7
CircleSize:4.4
OverallDifficulty:8
ApproachRate:9
SliderMultiplier:1.5
SliderTickRate:1

[Events]
//Background and Video events
0,0,"bg.jpg",0,0
//Break Periods
2,104158,110698
2,217842,227148
//Storyboard Layer 0 (Background)
//Storyboard Layer 1 (Fail)
//Storyboard Layer 2 (Pass)
//Storyboard Layer 3 (Foreground)
//Storyboard Layer 4 (Overlay)
//Storyboard Sound Samples

[TimingPoints]
380,631.578947368421,4,2,1,20,1,0
5432,-100,4,2,1,30,0,0
15537,-100,4,2,1,40,0,0
55958,-100,4,2,1,45,0,0
71116,-83.3333333333333,4,2,1,50,0,0
76169,-71.4285714285714,4,2,1,60,0,1
100169,-83.3333333333333,4,2,1,30,0,0
100801,-90.9090909090909,4,2,1,30,0,0
101432,-100,4,2,1,30,0,0
111537,-100,4,2,1,40,0,0
151958,-100,4,2,1,45,0,0
167116,-83.3333333333333,4,2,1,50,0,0
172169,-71.4285714285714,4,2,1,60,0,1
197432,-90.9090909090909,4,2,1,50,0,0
226958,-90.9090909090909,4,2,1,5,0,0
227116,-90.9090909090909,4,2,1,40,0,0
235327,-90.9090909090909,4,2,1,50,0,0
236590,-90.9090909090909,4,2,1,55,0,0
237695,-66.6666666666667,4,2,1,55,0,0
237853,-66.6666666666667,4,2,1,70,0,1
260590,-83.3333333333333,4,2,1,50,0,1
261222,-83.3333333333333,4,2,1,5,0,1
261853,-90.9090909090909,4,2,1,40,0,1
262327,-90.9090909090909,4,2,1,5,0,1
262485,-100,4,2,1,35,0,1
263116,-111.111111111111,4,2,1,25,0,0
265011,634.920634920635,4,2,1,25,1,0
268185,648.648648648649,4,2,1,25,1,0
268185,-111.111111111111,4,2,1,25,0,0
269482,631.578947368421,4,2,1,25,1,0
269482,-111.111111111111,4,2,1,25,0,0
270749,652.173913043478,4,2,1,25,1,0
271401,681.818181818182,4,2,1,25,1,0
271749,697.674418604651,4,2,1,25,1,0
272795,-100,4,2,1,5,0,0
273398,714.285714285714,4,2,1,20,1,0

[Colours]
Combo1 : 179,109,255
Combo2 : 81,255,239

[HitObjects]
147,158,380,6,0,L|80:177,2,37.5,2|0|0,0:3|0:0|0:0,0:0:0:0:
218,173,853,1,0,0:3:0:0:
75,101,1169,1,0,0:0:0:0:
199,13,1485,1,0,0:3:0:0:
199,13,1643,2,0,L|279:-2,1,75,0|0,0:3|0:0,0:0:0:0:
345,32,2116,1,0,0:0:0:0:
345,32,2195,1,0,0:0:0:0:
345,32,2274,2,0,L|329:106,1,75
431,215,2906,6,0,L|420:163,2,37.5,2|0|0,0:3|0:0|0:0,0:0:0:0:
386,279,3380,1,0,0:0:0:0:
312,180,3695,1,0,0:0:0:0:
466,111,4011,1,0,0:0:0:0:
466,111,4169,2,0,P|485:163|478:194,1,75,0|0,0:0|0:0,0:0:0:0:
388,350,4801,2,0,P|379:294|394:266,1,75,0|0,0:0|0:0,0:0:0:0:
312,180,5432,6,0,L|227:193,1,75,2|0,0:3|0:0,0:0:0:0:
179,239,5906,1,0,0:0:0:0:
179,239,6064,2,0,P|162:190|169:164,1,75,8|0,0:1|0:0,0:0:0:0:
223,118,6695,1,2,0:3:0:0:
338,258,7011,1,0,0:0:0:0:
391,194,7327,2,0,L|401:117,1,75,8|0,0:1|0:0,0:0:0:0:
203,43,7958,6,0,L|113:33,1,75,2|0,0:3|0:0,0:0:0:0:
69,78,8432,1,0,0:0:0:0:
69,78,8590,2,0,P|63:134|74:154,1,75,8|0,0:1|0:0,0:0:0:0:
219,192,9222,2,0,L|202:34,1,150,2|8,0:3|0:1,0:0:0:0:
229,269,10485,5,2,0:3:0:0:
296,226,10801,1,0,0:0:0:0:
372,354,11116,2,0,L|389:275,1,75,8|0,0:1|0:0,0:0:0:0:
452,235,11748,1,2,0:3:0:0:
387,280,12064,1,0,0:0:0:0:
473,155,12379,1,8,0:1:0:0:
387,280,12695,1,0,0:0:0:0:
424,88,13011,6,0,L|345:76,1,75,2|0,0:3|0:0,0:0:0:0:
387,280,13643,2,0,L|464:264,1,75,8|0,0:1|0:0,0:0:0:0:
314,235,14274,2,0,L|298:395,2,150,2|8|2,0:3|0:1|0:0,0:0:0:0:
265,103,15853,5,0,0:0:0:0:
194,62,16169,2,0,L|108:72,1,75
82,140,16643,2,0,L|172:149,1,75
174,149,17116,1,0,0:0:0:0:
384,205,17432,2,0,P|389:156|382:126,1,75,8|0,0:0|0:0,0:0:0:0:
314,235,17906,1,0,0:0:0:0:
314,235,18064,6,0,L|193:258,2,112.5,2|0|0,0:0|0:0|0:0,0:0:0:0:
384,205,19169,1,0,0:0:0:0:
384,205,19327,2,0,L|465:217,1,75,2|0,0:0|0:0,0:0:0:0:
505,336,19958,2,0,L|425:354,1,75,8|0,0:0|0:0,0:0:0:0:
359,343,20590,5,2,0:0:0:0:
397,132,20906,1,0,0:0:0:0:
468,94,21222,2,0,P|464:57|441:25,1,75,8|0,0:0|0:0,0:0:0:0:
371,15,21695,2,0,L|292:29,1,75,0|0,0:0|0:0,0:0:0:0:
278,32,22169,1,0,0:0:0:0:
170,205,22485,2,0,L|91:196,1,75,8|0,0:0|0:0,0:0:0:0:
61,127,22958,1,0,0:0:0:0:
61,127,23116,6,0,L|184:112,2,112.5,2|0|0,0:0|0:0|0:0,0:0:0:0:
203,345,24380,2,0,L|216:263,1,75,2|0,0:0|0:0,0:0:0:0:
231,198,25011,1,8,0:0:0:0:
399,321,25327,2,0,P|424:297|430:288,1,37.5
425,294,25643,6,0,L|306:311,1,112.5,2|0,0:0|0:0,0:0:0:0:
295,313,26274,1,8,0:0:0:0:
247,124,26590,1,0,0:0:0:0:
184,168,26906,2,0,P|201:216|187:283,2,112.5,2|0|0,0:0|0:0|0:0,0:0:0:0:
130,63,28169,5,2,0:0:0:0:
130,63,28327,1,0,0:0:0:0:
130,63,28485,2,0,L|116:144,1,75,0|8,0:0|0:0,0:0:0:0:
168,349,29116,2,0,P|202:347|217:351,1,37.5
206,348,29432,2,0,L|190:271,1,75,2|0,0:0|0:0,0:0:0:0:
247,224,30064,2,0,L|291:233,2,37.5,8|0|0,0:0|0:0|0:0,0:0:0:0:
190,274,30537,1,0,0:0:0:0:
129,211,30695,6,0,L|17:231,1,112.5,2|0,0:0|0:0,0:0:0:0:
3,234,31327,1,8,0:0:0:0:
230,151,31643,1,0,0:0:0:0:
303,110,31958,2,0,L|429:126,2,112.5,2|0|0,0:0|0:0|0:0,0:0:0:0:
230,151,33222,6,0,P|219:207|281:289,1,150,2|8,0:0|0:0,0:0:0:0:
336,361,34011,1,0,0:0:0:0:
336,361,34169,2,0,L|331:316,1,37.5,0|0,0:0|0:0,0:0:0:0:
331,323,34485,2,0,L|416:342,1,75,2|0,0:0|0:0,0:0:0:0:
512,252,35116,2,0,L|437:273,1,75,8|0,0:0|0:0,0:0:0:0:
404,339,35748,5,2,0:0:0:0:
231,348,36064,1,0,0:0:0:0:
245,270,36380,2,0,L|259:190,1,75,8|0,0:0|0:0,0:0:0:0:
323,137,36853,2,0,L|335:217,1,75
336,225,37327,1,0,0:0:0:0:
308,61,37643,2,0,L|232:79,1,75,8|0,0:0|0:0,0:0:0:0:
141,227,38116,1,0,0:0:0:0:
141,227,38274,6,0,P|135:161|175:120,2,112.5,2|0|0,0:0|0:0|0:0,0:0:0:0:
203,274,39380,1,0,0:0:0:0:
203,274,39537,2,0,L|293:281,1,75,2|0,0:0|0:0,0:0:0:0:
126,359,40169,2,0,L|47:376,1,75,8|0,0:0|0:0,0:0:0:0:
44,301,40801,5,2,0:0:0:0:
214,349,41116,1,0,0:0:0:0:
276,295,41432,2,0,P|284:255|276:207,1,75,8|0,0:0|0:0,0:0:0:0:
266,136,41906,2,0,L|348:152,1,75,0|0,0:0|0:0,0:0:0:0:
360,154,42380,1,0,0:0:0:0:
488,82,42695,2,0,L|410:98,1,75,8|0,0:0|0:0,0:0:0:0:
360,154,43169,1,0,0:0:0:0:
360,154,43327,6,0,L|372:40,2,112.5,2|0|0,0:0|0:0|0:0,0:0:0:0:
466,252,44590,2,0,L|480:329,1,75,2|0,0:0|0:0,0:0:0:0:
401,376,45222,2,0,L|410:329,2,37.5,8|0|0,0:0|0:0|0:0,0:0:0:0:
325,371,45695,1,0,0:0:0:0:
338,280,45853,6,0,L|220:268,1,112.5,2|0,0:0|0:0,0:0:0:0:
207,267,46485,1,8,0:0:0:0:
171,126,46801,1,0,0:0:0:0:
88,154,47116,2,0,L|7:164,1,75,2|0,0:0|0:0,0:0:0:0:
255,100,47748,2,0,L|341:114,1,75,8|0,0:0|0:0,0:0:0:0:
171,126,48380,6,0,L|194:8,2,112.5,2|0|0,0:0|0:0|0:0,0:0:0:0:
391,244,49643,2,0,L|374:165,1,75,2|0,0:0|0:0,0:0:0:0:
228,311,50274,2,0,P|222:359|228:390,1,75,8|0,0:0|0:0,0:0:0:0:
465,272,50906,6,0,L|343:253,2,112.5,2|0|0,0:0|0:0|0:0,0:0:0:0:
228,311,52169,2,0,B|176:330|108:319,2,112.5,2|0|0,0:0|0:0|0:0,0:0:0:0:
280,257,53432,6,0,L|268:168,1,75,2|0,0:0|0:0,0:0:0:0:
313,116,53906,1,0,0:0:0:0:
313,116,54064,2,0,L|328:40,1,75,8|0,0:0|0:0,0:0:0:0:
390,0,54537,1,0,0:0:0:0:
454,39,54695,1,2,0:0:0:0:
213,307,55327,1,8,0:0:0:0:
393,226,55958,6,0,L|386:307,1,75,2|0,0:0|0:0,0:0:0:0:
274,354,56590,2,0,L|258:192,2,150,8|2|8,0:0|0:0|0:0,0:0:0:0:
202,384,58169,1,0,0:0:0:0:
202,384,58327,1,0,0:0:0:0:
202,384,58485,6,0,L|126:360,1,75,2|0,0:0|0:0,0:0:0:0:
72,56,59116,2,0,L|56:138,1,75,8|0,0:0|0:0,0:0:0:0:
116,177,59590,1,0,0:0:0:0:
116,177,59748,2,0,P|155:166|191:166,1,75,2|0,0:0|0:0,0:0:0:0:
424,234,60380,2,0,L|401:357,1,112.5,8|0,0:0|0:0,0:0:0:0:
327,370,61011,6,0,L|246:358,1,75,2|0,0:0|0:0,0:0:0:0:
211,294,61485,1,0,0:0:0:0:
211,294,61643,2,0,L|128:311,1,75,8|0,0:0|0:0,0:0:0:0:
41,168,62274,2,0,L|119:178,1,75,2|0,0:0|0:0,0:0:0:0:
179,136,62748,1,0,0:0:0:0:
179,136,62906,2,0,P|192:94|181:52,1,75,8|0,0:0|0:0,0:0:0:0:
307,80,63537,6,0,L|429:65,1,112.5,2|0,0:0|0:0,0:0:0:0:
483,146,64169,2,0,L|401:139,1,75,8|0,0:0|0:0,0:0:0:0:
397,313,64801,2,0,P|429:269|417:198,2,112.5,2|0|0,0:0|0:0|0:0,0:0:0:0:
317,314,66064,6,0,L|243:293,1,75,2|0,0:0|0:0,0:0:0:0:
189,185,66695,2,0,L|342:151,2,150,8|2|8,0:0|0:0|0:0,0:0:0:0:
134,134,68274,1,0,0:0:0:0:
134,134,68432,1,0,0:0:0:0:
134,134,68590,6,0,L|149:53,1,75,2|0,0:0|0:0,0:0:0:0:
33,377,69222,2,0,L|20:300,1,75,8|0,0:0|0:0,0:0:0:0:
90,277,69695,1,0,0:0:0:0:
90,277,69853,2,0,P|108:238|132:214,1,75,2|0,0:0|0:0,0:0:0:0:
275,317,70485,2,0,L|148:340,1,112.5,8|0,0:0|0:0,0:0:0:0:
90,277,71116,6,0,B|80:228|80:228|99:135,2,134.999995880127,2|0|0,0:0|0:0|0:0,0:0:0:0:
415,172,72379,2,0,B|431:122|431:122|414:33,2,134.999995880127,2|0|0,0:0|0:0|0:0,0:0:0:0:
342,220,73643,5,2,0:0:0:0:
342,220,73958,1,0,0:0:0:0:
270,115,74116,1,0,0:0:0:0:
235,325,74274,2,0,L|249:382,1,44.999998626709,8|0,0:3|0:0,0:0:0:0:
317,341,74590,1,2,0:0:0:0:
335,264,74748,2,0,L|344:200,1,44.999998626709,8|0,0:3|0:0,0:0:0:0:
194,83,75064,5,2,0:0:0:0:
214,12,75222,1,8,0:3:0:0:
123,105,75379,1,8,0:3:0:0:
123,105,75458,1,8,0:3:0:0:
123,105,75537,1,8,0:3:0:0:
222,190,75695,1,0,0:0:0:0:
181,264,75853,2,0,L|125:279,1,44.999998626709,8|0,0:3|0:0,0:0:0:0:
294,242,76169,6,0,L|284:361,1,104.999996795654,6|0,0:0|0:0,0:0:0:0:
450,217,76643,1,0,0:0:0:0:
436,141,76801,1,8,0:3:0:0:
421,68,76958,2,0,L|411:6,1,52.4999983978272,0|0,0:0|0:0,0:0:0:0:
436,141,77274,1,0,0:0:0:0:
436,141,77432,6,0,P|406:142|370:126,2,52.4999983978272,2|8|0,0:0|0:1|0:0,0:0:0:0:
450,217,77906,1,0,0:0:0:0:
337,245,78064,1,8,0:3:0:0:
475,214,78222,1,0,0:0:0:0:
337,245,78379,2,0,L|345:183,1,52.4999983978272,0|8,0:0|0:1,0:0:0:0:
499,380,78695,6,0,L|487:320,1,52.4999983978272,2|0,0:0|0:0,0:0:0:0:
344,193,79011,1,0,0:0:0:0:
475,214,79169,2,0,P|455:278|458:293,1,52.4999983978272,0|8,0:0|0:3,0:0:0:0:
472,56,79485,2,0,L|375:78,1,52.4999983978272,0|8,0:0|0:1,0:0:0:0:
512,130,79801,1,8,0:1:0:0:
472,56,79958,6,0,L|466:-29,1,52.4999983978272,2|0,0:0|0:0,0:0:0:0:
352,159,80274,2,0,L|343:232,1,52.4999983978272
363,375,80590,1,8,0:3:0:0:
355,293,80748,1,0,0:0:0:0:
345,211,80906,2,0,L|280:189,1,52.4999983978272,0|8,0:0|0:1,0:0:0:0:
456,126,81222,6,0,L|473:-3,1,104.999996795654,2|0,0:0|0:0,0:0:0:0:
345,211,81695,1,0,0:0:0:0:
362,132,81853,1,8,0:3:0:0:
377,55,82011,2,0,L|369:-13,1,52.4999983978272
446,187,82327,1,0,0:0:0:0:
446,187,82485,6,0,P|482:220|505:222,2,52.4999983978272,2|8|0,0:0|0:1|0:0,0:0:0:0:
413,306,82958,1,0,0:0:0:0:
413,306,83116,2,0,L|331:320,1,52.4999983978272,8|0,0:3|0:0,0:0:0:0:
291,183,83432,2,0,L|361:194,1,52.4999983978272,0|8,0:0|0:1,0:0:0:0:
427,374,83748,6,0,L|440:227,1,104.999996795654,2|0,0:0|0:0,0:0:0:0:
342,191,84222,2,0,L|351:260,1,52.4999983978272,0|8,0:0|0:3,0:0:0:0:
446,187,84537,2,0,L|454:114,1,52.4999983978272,8|0,0:1|0:0,0:0:0:0:
328,103,84853,1,8,0:1:0:0:
467,55,85011,5,2,0:0:0:0:
467,55,85169,1,8,0:1:0:0:
446,187,85327,2,0,L|434:264,1,52.4999983978272
328,103,85643,2,0,L|314:22,1,52.4999983978272,8|0,0:3|0:0,0:0:0:0:
300,304,85958,2,0,L|308:355,1,52.4999983978272,0|0,0:0|0:0,0:0:0:0:
218,142,86274,6,0,L|228:23,1,104.999996795654,6|0,0:0|0:0,0:0:0:0:
62,167,86748,1,0,0:0:0:0:
76,243,86906,1,8,0:3:0:0:
91,316,87064,2,0,L|101:378,1,52.4999983978272,0|0,0:0|0:0,0:0:0:0:
76,243,87379,1,8,0:1:0:0:
76,243,87537,6,0,P|106:242|142:258,2,52.4999983978272,2|8|0,0:0|0:1|0:0,0:0:0:0:
62,167,88011,1,0,0:0:0:0:
175,139,88169,1,8,0:3:0:0:
37,170,88327,1,0,0:0:0:0:
175,139,88485,2,0,L|167:201,1,52.4999983978272,0|8,0:0|0:1,0:0:0:0:
13,4,88800,6,0,L|25:64,1,52.4999983978272,2|0,0:0|0:0,0:0:0:0:
168,191,89116,1,0,0:0:0:0:
37,170,89274,2,0,P|57:106|54:91,1,52.4999983978272,0|8,0:0|0:3,0:0:0:0:
40,328,89590,2,0,L|137:306,1,52.4999983978272,0|8,0:0|0:1,0:0:0:0:
0,254,89906,1,8,0:1:0:0:
40,328,90064,6,0,L|46:413,1,52.4999983978272,2|0,0:0|0:0,0:0:0:0:
160,223,90379,2,0,L|169:150,1,52.4999983978272
149,7,90695,1,8,0:3:0:0:
157,89,90853,1,0,0:0:0:0:
167,171,91011,2,0,L|232:193,1,52.4999983978272,8|8,0:1|0:1,0:0:0:0:
56,256,91327,6,0,L|39:385,1,104.999996795654,2|0,0:0|0:0,0:0:0:0:
167,171,91800,1,0,0:0:0:0:
150,250,91958,1,8,0:3:0:0:
135,327,92116,2,0,L|143:395,1,52.4999983978272
66,197,92432,1,8,0:1:0:0:
66,197,92590,6,0,P|30:164|7:162,2,52.4999983978272,2|8|0,0:0|0:1|0:0,0:0:0:0:
99,78,93063,1,0,0:0:0:0:
99,78,93221,2,0,L|181:64,1,52.4999983978272,8|0,0:3|0:0,0:0:0:0:
221,201,93537,2,0,L|151:190,1,52.4999983978272,0|8,0:0|0:1,0:0:0:0:
85,10,93853,6,0,L|72:157,1,104.999996795654,2|0,0:0|0:0,0:0:0:0:
170,193,94327,2,0,L|161:124,1,52.4999983978272,0|8,0:0|0:3,0:0:0:0:
66,197,94643,2,0,L|58:270,1,52.4999983978272,0|0,0:0|0:0,0:0:0:0:
184,281,94958,1,8,0:1:0:0:
184,281,95037,1,8,0:1:0:0:
184,281,95116,5,2,0:0:0:0:
45,329,95274,1,0,0:0:0:0:
66,197,95432,2,0,L|78:120,1,52.4999983978272
184,281,95748,2,0,L|198:362,1,52.4999983978272,8|0,0:3|0:0,0:0:0:0:
212,80,96064,2,0,L|204:29,1,52.4999983978272,0|8,0:0|0:1,0:0:0:0:
282,283,96379,5,6,0:0:0:0:
302,65,96695,1,0,0:0:0:0:
221,206,97011,1,8,0:3:0:0:
297,148,97327,1,0,0:0:0:0:
297,148,97485,1,8,0:1:0:0:
290,232,97643,6,0,L|281:293,1,52.4999983978272,2|8,0:0|0:1,0:0:0:0:
221,377,97958,1,0,0:0:0:0:
221,377,98116,2,0,L|211:310,1,52.4999983978272,0|8,0:0|0:3,0:0:0:0:
290,232,98432,1,0,0:0:0:0:
290,232,98590,2,0,L|279:298,1,52.4999983978272,0|0,0:0|0:0,0:0:0:0:
213,325,98906,5,2,0:0:0:0:
225,124,99222,1,0,0:0:0:0:
225,124,99379,1,0,0:0:0:0:
225,124,99537,1,8,0:3:0:0:
281,283,99853,1,0,0:0:0:0:
234,33,100169,2,0,L|213:226,2,179.999994506836,2|8|0,0:0|0:3|0:0,0:0:0:0:
234,33,101590,5,0,0:0:0:0:
234,33,101748,1,0,0:0:0:0:
256,192,101906,12,0,103958,0:0:0:0:
335,67,111537,5,2,0:0:0:0:
265,281,111853,1,0,0:0:0:0:
194,322,112169,2,0,L|108:312,1,75,8|0,0:0|0:0,0:0:0:0:
82,244,112643,2,0,L|172:235,1,75
174,235,113116,1,0,0:0:0:0:
384,179,113432,2,0,P|389:228|382:258,1,75,8|0,0:0|0:0,0:0:0:0:
314,149,113906,1,0,0:0:0:0:
314,149,114064,6,0,L|193:126,2,112.5,2|0|0,0:0|0:0|0:0,0:0:0:0:
384,179,115169,1,0,0:0:0:0:
384,179,115327,2,0,L|465:167,1,75,2|0,0:0|0:0,0:0:0:0:
505,48,115958,2,0,L|425:30,1,75,8|0,0:0|0:0,0:0:0:0:
359,41,116590,5,2,0:0:0:0:
397,252,116906,1,0,0:0:0:0:
468,290,117222,2,0,P|464:327|441:359,1,75,8|0,0:0|0:0,0:0:0:0:
371,369,117695,2,0,L|292:355,1,75,0|0,0:0|0:0,0:0:0:0:
278,352,118169,1,0,0:0:0:0:
170,179,118485,2,0,L|91:188,1,75,8|0,0:0|0:0,0:0:0:0:
61,257,118958,1,0,0:0:0:0:
61,257,119116,6,0,L|184:272,2,112.5,2|0|0,0:0|0:0|0:0,0:0:0:0:
203,39,120380,2,0,L|216:121,1,75,2|0,0:0|0:0,0:0:0:0:
231,186,121011,1,8,0:0:0:0:
399,63,121327,2,0,P|424:87|430:96,1,37.5
425,90,121643,6,0,L|306:73,1,112.5,2|0,0:0|0:0,0:0:0:0:
295,71,122274,1,8,0:0:0:0:
247,260,122590,1,0,0:0:0:0:
184,216,122906,2,0,P|201:168|187:101,2,112.5,2|0|0,0:0|0:0|0:0,0:0:0:0:
130,321,124169,5,2,0:0:0:0:
130,321,124327,1,0,0:0:0:0:
130,321,124485,2,0,L|116:240,1,75,0|8,0:0|0:0,0:0:0:0:
170,26,125116,2,0,P|201:36|221:34,1,37.5
206,36,125432,2,0,L|190:113,1,75,2|0,0:0|0:0,0:0:0:0:
247,160,126064,2,0,L|291:151,2,37.5,8|0|0,0:0|0:0|0:0,0:0:0:0:
190,110,126537,1,0,0:0:0:0:
126,183,126695,6,0,L|14:163,1,112.5,2|0,0:0|0:0,0:0:0:0:
0,160,127327,1,8,0:0:0:0:
230,233,127643,1,0,0:0:0:0:
303,274,127958,2,0,L|429:258,2,112.5,2|0|0,0:0|0:0|0:0,0:0:0:0:
230,233,129222,6,0,P|219:177|281:95,1,150,2|8,0:0|0:0,0:0:0:0:
336,23,130011,1,0,0:0:0:0:
336,23,130169,2,0,L|331:68,1,37.5,0|0,0:0|0:0,0:0:0:0:
331,61,130485,2,0,L|416:42,1,75,2|0,0:0|0:0,0:0:0:0:
512,132,131116,2,0,L|437:111,1,75,10|0,0:0|0:0,0:0:0:0:
404,45,131748,5,2,0:0:0:0:
231,36,132064,1,0,0:0:0:0:
245,114,132380,2,0,L|259:194,1,75,8|0,0:0|0:0,0:0:0:0:
323,247,132853,2,0,L|335:167,1,75
336,159,133327,1,0,0:0:0:0:
308,323,133643,2,0,L|232:305,1,75,8|0,0:0|0:0,0:0:0:0:
141,157,134116,1,0,0:0:0:0:
141,157,134274,6,0,P|135:223|175:264,2,112.5,2|0|0,0:0|0:0|0:0,0:0:0:0:
203,110,135380,1,0,0:0:0:0:
203,110,135537,2,0,L|293:103,1,75,2|0,0:0|0:0,0:0:0:0:
126,25,136169,2,0,L|47:8,1,75,8|0,0:0|0:0,0:0:0:0:
44,83,136801,5,2,0:0:0:0:
214,35,137116,1,0,0:0:0:0:
276,89,137432,2,0,P|284:129|276:177,1,75,8|0,0:0|0:0,0:0:0:0:
266,248,137906,2,0,L|348:232,1,75,0|0,0:0|0:0,0:0:0:0:
360,230,138380,1,0,0:0:0:0:
488,302,138695,2,0,L|410:286,1,75,8|0,0:0|0:0,0:0:0:0:
360,230,139169,1,0,0:0:0:0:
360,230,139327,6,0,L|372:344,2,112.5,2|0|0,0:0|0:0|0:0,0:0:0:0:
466,132,140590,2,0,L|480:55,1,75,2|0,0:0|0:0,0:0:0:0:
401,8,141222,2,0,L|410:55,2,37.5,8|0|0,0:0|0:0|0:0,0:0:0:0:
325,13,141695,1,0,0:0:0:0:
348,103,141853,6,0,L|230:115,1,112.5,2|0,0:0|0:0,0:0:0:0:
217,116,142485,1,8,0:0:0:0:
171,258,142801,1,0,0:0:0:0:
91,221,143116,2,0,L|10:211,1,75,2|0,0:0|0:0,0:0:0:0:
255,284,143748,2,0,L|341:270,1,75,8|0,0:0|0:0,0:0:0:0:
171,258,144380,6,0,L|194:376,2,112.5,2|0|0,0:0|0:0|0:0,0:0:0:0:
391,140,145643,2,0,L|374:219,1,75,2|0,0:0|0:0,0:0:0:0:
228,73,146274,2,0,P|222:25|228:-6,1,75,8|0,0:0|0:0,0:0:0:0:
465,112,146906,6,0,L|343:131,2,112.5,2|0|0,0:0|0:0|0:0,0:0:0:0:
228,73,148169,2,0,B|176:54|108:65,2,112.5,2|0|0,0:0|0:0|0:0,0:0:0:0:
280,127,149432,6,0,L|268:216,1,75,2|0,0:0|0:0,0:0:0:0:
313,268,149906,1,0,0:0:0:0:
313,268,150064,2,0,L|328:344,1,75,8|0,0:0|0:0,0:0:0:0:
390,384,150537,1,0,0:0:0:0:
457,333,150695,1,2,0:0:0:0:
213,77,151327,1,10,0:0:0:0:
393,158,151958,6,0,L|386:77,1,75,2|0,0:0|0:0,0:0:0:0:
274,30,152590,2,0,L|258:192,2,150,8|2|8,0:0|0:0|0:0,0:0:0:0:
202,0,154169,1,0,0:0:0:0:
202,0,154327,1,0,0:0:0:0:
202,0,154485,6,0,L|126:24,1,75,2|0,0:0|0:0,0:0:0:0:
72,328,155116,2,0,L|56:246,1,75,8|0,0:0|0:0,0:0:0:0:
116,207,155590,1,0,0:0:0:0:
116,207,155748,2,0,P|155:218|191:218,1,75,2|0,0:0|0:0,0:0:0:0:
424,150,156380,2,0,L|401:27,1,112.5,8|0,0:0|0:0,0:0:0:0:
327,14,157011,6,0,L|246:26,1,75,2|0,0:0|0:0,0:0:0:0:
211,90,157485,1,0,0:0:0:0:
211,90,157643,2,0,L|128:73,1,75,8|0,0:0|0:0,0:0:0:0:
41,216,158274,2,0,L|119:206,1,75,2|0,0:0|0:0,0:0:0:0:
179,248,158748,1,0,0:0:0:0:
179,248,158906,2,0,P|192:290|181:332,1,75,8|0,0:0|0:0,0:0:0:0:
307,304,159537,6,0,L|429:319,1,112.5,2|0,0:0|0:0,0:0:0:0:
483,238,160169,2,0,L|401:245,1,75,8|0,0:0|0:0,0:0:0:0:
397,71,160801,2,0,P|429:115|417:186,2,112.5,2|0|0,0:0|0:0|0:0,0:0:0:0:
317,70,162064,6,0,L|243:91,1,75,2|0,0:0|0:0,0:0:0:0:
189,199,162695,2,0,L|342:233,2,150,8|2|8,0:0|0:0|0:0,0:0:0:0:
134,250,164274,1,0,0:0:0:0:
134,250,164432,1,0,0:0:0:0:
134,250,164590,6,0,L|149:331,1,75,2|0,0:0|0:0,0:0:0:0:
33,7,165222,2,0,L|20:84,1,75,8|0,0:0|0:0,0:0:0:0:
90,107,165695,1,0,0:0:0:0:
90,107,165853,2,0,P|108:146|132:170,1,75,2|0,0:0|0:0,0:0:0:0:
275,67,166485,2,0,L|148:44,1,112.5,8|0,0:0|0:0,0:0:0:0:
90,107,167116,6,0,B|80:156|80:156|99:249,2,134.999995880127,2|0|0,0:0|0:0|0:0,0:0:0:0:
415,212,168379,2,0,B|431:262|431:262|414:351,2,134.999995880127,2|0|0,0:0|0:0|0:0,0:0:0:0:
342,164,169643,5,2,0:0:0:0:
342,164,169958,1,0,0:0:0:0:
270,269,170116,1,0,0:0:0:0:
235,59,170274,2,0,L|249:2,1,44.999998626709,8|0,0:3|0:0,0:0:0:0:
317,43,170590,1,2,0:0:0:0:
335,120,170748,2,0,L|344:184,1,44.999998626709,8|0,0:3|0:0,0:0:0:0:
194,301,171064,5,2,0:0:0:0:
214,372,171222,1,8,0:3:0:0:
123,279,171379,1,8,0:3:0:0:
123,279,171458,1,8,0:3:0:0:
123,279,171537,1,8,0:3:0:0:
222,194,171695,1,2,0:0:0:0:
181,120,171853,2,0,L|125:105,1,44.999998626709,8|0,0:3|0:0,0:0:0:0:
30,24,172169,6,0,L|167:6,1,104.999996795654,6|0,0:0|0:0,0:0:0:0:
181,120,172643,1,0,0:0:0:0:
256,94,172801,1,8,0:3:0:0:
325,59,172958,2,0,L|399:84,1,52.4999983978272
181,120,173274,1,8,0:1:0:0:
181,120,173432,6,0,P|183:55|194:40,2,52.4999983978272,2|8|0,0:0|0:1|0:0,0:0:0:0:
256,94,173906,1,0,0:0:0:0:
374,75,174064,1,8,0:3:0:0:
256,94,174222,1,0,0:0:0:0:
374,75,174380,2,0,L|385:11,1,52.4999983978272,0|8,0:0|0:1,0:0:0:0:
488,144,174695,6,0,L|419:123,1,52.4999983978272,2|0,0:0|0:0,0:0:0:0:
374,75,175011,1,0,0:0:0:0:
204,103,175169,2,0,L|284:88,1,52.4999983978272,0|8,0:0|0:3,0:0:0:0:
437,128,175485,2,0,L|368:110,1,52.4999983978272,0|8,0:0|0:1,0:0:0:0:
144,153,175801,1,8,0:1:0:0:
204,103,175958,6,0,L|223:16,1,52.4999983978272,2|0,0:0|0:0,0:0:0:0:
63,0,176274,2,0,L|73:72,1,52.4999983978272
144,153,176590,1,8,0:3:0:0:
204,103,176748,1,0,0:0:0:0:
328,6,176906,2,0,P|288:44|284:67,1,52.4999983978272,0|8,0:0|0:1,0:0:0:0:
505,28,177222,6,0,L|385:7,1,104.999996795654,2|0,0:0|0:0,0:0:0:0:
317,159,177695,1,0,0:0:0:0:
389,151,177853,1,8,0:3:0:0:
459,141,178011,2,0,L|532:131,1,52.4999983978272,0|0,0:0|0:0,0:0:0:0:
248,130,178327,1,8,0:1:0:0:
248,130,178485,6,0,P|244:67|253:50,2,52.4999983978272,2|8|0,0:0|0:1|0:0,0:0:0:0:
338,9,178958,1,0,0:0:0:0:
338,9,179116,2,0,L|327:75,1,52.4999983978272,8|0,0:3|0:0,0:0:0:0:
248,130,179432,2,0,L|149:104,1,52.4999983978272,0|0,0:0|0:0,0:0:0:0:
172,10,179748,6,0,L|45:31,1,104.999996795654,2|0,0:0|0:0,0:0:0:0:
389,151,180222,2,0,P|391:88|378:66,1,52.4999983978272,0|8,0:0|0:3,0:0:0:0:
305,14,180537,2,0,P|325:47|331:85,1,52.4999983978272,8|0,0:1|0:0,0:0:0:0:
248,130,180853,1,0,0:0:0:0:
389,151,181011,5,2,0:0:0:0:
389,151,181169,1,8,0:1:0:0:
497,34,181327,2,0,L|434:45,1,52.4999983978272
248,130,181643,2,0,L|322:144,1,52.4999983978272,8|0,0:3|0:0,0:0:0:0:
80,100,181958,2,0,L|99:174,1,52.4999983978272,0|0,0:0|0:0,0:0:0:0:
30,360,182274,6,0,L|167:378,1,104.999996795654,6|0,0:0|0:0,0:0:0:0:
181,264,182748,1,0,0:0:0:0:
256,290,182906,1,8,0:3:0:0:
325,325,183064,2,0,L|399:300,1,52.4999983978272
181,264,183379,1,8,0:1:0:0:
181,264,183537,6,0,P|183:329|194:344,2,52.4999983978272,2|8|0,0:0|0:1|0:0,0:0:0:0:
256,290,184011,1,0,0:0:0:0:
374,309,184169,1,8,0:3:0:0:
256,290,184327,1,0,0:0:0:0:
374,309,184485,2,0,L|385:373,1,52.4999983978272,0|8,0:0|0:1,0:0:0:0:
488,240,184800,6,0,L|419:261,1,52.4999983978272,2|0,0:0|0:0,0:0:0:0:
374,309,185116,1,0,0:0:0:0:
204,281,185274,2,0,L|284:296,1,52.4999983978272,0|8,0:0|0:3,0:0:0:0:
437,256,185590,2,0,L|368:274,1,52.4999983978272,0|8,0:0|0:1,0:0:0:0:
144,231,185906,1,8,0:1:0:0:
204,281,186064,6,0,L|223:368,1,52.4999983978272,2|0,0:0|0:0,0:0:0:0:
63,384,186379,2,0,L|73:312,1,52.4999983978272
144,231,186695,1,8,0:3:0:0:
204,281,186853,1,0,0:0:0:0:
328,378,187011,2,0,P|288:340|284:317,1,52.4999983978272,0|8,0:0|0:1,0:0:0:0:
505,356,187327,6,0,L|385:377,1,104.999996795654,2|0,0:0|0:0,0:0:0:0:
317,225,187800,1,0,0:0:0:0:
389,233,187958,1,8,0:3:0:0:
459,243,188116,2,0,L|532:253,1,52.4999983978272,0|0,0:0|0:0,0:0:0:0:
248,254,188432,1,8,0:1:0:0:
248,254,188590,6,0,P|244:317|253:334,2,52.4999983978272,2|8|0,0:0|0:1|0:0,0:0:0:0:
338,375,189063,1,0,0:0:0:0:
338,375,189222,2,0,L|327:309,1,52.4999983978272,8|0,0:3|0:0,0:0:0:0:
248,254,189537,2,0,L|149:280,1,52.4999983978272,0|8,0:0|0:1,0:0:0:0:
172,374,189853,6,0,L|45:353,1,104.999996795654,2|0,0:0|0:0,0:0:0:0:
389,233,190327,2,0,P|391:296|378:318,1,52.4999983978272,2|8,0:0|0:3,0:0:0:0:
305,370,190643,2,0,P|325:337|331:299,1,52.4999983978272,0|8,0:0|0:3,0:0:0:0:
248,254,190958,1,8,0:1:0:0:
248,254,191037,1,8,0:1:0:0:
248,254,191116,5,2,0:0:0:0:
389,233,191274,1,0,0:0:0:0:
497,350,191432,2,0,L|434:339,1,52.4999983978272
248,254,191748,2,0,L|322:240,1,52.4999983978272,8|0,0:3|0:0,0:0:0:0:
67,277,192064,2,0,P|85:240|112:221,1,52.4999983978272,0|8,0:0|0:1,0:0:0:0:
275,143,192380,5,6,0:0:0:0:
93,233,192695,1,0,0:0:0:0:
299,244,193011,1,8,0:3:0:0:
196,151,193327,1,0,0:0:0:0:
196,151,193485,1,8,0:1:0:0:
275,143,193643,6,0,L|347:130,1,52.4999983978272,2|8,0:0|0:1,0:0:0:0:
443,251,193958,1,0,0:0:0:0:
443,251,194116,2,0,L|373:238,1,52.4999983978272,0|8,0:0|0:3,0:0:0:0:
504,135,194432,1,0,0:0:0:0:
504,135,194590,2,0,P|457:173|445:175,1,52.4999983978272
299,244,194906,5,2,0:0:0:0:
129,146,195222,1,0,0:0:0:0:
129,146,195380,1,0,0:0:0:0:
129,146,195537,1,8,0:3:0:0:
391,241,195853,1,0,0:0:0:0:
26,159,196169,2,0,L|240:133,2,209.999993591309,2|8|6,0:0|0:3|0:0,0:0:0:0:
262,61,197590,1,0,0:3:0:0:
181,46,197748,6,0,L|289:66,1,82.5000025177003,0|8,0:0|0:3,0:0:0:0:
281,174,198380,1,2,0:0:0:0:
281,174,198537,1,8,0:3:0:0:
281,174,198695,2,0,P|241:212|235:215,1,41.2500012588501,2|8,0:0|0:1,0:0:0:0:
253,204,199011,2,0,L|163:224,2,82.5000025177003,0|8|0,0:3|0:3|0:0,0:0:0:0:
328,246,199801,1,8,0:1:0:0:
328,246,199880,1,0,0:0:0:0:
328,246,199958,6,0,L|311:338,1,82.5000025177003,2|0,0:0|0:0,0:0:0:0:
398,373,200432,1,0,0:0:0:0:
398,373,200590,2,0,P|440:337|474:326,1,82.5000025177003,8|2,0:3|0:0,0:0:0:0:
487,230,201064,1,8,0:3:0:0:
487,230,201222,2,0,L|480:176,1,41.2500012588501,2|0,0:0|0:0,0:0:0:0:
434,80,201537,2,0,L|424:140,1,41.2500012588501,0|8,0:0|0:3,0:0:0:0:
481,189,201853,2,0,L|469:100,1,82.5000025177003,8|0,0:3|0:0,0:0:0:0:
233,24,202485,6,0,L|217:121,2,82.5000025177003,2|0|8,0:0|0:0|0:3,0:0:0:0:
171,222,203432,1,2,0:0:0:0:
171,222,203590,1,0,0:0:0:0:
171,222,203748,2,0,L|165:174,1,41.2500012588501,2|8,0:0|0:1,0:0:0:0:
165,181,204064,2,0,P|115:190|76:203,2,82.5000025177003,0|8|0,0:0|0:3|0:0,0:0:0:0:
251,201,204853,1,8,0:1:0:0:
251,201,204932,1,0,0:0:0:0:
251,201,205011,6,0,L|333:217,1,82.5000025177003,2|0,0:0|0:0,0:0:0:0:
512,350,205643,2,0,L|422:373,1,82.5000025177003,8|2,0:3|0:0,0:0:0:0:
345,375,206116,1,2,0:0:0:0:
345,375,206274,2,0,L|356:325,1,41.2500012588501,2|0,0:0|0:0,0:0:0:0:
413,240,206590,2,0,L|419:285,1,41.2500012588501
474,176,206906,1,8,0:3:0:0:
415,122,207064,1,0,0:0:0:0:
339,107,207222,2,0,L|290:117,1,41.2500012588501
298,115,207537,6,0,L|314:22,2,82.5000025177003,2|0|8,0:0|0:0|0:3,0:0:0:0:
207,229,208485,1,2,0:0:0:0:
207,229,208643,1,8,0:1:0:0:
207,229,208801,2,0,P|199:189|199:184,1,41.2500012588501,2|8,0:0|0:1,0:0:0:0:
199,188,209116,2,0,L|183:282,2,82.5000025177003,0|8|0,0:0|0:3|0:0,0:0:0:0:
142,136,209906,1,0,0:0:0:0:
142,136,209985,1,8,0:1:0:0:
142,136,210064,6,0,P|84:170|51:178,1,82.5000025177003,2|0,0:0|0:0,0:0:0:0:
263,360,210695,2,0,L|281:266,1,82.5000025177003,8|2,0:3|0:0,0:0:0:0:
343,211,211169,1,8,0:1:0:0:
343,211,211327,2,0,P|380:197|391:196,1,41.2500012588501,2|8,0:0|0:1,0:0:0:0:
381,196,211643,2,0,L|464:210,2,82.5000025177003,0|8|0,0:0|0:3|0:0,0:0:0:0:
324,144,212432,1,0,0:0:0:0:
324,144,212511,1,0,0:0:0:0:
324,144,212590,6,0,B|316:106|316:106|325:47,2,82.5000025177003,2|0|8,0:0|0:0|0:3,0:0:0:0:
252,19,213537,1,2,0:0:0:0:
252,19,213695,1,8,0:1:0:0:
252,19,213853,2,0,L|208:27,1,41.2500012588501,2|8,0:0|0:1,0:0:0:0:
152,71,214169,2,0,L|56:50,2,82.5000025177003,0|8|0,0:0|0:3|0:0,0:0:0:0:
176,153,214958,1,8,0:1:0:0:
176,153,215116,5,2,0:0:0:0:
272,277,215432,1,0,0:0:0:0:
280,150,215748,1,8,0:3:0:0:
180,355,216064,1,2,0:0:0:0:
180,355,216222,1,8,0:1:0:0:
180,355,216380,2,0,P|207:335|220:332,1,41.2500012588501,2|8,0:0|0:1,0:0:0:0:
272,277,216695,2,0,L|363:299,3,82.5000025177003,0|8|0|0,0:0|0:3|0:0|0:3,0:0:0:0:
403,87,227748,5,2,0:0:0:0:
327,51,229011,5,2,0:0:0:0:
241,67,230274,5,2,0:0:0:0:
185,142,231537,6,0,B|287:157|204:193|353:203,2,165.000005035401,2|2|2,0:0|0:0|0:0,0:0:0:0:
301,293,234064,5,2,0:0:0:0:
424,104,235327,5,2,0:0:0:0:
424,104,235643,1,8,0:3:0:0:
424,104,235958,1,8,0:3:0:0:
424,104,236274,5,8,0:3:0:0:
347,75,236432,1,8,0:3:0:0:
287,125,236590,5,8,0:3:0:0:
375,229,236748,1,8,0:3:0:0:
424,104,236906,1,8,0:3:0:0:
298,203,237064,1,8,0:3:0:0:
437,178,237222,5,2,0:0:0:0:
287,125,237380,1,0,0:0:0:0:
295,320,237537,1,8,0:3:0:0:
301,327,237616,1,8,0:3:0:0:
301,327,237695,2,0,L|329:333,1,28.1250010728836,8|8,0:3|0:3,0:0:0:0:
466,367,237853,6,0,L|481:251,1,112.500004291535,6|0,0:0|0:0,0:0:0:0:
375,229,238327,1,0,0:0:0:0:
329,333,238485,1,8,0:3:0:0:
211,158,238643,2,0,L|228:80,1,56.2500021457673,0|0,0:0|0:0,0:0:0:0:
160,261,238958,1,0,0:0:0:0:
168,116,239116,6,0,L|224:102,1,56.2500021457673,2|8,0:0|0:1,0:0:0:0:
94,163,239432,1,0,0:0:0:0:
55,16,239590,2,0,L|-13:4,1,56.2500021457673,0|8,0:0|0:3,0:0:0:0:
168,116,239906,1,0,0:0:0:0:
55,16,240064,2,0,L|37:99,1,56.2500021457673,0|8,0:0|0:1,0:0:0:0:
322,135,240380,6,0,L|307:18,1,112.500004291535,2|0,0:0|0:0,0:0:0:0:
321,251,240853,2,0,L|302:324,1,56.2500021457673,0|8,0:0|0:3,0:0:0:0:
474,372,241169,2,0,L|457:305,1,56.2500021457673,0|8,0:0|0:1,0:0:0:0:
438,238,241485,1,8,0:1:0:0:
338,376,241643,5,2,0:0:0:0:
338,376,241801,1,0,0:0:0:0:
322,135,241958,2,0,L|243:153,1,56.2500021457673
438,238,242274,1,8,0:3:0:0:
322,135,242432,1,0,0:0:0:0:
285,289,242590,1,0,0:0:0:0:
370,312,242748,1,0,0:0:0:0:
255,205,242906,6,0,L|121:189,1,112.500004291535,2|0,0:0|0:0,0:0:0:0:
17,354,243380,2,0,L|106:341,1,56.2500021457673
285,289,243695,1,0,0:0:0:0:
251,366,243853,1,0,0:0:0:0:
143,191,244011,2,0,L|133:114,1,56.2500021457673,8|2,0:1|0:0,0:0:0:0:
358,238,244327,5,8,0:1:0:0:
387,319,244485,2,0,L|367:418,1,56.2500021457673
439,152,244801,1,8,0:3:0:0:
461,235,244958,1,0,0:0:0:0:
335,128,245116,2,0,P|375:92|406:85,1,56.2500021457673,0|8,0:0|0:1,0:0:0:0:
475,18,245432,6,0,L|336:7,1,112.500004291535,2|0,0:0|0:0,0:0:0:0:
280,189,245906,2,0,L|200:200,1,56.2500021457673,2|8,0:0|0:1,0:0:0:0:
218,282,246222,1,8,0:1:0:0:
106,349,246380,2,0,L|50:337,1,56.2500021457673,0|2,0:0|0:0,0:0:0:0:
225,117,246695,5,0,0:0:0:0:
136,138,246853,1,8,0:3:0:0:
282,190,247011,1,8,0:3:0:0:
136,138,247169,1,8,0:3:0:0:
170,286,247327,1,8,0:3:0:0:
252,270,247485,1,8,0:3:0:0:
56,227,247643,2,0,P|119:217|130:207,1,56.2500021457673,8|0,0:3|0:0,0:0:0:0:
46,17,247958,6,0,L|31:133,1,112.500004291535,6|0,0:0|0:0,0:0:0:0:
136,138,248432,1,0,0:0:0:0:
180,37,248590,1,8,0:3:0:0:
301,226,248748,2,0,L|284:304,1,56.2500021457673,0|0,0:0|0:0,0:0:0:0:
352,123,249063,1,8,0:1:0:0:
344,268,249222,6,0,L|288:282,1,56.2500021457673,2|8,0:0|0:1,0:0:0:0:
418,221,249537,1,0,0:0:0:0:
457,368,249695,2,0,L|525:380,1,56.2500021457673,0|8,0:0|0:3,0:0:0:0:
344,268,250011,1,0,0:0:0:0:
457,368,250169,2,0,L|475:285,1,56.2500021457673,0|8,0:0|0:1,0:0:0:0:
190,249,250485,6,0,L|205:366,1,112.500004291535,2|0,0:0|0:0,0:0:0:0:
191,133,250958,2,0,L|210:60,1,56.2500021457673,0|8,0:0|0:3,0:0:0:0:
38,12,251274,2,0,L|55:79,1,56.2500021457673,0|8,0:0|0:1,0:0:0:0:
74,146,251590,1,8,0:1:0:0:
174,8,251748,5,2,0:0:0:0:
174,8,251906,1,0,0:0:0:0:
190,249,252064,2,0,L|269:231,1,56.2500021457673
74,146,252379,1,8,0:3:0:0:
190,249,252537,1,0,0:0:0:0:
227,95,252695,1,0,0:0:0:0:
142,72,252853,1,0,0:0:0:0:
257,179,253011,6,0,L|391:195,1,112.500004291535,6|0,0:0|0:0,0:0:0:0:
495,30,253485,2,0,L|406:43,1,56.2500021457673,0|8,0:0|0:3,0:0:0:0:
227,95,253800,1,0,0:0:0:0:
261,18,253958,1,0,0:0:0:0:
369,193,254116,2,0,L|379:270,1,56.2500021457673,8|2,0:1|0:0,0:0:0:0:
154,146,254432,5,8,0:1:0:0:
125,65,254590,2,0,L|145:-34,1,56.2500021457673
73,232,254906,1,8,0:3:0:0:
51,149,255063,1,0,0:0:0:0:
177,256,255222,2,0,P|137:292|106:299,1,56.2500021457673
37,366,255537,6,0,L|176:377,1,112.500004291535,2|0,0:0|0:0,0:0:0:0:
232,195,256011,2,0,L|312:184,1,56.2500021457673,0|8,0:0|0:3,0:0:0:0:
450,50,256327,2,0,L|359:32,1,56.2500021457673,0|8,0:0|0:3,0:0:0:0:
287,267,256643,1,8,0:3:0:0:
287,267,256722,1,8,0:3:0:0:
287,267,256800,5,8,0:3:0:0:
376,246,256958,1,0,0:0:0:0:
230,194,257116,1,2,0:0:0:0:
376,246,257274,1,0,0:0:0:0:
342,98,257432,1,8,0:3:0:0:
260,114,257590,1,0,0:0:0:0:
481,54,257748,1,8,0:1:0:0:
399,33,257906,1,8,0:1:0:0:
402,164,258064,5,2,0:0:0:0:
241,14,258380,2,0,L|116:33,2,112.500004291535,0|8|0,0:0|0:3|0:0,0:0:0:0:
262,296,259169,1,8,0:1:0:0:
262,296,259327,2,0,L|452:331,2,168.750006437302,2|0|0,0:0|0:0|0:0,0:0:0:0:
182,222,260590,5,2,0:0:0:0:
448,112,261853,1,0,0:0:0:0:
437,200,262485,1,0,0:0:0:0:
429,286,263116,6,0,L|434:334,2,33.7499989700318
437,200,263590,1,0,0:0:0:0:
330,339,263906,1,0,0:0:0:0:
275,174,264222,1,0,0:0:0:0:
275,174,264380,2,0,P|234:196|210:198,1,67.4999979400635,0|0,0:0|0:0,0:0:0:0:
153,155,264853,1,0,0:0:0:0:
153,155,264932,1,0,0:0:0:0:
153,155,265011,6,0,L|145:76,1,75,0|0,0:0|0:0,0:0:0:0:
324,51,265645,2,0,L|376:62,2,37.5
260,96,266122,1,0,0:0:0:0:
359,170,266439,1,0,0:0:0:0:
428,16,266757,1,0,0:0:0:0:
428,16,266915,2,0,P|376:-3|345:4,1,75,0|0,0:0|0:0,0:0:0:0:
189,94,267550,6,0,P|245:103|273:88,1,75
359,170,268185,2,0,L|346:249,1,67.4999979400635
298,289,268671,1,0,0:0:0:0:
298,289,268833,2,0,P|329:306|368:305,1,67.4999979400635
485,104,269482,2,0,L|410:124,1,67.4999979400635
432,327,270113,2,0,L|510:307,1,67.4999979400635
485,242,270749,6,0,L|473:161,1,75
504,94,271238,1,0,0:0:0:0:
504,94,271401,1,0,0:0:0:0:
401,179,271749,1,0,0:0:0:0:
384,47,272097,1,0,0:0:0:0:
256,192,273398,5,0,0:0:0:0:
256,192,273487,1,0,0:0:0:0:
256,192,273576,12,0,280630,0:0:0:0:
