osu file format v14

[General]
AudioFilename: audio.mp3
AudioLeadIn: 0
PreviewTime: 115812
Countdown: 0
SampleSet: Normal
StackLeniency: 0.7
Mode: 3
LetterboxInBreaks: 0
SpecialStyle: 0
WidescreenStoryboard: 0

[Editor]
DistanceSpacing: 1.2
BeatDivisor: 4
GridSize: 8
TimelineZoom: 1

[Metadata]
Title:Lost
TitleUnicode:Lost
Artist:Chasers
ArtistUnicode:Chasers
Creator:IISacrafize
Version:4k--lost
Source:
Tags:hardcore lost chasers
BeatmapID:1802719
BeatmapSetID:861741

[Difficulty]
HPDrainRate:4
CircleSize:4
OverallDifficulty:6.1
ApproachRate:5
SliderMultiplier:1.4
SliderTickRate:1

[Events]
//Background and Video events
//Break Periods
//Storyboard Layer 0 (Background)
//Storyboard Layer 1 (Fail)
//Storyboard Layer 2 (Pass)
//Storyboard Layer 3 (Foreground)
//Storyboard Sound Samples

[TimingPoints]
48,352.941176470588,4,1,0,100,1,0
43930,-100,4,1,0,100,0,0
44047,-83.3333333333333,4,1,0,100,0,0
44165,-76.9230769230769,4,1,0,100,0,0
44283,-66.6666666666667,4,1,0,100,0,0
44400,-58.8235294117647,4,1,0,100,0,0
44518,-52.6315789473684,4,1,0,100,0,0
44636,-47.6190476190476,4,1,0,100,0,0
44753,-45.4545454545455,4,1,0,100,0,0
44871,-43.4782608695652,4,1,0,100,0,0
44989,-41.6666666666667,4,1,0,100,0,0
45106,-40.8163265306122,4,1,0,100,0,0
45224,-40,4,1,0,100,0,0
45342,-10,4,1,0,100,0,0
45459,-100,4,1,0,100,0,0

[HitObjects]
64,192,48,5,0,0:0:0:0:
448,192,48,1,0,0:0:0:0:
192,192,224,1,0,0:0:0:0:
320,192,312,1,0,0:0:0:0:
192,192,400,1,0,0:0:0:0:
448,192,577,1,0,0:0:0:0:
192,192,753,1,0,0:0:0:0:
64,192,842,1,0,0:0:0:0:
192,192,930,1,0,0:0:0:0:
320,192,1106,1,0,0:0:0:0:
192,192,1283,1,0,0:0:0:0:
448,192,1371,1,0,0:0:0:0:
320,192,1459,1,0,0:0:0:0:
192,192,1636,1,0,0:0:0:0:
64,192,1812,1,0,0:0:0:0:
448,192,1989,1,0,0:0:0:0:
192,192,2165,1,0,0:0:0:0:
320,192,2342,1,0,0:0:0:0:
192,192,2518,1,0,0:0:0:0:
64,192,2518,1,0,0:0:0:0:
448,192,2695,1,0,0:0:0:0:
320,192,2695,1,0,0:0:0:0:
192,192,2871,1,0,0:0:0:0:
448,192,3048,1,0,0:0:0:0:
320,192,3136,1,0,0:0:0:0:
448,192,3224,1,0,0:0:0:0:
64,192,3400,1,0,0:0:0:0:
192,192,3577,1,0,0:0:0:0:
448,192,3665,1,0,0:0:0:0:
64,192,3665,1,0,0:0:0:0:
320,192,3753,1,0,0:0:0:0:
192,192,3930,1,0,0:0:0:0:
448,192,4106,1,0,0:0:0:0:
320,192,4106,1,0,0:0:0:0:
192,192,4195,1,0,0:0:0:0:
448,192,4283,1,0,0:0:0:0:
192,192,4459,1,0,0:0:0:0:
320,192,4636,1,0,0:0:0:0:
192,192,4812,1,0,0:0:0:0:
448,192,4812,1,0,0:0:0:0:
320,192,4989,1,0,0:0:0:0:
64,192,5165,1,0,0:0:0:0:
192,192,5165,1,0,0:0:0:0:
448,192,5342,1,0,0:0:0:0:
320,192,5342,1,0,0:0:0:0:
192,192,5518,1,0,0:0:0:0:
64,192,5518,1,0,0:0:0:0:
320,192,5695,1,0,0:0:0:0:
448,192,5871,1,0,0:0:0:0:
192,192,5959,1,0,0:0:0:0:
320,192,6048,1,0,0:0:0:0:
64,192,6048,1,0,0:0:0:0:
448,192,6224,1,0,0:0:0:0:
192,192,6400,1,0,0:0:0:0:
320,192,6400,1,0,0:0:0:0:
64,192,6489,1,0,0:0:0:0:
448,192,6489,1,0,0:0:0:0:
320,192,6577,1,0,0:0:0:0:
192,192,6753,1,0,0:0:0:0:
448,192,6930,1,0,0:0:0:0:
320,192,6930,1,0,0:0:0:0:
192,192,7018,1,0,0:0:0:0:
64,192,7018,1,0,0:0:0:0:
320,192,7106,1,0,0:0:0:0:
448,192,7106,1,0,0:0:0:0:
192,192,7283,1,0,0:0:0:0:
448,192,7459,1,0,0:0:0:0:
320,192,7459,1,0,0:0:0:0:
192,192,7636,1,0,0:0:0:0:
64,192,7812,1,0,0:0:0:0:
448,192,7812,1,0,0:0:0:0:
192,192,7989,1,0,0:0:0:0:
320,192,8165,1,0,0:0:0:0:
64,192,8165,1,0,0:0:0:0:
448,192,8342,1,0,0:0:0:0:
192,192,8342,1,0,0:0:0:0:
320,192,8518,1,0,0:0:0:0:
192,192,8695,1,0,0:0:0:0:
448,192,8695,1,0,0:0:0:0:
320,192,8783,1,0,0:0:0:0:
64,192,8783,1,0,0:0:0:0:
192,192,8871,1,0,0:0:0:0:
448,192,8871,1,0,0:0:0:0:
320,192,9048,1,0,0:0:0:0:
192,192,9224,1,0,0:0:0:0:
320,192,9224,1,0,0:0:0:0:
448,192,9312,1,0,0:0:0:0:
64,192,9312,1,0,0:0:0:0:
192,192,9400,1,0,0:0:0:0:
320,192,9400,1,0,0:0:0:0:
448,192,9577,1,0,0:0:0:0:
64,192,9753,1,0,0:0:0:0:
192,192,9753,1,0,0:0:0:0:
320,192,9842,1,0,0:0:0:0:
448,192,9842,1,0,0:0:0:0:
192,192,9930,1,0,0:0:0:0:
64,192,9930,1,0,0:0:0:0:
320,192,10106,1,0,0:0:0:0:
192,192,10283,1,0,0:0:0:0:
448,192,10283,1,0,0:0:0:0:
320,192,10459,1,0,0:0:0:0:
64,192,10459,1,0,0:0:0:0:
448,192,10636,1,0,0:0:0:0:
192,192,10636,1,0,0:0:0:0:
320,192,10812,1,0,0:0:0:0:
448,192,10989,1,0,0:0:0:0:
64,192,11165,1,0,0:0:0:0:
192,192,11342,1,0,0:0:0:0:
320,192,11342,1,0,0:0:0:0:
448,192,11342,1,0,0:0:0:0:
192,192,11518,1,0,0:0:0:0:
64,192,11518,1,0,0:0:0:0:
192,192,11695,1,0,0:0:0:0:
320,192,11695,1,0,0:0:0:0:
448,192,11695,1,0,0:0:0:0:
192,192,11871,1,0,0:0:0:0:
64,192,11871,1,0,0:0:0:0:
192,192,12048,1,0,0:0:0:0:
320,192,12048,1,0,0:0:0:0:
448,192,12048,1,0,0:0:0:0:
192,192,12224,1,0,0:0:0:0:
64,192,12224,1,0,0:0:0:0:
192,192,12400,1,0,0:0:0:0:
320,192,12400,1,0,0:0:0:0:
448,192,12400,1,0,0:0:0:0:
64,192,12577,1,0,0:0:0:0:
192,192,12577,1,0,0:0:0:0:
320,192,12753,1,0,0:0:0:0:
448,192,12753,1,0,0:0:0:0:
192,192,12930,1,0,0:0:0:0:
448,192,13106,1,0,0:0:0:0:
64,192,13106,1,0,0:0:0:0:
320,192,13283,1,0,0:0:0:0:
192,192,13459,1,0,0:0:0:0:
64,192,13459,1,0,0:0:0:0:
448,192,13636,1,0,0:0:0:0:
64,192,13812,1,0,0:0:0:0:
320,192,13812,1,0,0:0:0:0:
448,192,13989,1,0,0:0:0:0:
192,192,14165,1,0,0:0:0:0:
320,192,14165,1,0,0:0:0:0:
64,192,14342,1,0,0:0:0:0:
192,192,14342,1,0,0:0:0:0:
448,192,14518,1,0,0:0:0:0:
320,192,14518,1,0,0:0:0:0:
192,192,14695,1,0,0:0:0:0:
320,192,14695,1,0,0:0:0:0:
448,192,14871,1,0,0:0:0:0:
320,192,14871,1,0,0:0:0:0:
64,192,15047,1,0,0:0:0:0:
192,192,15047,1,0,0:0:0:0:
320,192,15224,1,0,0:0:0:0:
192,192,15224,1,0,0:0:0:0:
64,192,15400,1,0,0:0:0:0:
192,192,15400,1,0,0:0:0:0:
448,192,15577,1,0,0:0:0:0:
192,192,15753,1,0,0:0:0:0:
320,192,15753,1,0,0:0:0:0:
448,192,15930,1,0,0:0:0:0:
64,192,16106,1,0,0:0:0:0:
192,192,16106,1,0,0:0:0:0:
448,192,16283,1,0,0:0:0:0:
192,192,16459,1,0,0:0:0:0:
320,192,16459,1,0,0:0:0:0:
448,192,16636,1,0,0:0:0:0:
64,192,16812,1,0,0:0:0:0:
320,192,16812,1,0,0:0:0:0:
192,192,16989,1,0,0:0:0:0:
448,192,17165,1,0,0:0:0:0:
320,192,17342,1,0,0:0:0:0:
192,192,17518,1,0,0:0:0:0:
448,192,17695,1,0,0:0:0:0:
64,192,17871,1,0,0:0:0:0:
192,192,18047,1,0,0:0:0:0:
320,192,18224,1,0,0:0:0:0:
64,192,18400,1,0,0:0:0:0:
448,192,18577,1,0,0:0:0:0:
320,192,18753,1,0,0:0:0:0:
192,192,18930,1,0,0:0:0:0:
448,192,19106,1,0,0:0:0:0:
192,192,19283,1,0,0:0:0:0:
320,192,19459,1,0,0:0:0:0:
64,192,19636,1,0,0:0:0:0:
448,192,19812,1,0,0:0:0:0:
320,192,19812,1,0,0:0:0:0:
192,192,19900,1,0,0:0:0:0:
64,192,19900,1,0,0:0:0:0:
320,192,19989,1,0,0:0:0:0:
448,192,19989,1,0,0:0:0:0:
192,192,20077,1,0,0:0:0:0:
64,192,20077,1,0,0:0:0:0:
320,192,20165,1,4,0:0:0:0:
448,192,20165,1,4,0:0:0:0:
192,192,20253,1,4,0:0:0:0:
64,192,20253,1,4,0:0:0:0:
320,192,20342,1,4,0:0:0:0:
448,192,20342,1,4,0:0:0:0:
192,192,20430,1,4,0:0:0:0:
64,192,20430,1,4,0:0:0:0:
320,192,20518,1,8,0:0:0:0:
448,192,20518,1,8,0:0:0:0:
192,192,20606,1,8,0:0:0:0:
64,192,20606,1,8,0:0:0:0:
320,192,20695,1,8,0:0:0:0:
448,192,20695,1,8,0:0:0:0:
192,192,20783,1,8,0:0:0:0:
64,192,20783,1,8,0:0:0:0:
320,192,20871,1,2,0:0:0:0:
448,192,20871,1,2,0:0:0:0:
192,192,20959,1,2,0:0:0:0:
64,192,20959,1,2,0:0:0:0:
320,192,21047,1,2,0:0:0:0:
448,192,21047,1,2,0:0:0:0:
64,192,21136,1,2,0:0:0:0:
192,192,21136,1,2,0:0:0:0:
320,192,21224,1,14,0:0:0:0:
448,192,21224,1,14,0:0:0:0:
192,192,22459,1,8,0:0:0:0:
64,192,22459,1,8,0:0:0:0:
320,192,22459,1,8,0:0:0:0:
448,192,22459,1,8,0:0:0:0:
192,192,22636,128,0,22989:0:0:0:0:
448,192,22636,1,0,0:0:0:0:
64,192,22636,1,0,0:0:0:0:
320,192,22812,1,0,0:0:0:0:
448,192,22989,128,0,23165:0:0:0:0:
64,192,22989,1,0,0:0:0:0:
320,192,23165,1,0,0:0:0:0:
64,192,23165,1,0,0:0:0:0:
192,192,23342,128,0,23695:0:0:0:0:
320,192,23342,1,0,0:0:0:0:
448,192,23518,1,0,0:0:0:0:
320,192,23695,128,0,23871:0:0:0:0:
64,192,23695,1,0,0:0:0:0:
192,192,23871,1,0,0:0:0:0:
448,192,23871,1,0,0:0:0:0:
64,192,24047,128,0,24400:0:0:0:0:
320,192,24047,1,0,0:0:0:0:
448,192,24224,1,0,0:0:0:0:
192,192,24224,1,0,0:0:0:0:
320,192,24400,128,0,24577:0:0:0:0:
192,192,24400,1,0,0:0:0:0:
192,192,24577,1,0,0:0:0:0:
448,192,24577,1,0,0:0:0:0:
64,192,24753,128,0,25106:0:0:0:0:
320,192,24930,1,0,0:0:0:0:
192,192,24930,1,0,0:0:0:0:
448,192,25106,128,0,25283:0:0:0:0:
320,192,25106,1,0,0:0:0:0:
192,192,25283,1,0,0:0:0:0:
64,192,25283,1,0,0:0:0:0:
320,192,25459,128,0,25812:0:0:0:0:
448,192,25636,1,0,0:0:0:0:
192,192,25636,1,0,0:0:0:0:
64,192,25812,1,0,0:0:0:0:
192,192,25812,128,0,25989:0:0:0:0:
448,192,25989,1,0,0:0:0:0:
320,192,25989,1,0,0:0:0:0:
64,192,26165,128,0,26518:0:0:0:0:
192,192,26165,1,0,0:0:0:0:
448,192,26342,1,0,0:0:0:0:
320,192,26342,1,0,0:0:0:0:
192,192,26518,128,0,26695:0:0:0:0:
448,192,26518,1,0,0:0:0:0:
64,192,26695,1,0,0:0:0:0:
320,192,26695,1,0,0:0:0:0:
448,192,26871,128,0,27224:0:0:0:0:
192,192,26871,1,0,0:0:0:0:
320,192,26871,1,0,0:0:0:0:
64,192,27047,1,0,0:0:0:0:
320,192,27224,128,0,27400:0:0:0:0:
192,192,27224,1,0,0:0:0:0:
64,192,27400,1,0,0:0:0:0:
448,192,27400,1,0,0:0:0:0:
192,192,27577,128,0,27930:0:0:0:0:
320,192,27577,1,0,0:0:0:0:
448,192,27753,1,0,0:0:0:0:
320,192,27753,1,0,0:0:0:0:
64,192,27930,128,0,28106:0:0:0:0:
320,192,27930,1,0,0:0:0:0:
448,192,28106,1,0,0:0:0:0:
192,192,28106,1,0,0:0:0:0:
320,192,28283,128,0,28636:0:0:0:0:
192,192,28283,1,0,0:0:0:0:
448,192,28459,1,0,0:0:0:0:
64,192,28459,1,0,0:0:0:0:
192,192,28636,128,0,28812:0:0:0:0:
448,192,28636,1,0,0:0:0:0:
320,192,28812,1,0,0:0:0:0:
64,192,28812,1,0,0:0:0:0:
448,192,28989,128,0,29342:0:0:0:0:
320,192,28989,1,0,0:0:0:0:
64,192,29165,1,0,0:0:0:0:
192,192,29165,1,0,0:0:0:0:
320,192,29342,128,0,29518:0:0:0:0:
192,192,29342,1,0,0:0:0:0:
448,192,29518,1,0,0:0:0:0:
64,192,29518,1,0,0:0:0:0:
192,192,29695,128,0,30047:0:0:0:0:
320,192,29695,1,0,0:0:0:0:
448,192,29871,1,0,0:0:0:0:
320,192,29871,1,0,0:0:0:0:
64,192,30047,128,0,30224:0:0:0:0:
320,192,30047,1,0,0:0:0:0:
448,192,30224,1,0,0:0:0:0:
192,192,30224,1,0,0:0:0:0:
320,192,30400,128,0,30753:0:0:0:0:
192,192,30400,1,0,0:0:0:0:
64,192,30400,1,0,0:0:0:0:
448,192,30577,1,0,0:0:0:0:
192,192,30577,1,0,0:0:0:0:
64,192,30753,128,0,30930:0:0:0:0:
192,192,30753,1,0,0:0:0:0:
448,192,30930,1,0,0:0:0:0:
320,192,30930,1,0,0:0:0:0:
192,192,31106,128,0,31459:0:0:0:0:
320,192,31106,1,0,0:0:0:0:
64,192,31283,1,0,0:0:0:0:
448,192,31283,1,0,0:0:0:0:
320,192,31459,128,0,31636:0:0:0:0:
64,192,31459,1,0,0:0:0:0:
448,192,31636,1,0,0:0:0:0:
192,192,31636,1,0,0:0:0:0:
64,192,31812,128,0,32165:0:0:0:0:
448,192,31812,1,0,0:0:0:0:
192,192,31989,1,0,0:0:0:0:
320,192,31989,1,0,0:0:0:0:
320,192,32165,128,0,32342:0:0:0:0:
192,192,32165,1,0,0:0:0:0:
448,192,32342,1,0,0:0:0:0:
64,192,32342,1,0,0:0:0:0:
192,192,32518,128,0,32871:0:0:0:0:
320,192,32518,1,0,0:0:0:0:
448,192,32695,1,0,0:0:0:0:
320,192,32695,1,0,0:0:0:0:
64,192,32871,128,0,33047:0:0:0:0:
320,192,32871,1,0,0:0:0:0:
320,192,33047,1,0,0:0:0:0:
448,192,33047,1,0,0:0:0:0:
192,192,33224,128,0,33577:0:0:0:0:
64,192,33224,1,0,0:0:0:0:
448,192,33400,1,0,0:0:0:0:
320,192,33400,1,0,0:0:0:0:
320,192,33577,128,0,33753:0:0:0:0:
448,192,33577,1,0,0:0:0:0:
64,192,33753,1,0,0:0:0:0:
192,192,33753,1,0,0:0:0:0:
448,192,33930,128,0,34283:0:0:0:0:
320,192,33930,1,0,0:0:0:0:
64,192,34106,1,0,0:0:0:0:
192,192,34106,1,0,0:0:0:0:
320,192,34283,128,0,34459:0:0:0:0:
192,192,34283,1,0,0:0:0:0:
448,192,34459,1,0,0:0:0:0:
64,192,34459,1,0,0:0:0:0:
192,192,34636,128,0,34989:0:0:0:0:
320,192,34636,1,0,0:0:0:0:
448,192,34812,1,0,0:0:0:0:
320,192,34812,1,0,0:0:0:0:
64,192,34989,128,0,35165:0:0:0:0:
320,192,35165,1,0,0:0:0:0:
192,192,35165,1,0,0:0:0:0:
448,192,35342,128,0,35695:0:0:0:0:
320,192,35342,1,0,0:0:0:0:
192,192,35342,1,0,0:0:0:0:
64,192,35518,1,0,0:0:0:0:
192,192,35518,1,0,0:0:0:0:
320,192,35695,1,0,0:0:0:0:
192,192,35695,128,0,35871:0:0:0:0:
448,192,35871,1,0,0:0:0:0:
64,192,35871,1,0,0:0:0:0:
320,192,36047,128,0,36400:0:0:0:0:
192,192,36047,1,0,0:0:0:0:
448,192,36224,1,0,0:0:0:0:
64,192,36224,1,0,0:0:0:0:
192,192,36400,128,0,36577:0:0:0:0:
448,192,36400,1,0,0:0:0:0:
320,192,36577,1,0,0:0:0:0:
64,192,36577,1,0,0:0:0:0:
448,192,36753,128,0,37106:0:0:0:0:
320,192,36753,1,0,0:0:0:0:
192,192,36753,1,0,0:0:0:0:
64,192,36930,1,0,0:0:0:0:
192,192,36930,1,0,0:0:0:0:
320,192,37106,128,0,37283:0:0:0:0:
64,192,37106,1,0,0:0:0:0:
448,192,37283,1,0,0:0:0:0:
192,192,37283,1,0,0:0:0:0:
64,192,37459,128,0,37812:0:0:0:0:
192,192,37459,1,0,0:0:0:0:
448,192,37636,1,0,0:0:0:0:
320,192,37636,1,0,0:0:0:0:
192,192,37812,128,0,37989:0:0:0:0:
320,192,37812,1,0,0:0:0:0:
64,192,37989,1,0,0:0:0:0:
448,192,37989,1,0,0:0:0:0:
320,192,38165,128,0,38518:0:0:0:0:
192,192,38165,1,0,0:0:0:0:
448,192,38342,1,0,0:0:0:0:
64,192,38342,1,0,0:0:0:0:
64,192,38518,128,0,38695:0:0:0:0:
192,192,38518,1,0,0:0:0:0:
448,192,38695,1,0,0:0:0:0:
320,192,38695,1,0,0:0:0:0:
192,192,38871,128,0,39224:0:0:0:0:
320,192,38871,1,0,0:0:0:0:
448,192,39047,1,0,0:0:0:0:
64,192,39047,1,0,0:0:0:0:
320,192,39224,128,0,39400:0:0:0:0:
448,192,39224,1,0,0:0:0:0:
192,192,39400,1,0,0:0:0:0:
64,192,39400,1,0,0:0:0:0:
448,192,39577,1,0,0:0:0:0:
192,192,39753,1,0,0:0:0:0:
320,192,39930,1,0,0:0:0:0:
64,192,40106,1,0,0:0:0:0:
448,192,40283,1,0,0:0:0:0:
320,192,40283,1,0,0:0:0:0:
192,192,40459,1,0,0:0:0:0:
64,192,40459,1,0,0:0:0:0:
320,192,40636,1,0,0:0:0:0:
448,192,40636,1,0,0:0:0:0:
192,192,40812,1,0,0:0:0:0:
64,192,40812,1,0,0:0:0:0:
320,192,40989,1,0,0:0:0:0:
448,192,41165,1,0,0:0:0:0:
64,192,41165,1,0,0:0:0:0:
320,192,41342,1,0,0:0:0:0:
192,192,41518,1,0,0:0:0:0:
64,192,41518,1,0,0:0:0:0:
448,192,41695,1,0,0:0:0:0:
320,192,41695,1,0,0:0:0:0:
192,192,41871,1,0,0:0:0:0:
448,192,42047,1,0,0:0:0:0:
320,192,42047,1,0,0:0:0:0:
192,192,42047,1,0,0:0:0:0:
320,192,42224,1,0,0:0:0:0:
64,192,42400,1,0,0:0:0:0:
192,192,42400,1,0,0:0:0:0:
320,192,42489,1,0,0:0:0:0:
448,192,42489,1,0,0:0:0:0:
192,192,42577,1,0,0:0:0:0:
64,192,42577,1,0,0:0:0:0:
320,192,42665,1,0,0:0:0:0:
448,192,42665,1,0,0:0:0:0:
192,192,42753,1,0,0:0:0:0:
64,192,42753,1,0,0:0:0:0:
320,192,42842,1,0,0:0:0:0:
448,192,42842,1,0,0:0:0:0:
192,192,42930,1,0,0:0:0:0:
64,192,42930,1,0,0:0:0:0:
320,192,43018,1,0,0:0:0:0:
448,192,43018,1,0,0:0:0:0:
192,192,43106,1,0,0:0:0:0:
64,192,43106,1,0,0:0:0:0:
320,192,43195,1,0,0:0:0:0:
448,192,43195,1,0,0:0:0:0:
192,192,43283,1,0,0:0:0:0:
64,192,43283,1,0,0:0:0:0:
320,192,43371,1,0,0:0:0:0:
448,192,43371,1,0,0:0:0:0:
192,192,43459,1,0,0:0:0:0:
64,192,43459,1,0,0:0:0:0:
320,192,43547,1,0,0:0:0:0:
448,192,43547,1,0,0:0:0:0:
64,192,43636,1,0,0:0:0:0:
192,192,43636,1,0,0:0:0:0:
320,192,43724,1,0,0:0:0:0:
448,192,43724,1,0,0:0:0:0:
64,192,43812,1,0,0:0:0:0:
192,192,43812,128,0,45224:0:0:0:0:
448,192,45224,1,0,0:0:0:0:
64,192,45224,1,0,0:0:0:0:
320,192,45577,128,0,45930:0:0:0:0:
192,192,45930,1,0,0:0:0:0:
64,192,46106,128,0,46459:0:0:0:0:
192,192,46459,1,0,0:0:0:0:
448,192,46636,128,0,46989:0:0:0:0:
320,192,46989,1,0,0:0:0:0:
192,192,47165,128,0,47518:0:0:0:0:
320,192,47518,1,0,0:0:0:0:
64,192,47695,128,0,48047:0:0:0:0:
448,192,48047,1,0,0:0:0:0:
320,192,48224,128,0,48577:0:0:0:0:
192,192,48577,1,0,0:0:0:0:
448,192,50871,1,0,0:0:0:0:
320,192,52283,1,0,0:0:0:0:
192,192,53695,1,0,0:0:0:0:
448,192,55106,1,0,0:0:0:0:
192,192,56518,1,0,0:0:0:0:
320,192,57930,1,0,0:0:0:0:
64,192,59342,1,0,0:0:0:0:
448,192,60753,1,0,0:0:0:0:
192,192,62165,1,0,0:0:0:0:
320,192,63577,1,0,0:0:0:0:
192,192,64989,1,0,0:0:0:0:
448,192,66400,1,0,0:0:0:0:
320,192,66400,1,0,0:0:0:0:
64,192,67812,128,0,67989:0:0:0:0:
192,192,67989,1,0,0:0:0:0:
448,192,68165,128,0,68342:0:0:0:0:
320,192,68342,1,0,0:0:0:0:
192,192,68518,128,0,68695:0:0:0:0:
448,192,68695,1,0,0:0:0:0:
320,192,68871,128,0,69047:0:0:0:0:
192,192,69047,1,0,0:0:0:0:
448,192,69224,128,0,69400:0:0:0:0:
64,192,69400,1,0,0:0:0:0:
192,192,69577,128,0,69753:0:0:0:0:
320,192,69753,1,0,0:0:0:0:
64,192,69930,128,0,70106:0:0:0:0:
320,192,70106,1,0,0:0:0:0:
192,192,70283,128,0,70459:0:0:0:0:
448,192,70459,1,0,0:0:0:0:
320,192,70636,128,0,70812:0:0:0:0:
192,192,70812,1,0,0:0:0:0:
448,192,70989,128,0,71165:0:0:0:0:
64,192,71165,1,0,0:0:0:0:
192,192,71342,128,0,71518:0:0:0:0:
320,192,71518,1,0,0:0:0:0:
448,192,71695,128,0,71871:0:0:0:0:
64,192,71871,1,0,0:0:0:0:
192,192,72047,128,0,72224:0:0:0:0:
320,192,72224,1,0,0:0:0:0:
448,192,72400,128,0,72577:0:0:0:0:
64,192,72577,1,0,0:0:0:0:
192,192,72753,128,0,72930:0:0:0:0:
320,192,72930,1,0,0:0:0:0:
448,192,73106,128,0,73283:0:0:0:0:
64,192,73106,128,0,73283:0:0:0:0:
192,192,73283,1,0,0:0:0:0:
320,192,73459,128,0,73636:0:0:0:0:
192,192,73636,1,0,0:0:0:0:
448,192,73812,128,0,73989:0:0:0:0:
64,192,73989,1,0,0:0:0:0:
192,192,74165,128,0,74342:0:0:0:0:
320,192,74165,128,0,74342:0:0:0:0:
448,192,74342,1,0,0:0:0:0:
192,192,74518,128,0,74695:0:0:0:0:
320,192,74695,1,0,0:0:0:0:
64,192,74871,128,0,75047:0:0:0:0:
192,192,74871,128,0,75047:0:0:0:0:
320,192,75047,1,0,0:0:0:0:
448,192,75047,1,0,0:0:0:0:
448,192,75224,128,0,75400:0:0:0:0:
320,192,75224,128,0,75400:0:0:0:0:
192,192,75400,1,0,0:0:0:0:
64,192,75400,1,0,0:0:0:0:
192,192,75577,128,0,75753:0:0:0:0:
320,192,75753,1,0,0:0:0:0:
448,192,75930,128,0,76106:0:0:0:0:
64,192,76106,1,0,0:0:0:0:
192,192,76283,128,0,76459:0:0:0:0:
448,192,76459,1,0,0:0:0:0:
320,192,76636,128,0,76812:0:0:0:0:
192,192,76812,1,0,0:0:0:0:
448,192,76989,128,0,77165:0:0:0:0:
64,192,77165,1,0,0:0:0:0:
192,192,77342,128,0,77518:0:0:0:0:
320,192,77518,1,0,0:0:0:0:
448,192,77695,128,0,77871:0:0:0:0:
64,192,77871,1,0,0:0:0:0:
192,192,78047,128,0,78224:0:0:0:0:
320,192,78047,128,0,78224:0:0:0:0:
448,192,78224,1,0,0:0:0:0:
64,192,78400,128,0,78577:0:0:0:0:
320,192,78400,128,0,78577:0:0:0:0:
192,192,78577,1,0,0:0:0:0:
448,192,78577,1,0,0:0:0:0:
320,192,78753,128,0,78930:0:0:0:0:
192,192,78930,1,0,0:0:0:0:
64,192,78930,1,0,0:0:0:0:
448,192,79106,128,0,79283:0:0:0:0:
320,192,79283,1,0,0:0:0:0:
64,192,79283,1,0,0:0:0:0:
192,192,79459,128,0,79636:0:0:0:0:
448,192,79636,1,0,0:0:0:0:
192,192,79812,128,0,79989:0:0:0:0:
320,192,79989,1,0,0:0:0:0:
192,192,80165,128,0,80342:0:0:0:0:
448,192,80342,1,0,0:0:0:0:
64,192,80342,1,0,0:0:0:0:
320,192,80518,128,0,80695:0:0:0:0:
448,192,80695,1,0,0:0:0:0:
64,192,80695,1,0,0:0:0:0:
320,192,80871,128,0,81047:0:0:0:0:
192,192,81047,1,0,0:0:0:0:
64,192,81047,1,0,0:0:0:0:
320,192,81224,128,0,81400:0:0:0:0:
448,192,81400,1,0,0:0:0:0:
64,192,81400,1,0,0:0:0:0:
320,192,81577,128,0,81753:0:0:0:0:
448,192,81753,1,0,0:0:0:0:
64,192,81930,128,0,83342:0:0:0:0:
192,192,81930,128,0,82106:0:0:0:0:
320,192,82106,1,0,0:0:0:0:
192,192,82283,128,0,82459:0:0:0:0:
448,192,82459,1,0,0:0:0:0:
192,192,82636,128,0,82812:0:0:0:0:
320,192,82812,1,0,0:0:0:0:
448,192,82812,1,0,0:0:0:0:
192,192,82989,128,0,83165:0:0:0:0:
448,192,83165,1,0,0:0:0:0:
320,192,83342,128,0,84753:0:0:0:0:
448,192,83342,128,0,83518:0:0:0:0:
192,192,83518,1,0,0:0:0:0:
448,192,83695,128,0,83871:0:0:0:0:
64,192,83871,1,0,0:0:0:0:
448,192,84047,128,0,84224:0:0:0:0:
192,192,84224,1,0,0:0:0:0:
64,192,84224,1,0,0:0:0:0:
448,192,84400,128,0,84577:0:0:0:0:
64,192,84577,1,0,0:0:0:0:
192,192,84753,128,0,84930:0:0:0:0:
448,192,84930,1,0,0:0:0:0:
64,192,84930,1,0,0:0:0:0:
192,192,85106,128,0,85283:0:0:0:0:
320,192,85106,1,0,0:0:0:0:
64,192,85283,1,0,0:0:0:0:
192,192,85459,128,0,85636:0:0:0:0:
448,192,85459,1,0,0:0:0:0:
320,192,85636,1,0,0:0:0:0:
192,192,85812,128,0,85989:0:0:0:0:
64,192,85812,1,0,0:0:0:0:
448,192,85989,1,0,0:0:0:0:
320,192,85989,1,0,0:0:0:0:
320,192,86165,128,0,86342:0:0:0:0:
192,192,86165,1,0,0:0:0:0:
64,192,86165,1,0,0:0:0:0:
448,192,86342,1,0,0:0:0:0:
320,192,86518,128,0,86695:0:0:0:0:
192,192,86518,1,0,0:0:0:0:
448,192,86695,1,0,0:0:0:0:
64,192,86695,1,0,0:0:0:0:
320,192,86871,128,0,87047:0:0:0:0:
192,192,86871,1,0,0:0:0:0:
448,192,87047,1,0,0:0:0:0:
192,192,87047,1,0,0:0:0:0:
320,192,87224,128,0,87400:0:0:0:0:
448,192,87224,1,0,0:0:0:0:
192,192,87400,1,0,0:0:0:0:
64,192,87400,1,0,0:0:0:0:
64,192,87577,128,0,87753:0:0:0:0:
448,192,87577,1,0,0:0:0:0:
320,192,87753,1,0,0:0:0:0:
448,192,87753,1,0,0:0:0:0:
64,192,87930,128,0,88106:0:0:0:0:
192,192,87930,1,0,0:0:0:0:
448,192,88106,1,0,0:0:0:0:
64,192,88283,128,0,88459:0:0:0:0:
192,192,88283,1,0,0:0:0:0:
320,192,88283,1,0,0:0:0:0:
448,192,88459,1,0,0:0:0:0:
320,192,88459,1,0,0:0:0:0:
64,192,88636,128,0,88812:0:0:0:0:
192,192,88636,1,0,0:0:0:0:
448,192,88812,1,0,0:0:0:0:
192,192,88812,1,0,0:0:0:0:
320,192,88989,128,0,89165:0:0:0:0:
192,192,88989,1,0,0:0:0:0:
448,192,89165,1,0,0:0:0:0:
64,192,89165,1,0,0:0:0:0:
192,192,89342,128,0,89518:0:0:0:0:
320,192,89342,1,0,0:0:0:0:
448,192,89342,1,0,0:0:0:0:
320,192,89518,1,0,0:0:0:0:
64,192,89518,1,0,0:0:0:0:
448,192,89695,128,0,89871:0:0:0:0:
192,192,89695,1,0,0:0:0:0:
320,192,89871,1,0,0:0:0:0:
64,192,89871,1,0,0:0:0:0:
64,192,90047,128,0,90224:0:0:0:0:
192,192,90047,1,0,0:0:0:0:
320,192,90047,1,0,0:0:0:0:
448,192,90224,1,0,0:0:0:0:
320,192,90224,1,0,0:0:0:0:
192,192,90400,128,0,91812:0:0:0:0:
448,192,91812,1,0,0:0:0:0:
64,192,91989,1,0,0:0:0:0:
192,192,91989,1,0,0:0:0:0:
448,192,92077,1,0,0:0:0:0:
320,192,92077,1,0,0:0:0:0:
192,192,92165,1,0,0:0:0:0:
64,192,92165,1,0,0:0:0:0:
448,192,92342,1,0,0:0:0:0:
192,192,92518,1,0,0:0:0:0:
64,192,92606,1,0,0:0:0:0:
448,192,92606,1,0,0:0:0:0:
320,192,92695,1,0,0:0:0:0:
192,192,92871,1,0,0:0:0:0:
448,192,93047,1,0,0:0:0:0:
192,192,93047,1,0,0:0:0:0:
320,192,93136,1,0,0:0:0:0:
64,192,93136,1,0,0:0:0:0:
192,192,93224,1,0,0:0:0:0:
448,192,93224,1,0,0:0:0:0:
320,192,93400,1,0,0:0:0:0:
320,192,93577,1,0,0:0:0:0:
448,192,93753,1,0,0:0:0:0:
448,192,93930,1,0,0:0:0:0:
64,192,94106,1,0,0:0:0:0:
192,192,94106,1,0,0:0:0:0:
448,192,94283,1,0,0:0:0:0:
320,192,94283,1,0,0:0:0:0:
192,192,94459,1,0,0:0:0:0:
64,192,94459,1,0,0:0:0:0:
448,192,94636,1,0,0:0:0:0:
320,192,94636,1,0,0:0:0:0:
192,192,94812,1,0,0:0:0:0:
64,192,94812,1,0,0:0:0:0:
320,192,94900,1,0,0:0:0:0:
448,192,94900,1,0,0:0:0:0:
192,192,94989,1,0,0:0:0:0:
64,192,94989,1,0,0:0:0:0:
448,192,95165,1,0,0:0:0:0:
64,192,95342,1,0,0:0:0:0:
320,192,95342,1,0,0:0:0:0:
192,192,95430,1,0,0:0:0:0:
448,192,95430,1,0,0:0:0:0:
320,192,95518,1,0,0:0:0:0:
64,192,95518,1,0,0:0:0:0:
448,192,95695,1,0,0:0:0:0:
64,192,95871,1,0,0:0:0:0:
448,192,95871,1,0,0:0:0:0:
192,192,95959,1,0,0:0:0:0:
320,192,95959,1,0,0:0:0:0:
448,192,96047,1,0,0:0:0:0:
64,192,96047,1,0,0:0:0:0:
192,192,96224,1,0,0:0:0:0:
448,192,96400,1,0,0:0:0:0:
320,192,96400,1,0,0:0:0:0:
192,192,96577,1,0,0:0:0:0:
64,192,96577,1,0,0:0:0:0:
320,192,96753,1,0,0:0:0:0:
64,192,96930,1,0,0:0:0:0:
448,192,96930,1,0,0:0:0:0:
320,192,97106,1,0,0:0:0:0:
192,192,97106,1,0,0:0:0:0:
448,192,97283,1,0,0:0:0:0:
320,192,97283,1,0,0:0:0:0:
192,192,97459,1,0,0:0:0:0:
448,192,97459,1,0,0:0:0:0:
64,192,97636,1,0,0:0:0:0:
320,192,97636,1,0,0:0:0:0:
192,192,97724,1,0,0:0:0:0:
320,192,97812,1,0,0:0:0:0:
448,192,97812,1,0,0:0:0:0:
64,192,97989,1,0,0:0:0:0:
448,192,98165,1,0,0:0:0:0:
64,192,98253,1,0,0:0:0:0:
320,192,98253,1,0,0:0:0:0:
448,192,98342,1,0,0:0:0:0:
192,192,98342,1,0,0:0:0:0:
320,192,98518,1,0,0:0:0:0:
64,192,98695,1,0,0:0:0:0:
192,192,98695,1,0,0:0:0:0:
448,192,98783,1,0,0:0:0:0:
192,192,98871,1,0,0:0:0:0:
320,192,98871,1,0,0:0:0:0:
64,192,99047,1,0,0:0:0:0:
448,192,99224,1,0,0:0:0:0:
192,192,99400,1,0,0:0:0:0:
320,192,99577,1,0,0:0:0:0:
64,192,99753,1,0,0:0:0:0:
192,192,99753,1,0,0:0:0:0:
320,192,99930,1,0,0:0:0:0:
192,192,99930,1,0,0:0:0:0:
448,192,100106,1,0,0:0:0:0:
320,192,100106,1,0,0:0:0:0:
64,192,100283,1,0,0:0:0:0:
192,192,100283,1,0,0:0:0:0:
448,192,100459,1,0,0:0:0:0:
64,192,100547,1,0,0:0:0:0:
320,192,100636,1,0,0:0:0:0:
448,192,100636,1,0,0:0:0:0:
192,192,100636,1,0,0:0:0:0:
64,192,100812,1,0,0:0:0:0:
320,192,100989,1,0,0:0:0:0:
448,192,101077,1,0,0:0:0:0:
192,192,101077,1,0,0:0:0:0:
64,192,101165,1,0,0:0:0:0:
320,192,101165,1,0,0:0:0:0:
448,192,101342,1,0,0:0:0:0:
192,192,101518,1,0,0:0:0:0:
320,192,101518,1,0,0:0:0:0:
64,192,101606,1,0,0:0:0:0:
448,192,101606,1,0,0:0:0:0:
192,192,101695,1,0,0:0:0:0:
64,192,103106,1,0,0:0:0:0:
320,192,103283,1,0,0:0:0:0:
192,192,103459,1,0,0:0:0:0:
448,192,103459,1,0,0:0:0:0:
320,192,103636,1,0,0:0:0:0:
64,192,103812,1,0,0:0:0:0:
192,192,103812,1,0,0:0:0:0:
448,192,103989,1,0,0:0:0:0:
192,192,104165,1,0,0:0:0:0:
320,192,104165,1,0,0:0:0:0:
448,192,104342,1,0,0:0:0:0:
64,192,104518,1,0,0:0:0:0:
320,192,104518,1,0,0:0:0:0:
192,192,104695,1,0,0:0:0:0:
448,192,104871,1,0,0:0:0:0:
64,192,104871,1,0,0:0:0:0:
320,192,105047,1,0,0:0:0:0:
192,192,105224,1,0,0:0:0:0:
64,192,105224,1,0,0:0:0:0:
448,192,105400,1,0,0:0:0:0:
64,192,105577,1,0,0:0:0:0:
320,192,105577,1,0,0:0:0:0:
448,192,105753,1,0,0:0:0:0:
192,192,105930,1,0,0:0:0:0:
320,192,105930,1,0,0:0:0:0:
64,192,106106,1,0,0:0:0:0:
448,192,106283,1,0,0:0:0:0:
64,192,106459,1,0,0:0:0:0:
448,192,106636,1,0,0:0:0:0:
192,192,106636,1,0,0:0:0:0:
320,192,106812,1,0,0:0:0:0:
64,192,106812,1,0,0:0:0:0:
192,192,106989,1,0,0:0:0:0:
448,192,107165,1,0,0:0:0:0:
64,192,107165,1,0,0:0:0:0:
320,192,107342,1,0,0:0:0:0:
192,192,107518,1,0,0:0:0:0:
64,192,107518,1,0,0:0:0:0:
448,192,107695,1,0,0:0:0:0:
64,192,107871,1,0,0:0:0:0:
320,192,107871,1,0,0:0:0:0:
448,192,108047,1,0,0:0:0:0:
192,192,108047,1,0,0:0:0:0:
64,192,108224,1,0,0:0:0:0:
320,192,108224,1,0,0:0:0:0:
192,192,108400,1,0,0:0:0:0:
64,192,108577,1,0,0:0:0:0:
448,192,108753,1,0,0:0:0:0:
192,192,108753,1,0,0:0:0:0:
320,192,108930,1,0,0:0:0:0:
192,192,109106,1,0,0:0:0:0:
448,192,109106,1,0,0:0:0:0:
64,192,109283,1,0,0:0:0:0:
320,192,109283,1,0,0:0:0:0:
192,192,109459,1,0,0:0:0:0:
64,192,109636,1,0,0:0:0:0:
320,192,109636,1,0,0:0:0:0:
448,192,109812,1,0,0:0:0:0:
192,192,109812,1,0,0:0:0:0:
320,192,109989,1,0,0:0:0:0:
64,192,110165,1,0,0:0:0:0:
192,192,110165,1,0,0:0:0:0:
448,192,110342,1,0,0:0:0:0:
320,192,110342,1,0,0:0:0:0:
192,192,110518,1,0,0:0:0:0:
64,192,110518,1,0,0:0:0:0:
448,192,110695,1,0,0:0:0:0:
192,192,110871,1,0,0:0:0:0:
320,192,110871,1,0,0:0:0:0:
64,192,111047,1,0,0:0:0:0:
448,192,111224,1,0,0:0:0:0:
320,192,111224,1,0,0:0:0:0:
192,192,111400,1,0,0:0:0:0:
448,192,111577,1,0,0:0:0:0:
320,192,111577,1,0,0:0:0:0:
192,192,111665,1,0,0:0:0:0:
64,192,111665,1,0,0:0:0:0:
320,192,111753,1,0,0:0:0:0:
448,192,111753,1,0,0:0:0:0:
192,192,111842,1,0,0:0:0:0:
64,192,111842,1,0,0:0:0:0:
320,192,111930,1,0,0:0:0:0:
448,192,111930,1,0,0:0:0:0:
192,192,112018,1,0,0:0:0:0:
64,192,112018,1,0,0:0:0:0:
320,192,112106,1,0,0:0:0:0:
448,192,112106,1,0,0:0:0:0:
192,192,112195,1,0,0:0:0:0:
64,192,112195,1,0,0:0:0:0:
320,192,112283,1,0,0:0:0:0:
448,192,112283,1,0,0:0:0:0:
192,192,112371,1,0,0:0:0:0:
64,192,112371,1,0,0:0:0:0:
320,192,112459,1,0,0:0:0:0:
448,192,112459,1,0,0:0:0:0:
192,192,112547,1,0,0:0:0:0:
64,192,112547,1,0,0:0:0:0:
320,192,112636,1,0,0:0:0:0:
448,192,112636,1,0,0:0:0:0:
64,192,112724,1,0,0:0:0:0:
192,192,112724,1,0,0:0:0:0:
320,192,112812,1,0,0:0:0:0:
448,192,112812,1,0,0:0:0:0:
192,192,112900,1,0,0:0:0:0:
64,192,112900,1,0,0:0:0:0:
320,192,112989,1,0,0:0:0:0:
448,192,112989,1,0,0:0:0:0:
192,192,113077,1,0,0:0:0:0:
64,192,113165,1,0,0:0:0:0:
448,192,113253,1,0,0:0:0:0:
320,192,113342,1,0,0:0:0:0:
192,192,113430,1,0,0:0:0:0:
64,192,113518,1,0,0:0:0:0:
448,192,113518,1,0,0:0:0:0:
192,192,113606,1,0,0:0:0:0:
448,192,113695,1,0,0:0:0:0:
64,192,113695,1,0,0:0:0:0:
320,192,113739,1,0,0:0:0:0:
192,192,113783,1,0,0:0:0:0:
64,192,113827,1,0,0:0:0:0:
448,192,113871,1,0,0:0:0:0:
320,192,113915,1,0,0:0:0:0:
192,192,113959,1,0,0:0:0:0:
64,192,114003,1,0,0:0:0:0:
320,192,114047,1,0,0:0:0:0:
448,192,114092,1,0,0:0:0:0:
192,192,114136,1,0,0:0:0:0:
64,192,114180,1,0,0:0:0:0:
320,192,114224,1,0,0:0:0:0:
448,192,114268,1,0,0:0:0:0:
192,192,114312,1,0,0:0:0:0:
64,192,114356,1,0,0:0:0:0:
320,192,114400,1,0,0:0:0:0:
448,192,114445,1,0,0:0:0:0:
192,192,114445,1,0,0:0:0:0:
320,192,115812,128,0,116342:0:0:0:0:
192,192,115989,1,0,0:0:0:0:
448,192,116165,128,0,116695:0:0:0:0:
64,192,116165,1,0,0:0:0:0:
64,192,116342,1,0,0:0:0:0:
192,192,116518,128,0,117047:0:0:0:0:
320,192,116518,1,0,0:0:0:0:
320,192,116695,1,0,0:0:0:0:
320,192,116871,128,0,117400:0:0:0:0:
64,192,116871,1,0,0:0:0:0:
448,192,117047,1,0,0:0:0:0:
64,192,117224,128,0,117753:0:0:0:0:
192,192,117224,1,0,0:0:0:0:
192,192,117400,1,0,0:0:0:0:
448,192,117577,128,0,118106:0:0:0:0:
320,192,117577,1,0,0:0:0:0:
192,192,117753,1,0,0:0:0:0:
320,192,117930,128,0,118459:0:0:0:0:
64,192,117930,1,0,0:0:0:0:
192,192,118106,1,0,0:0:0:0:
192,192,118283,128,0,118812:0:0:0:0:
64,192,118283,1,0,0:0:0:0:
448,192,118283,1,0,0:0:0:0:
448,192,118459,1,0,0:0:0:0:
64,192,118459,1,0,0:0:0:0:
448,192,118636,128,0,119165:0:0:0:0:
64,192,118636,128,0,119165:0:0:0:0:
320,192,118636,1,0,0:0:0:0:
320,192,118989,128,0,119518:0:0:0:0:
192,192,118989,1,0,0:0:0:0:
192,192,119165,1,0,0:0:0:0:
192,192,119342,128,0,119871:0:0:0:0:
448,192,119342,1,0,0:0:0:0:
64,192,119342,1,0,0:0:0:0:
448,192,119518,1,0,0:0:0:0:
448,192,119695,128,0,120224:0:0:0:0:
64,192,119695,128,0,120224:0:0:0:0:
320,192,119871,1,0,0:0:0:0:
320,192,120047,128,0,120577:0:0:0:0:
192,192,120047,1,0,0:0:0:0:
192,192,120400,128,0,120930:0:0:0:0:
64,192,120400,1,0,0:0:0:0:
448,192,120577,1,0,0:0:0:0:
64,192,120753,1,0,0:0:0:0:
320,192,120753,128,0,121283:0:0:0:0:
448,192,120930,1,0,0:0:0:0:
64,192,121106,128,0,121636:0:0:0:0:
448,192,121459,128,0,121989:0:0:0:0:
192,192,121459,1,0,0:0:0:0:
320,192,121636,1,0,0:0:0:0:
320,192,121812,128,0,122342:0:0:0:0:
64,192,121812,1,0,0:0:0:0:
192,192,121989,1,0,0:0:0:0:
64,192,122165,128,0,122695:0:0:0:0:
192,192,122165,128,0,122695:0:0:0:0:
448,192,122165,1,0,0:0:0:0:
448,192,122518,128,0,123047:0:0:0:0:
320,192,122518,1,0,0:0:0:0:
192,192,122871,128,0,123400:0:0:0:0:
320,192,122871,1,0,0:0:0:0:
64,192,123047,1,0,0:0:0:0:
320,192,123224,128,0,123753:0:0:0:0:
64,192,123224,128,0,123753:0:0:0:0:
448,192,123224,1,0,0:0:0:0:
448,192,123400,1,0,0:0:0:0:
192,192,123577,1,0,0:0:0:0:
448,192,123577,128,0,124106:0:0:0:0:
192,192,123930,128,0,124459:0:0:0:0:
320,192,123930,1,0,0:0:0:0:
64,192,124106,1,0,0:0:0:0:
320,192,124283,128,0,124812:0:0:0:0:
64,192,124283,128,0,124812:0:0:0:0:
448,192,124283,1,0,0:0:0:0:
192,192,124636,128,0,125165:0:0:0:0:
448,192,124636,128,0,125165:0:0:0:0:
320,192,124989,128,0,125518:0:0:0:0:
64,192,124989,1,0,0:0:0:0:
64,192,125342,128,0,125871:0:0:0:0:
448,192,125342,1,0,0:0:0:0:
192,192,125518,1,0,0:0:0:0:
192,192,125695,128,0,126224:0:0:0:0:
448,192,125695,1,0,0:0:0:0:
320,192,125871,1,0,0:0:0:0:
448,192,126047,128,0,126577:0:0:0:0:
64,192,126047,1,0,0:0:0:0:
320,192,126224,1,0,0:0:0:0:
64,192,126400,128,0,126930:0:0:0:0:
192,192,126400,1,0,0:0:0:0:
320,192,126577,1,0,0:0:0:0:
320,192,126753,128,0,127106:0:0:0:0:
192,192,126753,1,0,0:0:0:0:
448,192,126930,1,0,0:0:0:0:
192,192,127106,1,0,0:0:0:0:
448,192,127283,1,0,0:0:0:0:
64,192,127459,1,0,0:0:0:0:
192,192,127547,1,0,0:0:0:0:
320,192,127636,1,0,0:0:0:0:
64,192,127812,1,0,0:0:0:0:
448,192,127989,1,0,0:0:0:0:
192,192,128165,1,0,0:0:0:0:
320,192,128165,1,0,0:0:0:0:
448,192,128253,1,0,0:0:0:0:
64,192,128342,1,0,0:0:0:0:
320,192,128342,1,0,0:0:0:0:
192,192,128518,1,0,0:0:0:0:
448,192,128695,1,0,0:0:0:0:
192,192,128871,1,0,0:0:0:0:
320,192,128871,1,0,0:0:0:0:
64,192,128959,1,0,0:0:0:0:
448,192,128959,1,0,0:0:0:0:
320,192,129047,1,0,0:0:0:0:
64,192,129224,1,0,0:0:0:0:
448,192,129400,1,0,0:0:0:0:
192,192,129577,1,0,0:0:0:0:
320,192,129577,1,0,0:0:0:0:
448,192,129665,1,0,0:0:0:0:
192,192,129753,1,0,0:0:0:0:
64,192,129753,1,0,0:0:0:0:
320,192,129930,1,0,0:0:0:0:
192,192,130106,1,0,0:0:0:0:
448,192,130283,1,0,0:0:0:0:
320,192,130283,1,0,0:0:0:0:
192,192,130371,1,0,0:0:0:0:
64,192,130371,1,0,0:0:0:0:
320,192,130459,1,0,0:0:0:0:
448,192,130459,1,0,0:0:0:0:
192,192,130636,1,0,0:0:0:0:
448,192,130812,1,0,0:0:0:0:
64,192,130989,1,0,0:0:0:0:
320,192,130989,1,0,0:0:0:0:
192,192,131077,1,0,0:0:0:0:
448,192,131077,1,0,0:0:0:0:
320,192,131165,1,0,0:0:0:0:
64,192,131165,1,0,0:0:0:0:
192,192,131342,1,0,0:0:0:0:
320,192,131518,1,0,0:0:0:0:
64,192,131518,1,0,0:0:0:0:
192,192,131695,1,0,0:0:0:0:
448,192,131783,1,0,0:0:0:0:
320,192,131783,1,0,0:0:0:0:
64,192,131871,1,0,0:0:0:0:
192,192,131871,1,0,0:0:0:0:
448,192,132047,1,0,0:0:0:0:
320,192,132224,1,0,0:0:0:0:
192,192,132400,1,0,0:0:0:0:
320,192,132489,1,0,0:0:0:0:
64,192,132489,1,0,0:0:0:0:
448,192,132577,1,0,0:0:0:0:
192,192,132577,1,0,0:0:0:0:
320,192,132753,1,0,0:0:0:0:
192,192,132930,1,0,0:0:0:0:
448,192,133106,1,0,0:0:0:0:
64,192,133195,1,0,0:0:0:0:
320,192,133195,1,0,0:0:0:0:
192,192,133195,1,0,0:0:0:0:
448,192,133283,1,0,0:0:0:0:
192,192,133459,1,0,0:0:0:0:
448,192,133636,1,0,0:0:0:0:
192,192,133812,1,0,0:0:0:0:
448,192,133900,1,0,0:0:0:0:
64,192,133900,1,0,0:0:0:0:
320,192,133989,1,0,0:0:0:0:
192,192,134165,1,0,0:0:0:0:
448,192,134342,1,0,0:0:0:0:
192,192,134518,1,0,0:0:0:0:
320,192,134518,1,0,0:0:0:0:
64,192,134606,1,0,0:0:0:0:
448,192,134695,1,0,0:0:0:0:
320,192,134695,1,0,0:0:0:0:
192,192,134871,1,0,0:0:0:0:
320,192,135047,1,0,0:0:0:0:
448,192,135224,1,0,0:0:0:0:
64,192,135224,1,0,0:0:0:0:
192,192,135312,1,0,0:0:0:0:
320,192,135312,1,0,0:0:0:0:
64,192,135400,1,0,0:0:0:0:
448,192,135400,1,0,0:0:0:0:
320,192,135577,1,0,0:0:0:0:
320,192,135753,1,0,0:0:0:0:
192,192,135930,1,0,0:0:0:0:
64,192,135930,1,0,0:0:0:0:
448,192,136018,1,0,0:0:0:0:
320,192,136018,1,0,0:0:0:0:
192,192,136106,1,0,0:0:0:0:
64,192,136106,1,0,0:0:0:0:
448,192,136283,1,0,0:0:0:0:
192,192,136459,1,0,0:0:0:0:
448,192,136636,1,0,0:0:0:0:
320,192,136636,1,0,0:0:0:0:
64,192,136724,1,0,0:0:0:0:
192,192,136724,1,0,0:0:0:0:
320,192,136812,1,0,0:0:0:0:
192,192,136989,1,0,0:0:0:0:
64,192,136989,1,0,0:0:0:0:
448,192,137165,1,0,0:0:0:0:
192,192,137342,1,0,0:0:0:0:
320,192,137342,1,0,0:0:0:0:
448,192,137430,1,0,0:0:0:0:
192,192,137518,1,0,0:0:0:0:
320,192,137695,1,0,0:0:0:0:
192,192,137871,1,0,0:0:0:0:
448,192,138047,1,0,0:0:0:0:
64,192,138224,1,0,0:0:0:0:
320,192,138400,128,0,139812:0:0:0:0:
448,192,138400,1,0,0:0:0:0:
192,192,138400,1,0,0:0:0:0:
64,192,138577,1,0,0:0:0:0:
448,192,138753,1,0,0:0:0:0:
192,192,138842,1,0,0:0:0:0:
64,192,138930,1,0,0:0:0:0:
448,192,139106,1,0,0:0:0:0:
64,192,139283,1,0,0:0:0:0:
192,192,139459,1,0,0:0:0:0:
64,192,139459,1,0,0:0:0:0:
448,192,139547,1,0,0:0:0:0:
192,192,139636,1,0,0:0:0:0:
448,192,139812,128,0,141224:0:0:0:0:
64,192,139812,1,0,0:0:0:0:
320,192,139989,1,0,0:0:0:0:
192,192,140165,1,0,0:0:0:0:
64,192,140253,1,0,0:0:0:0:
320,192,140342,1,0,0:0:0:0:
192,192,140518,1,0,0:0:0:0:
320,192,140695,1,0,0:0:0:0:
64,192,140871,1,0,0:0:0:0:
320,192,140959,1,0,0:0:0:0:
192,192,141047,1,0,0:0:0:0:
192,192,141224,128,0,142636:0:0:0:0:
64,192,141224,1,0,0:0:0:0:
320,192,141400,1,0,0:0:0:0:
448,192,141577,1,0,0:0:0:0:
320,192,141665,1,0,0:0:0:0:
64,192,141753,1,0,0:0:0:0:
448,192,141930,1,0,0:0:0:0:
64,192,142106,1,0,0:0:0:0:
448,192,142283,1,0,0:0:0:0:
320,192,142283,1,0,0:0:0:0:
64,192,142371,1,0,0:0:0:0:
448,192,142459,1,0,0:0:0:0:
320,192,142636,128,0,144047:0:0:0:0:
64,192,142636,1,0,0:0:0:0:
448,192,142812,1,0,0:0:0:0:
192,192,142989,1,0,0:0:0:0:
64,192,143077,1,0,0:0:0:0:
192,192,143165,1,0,0:0:0:0:
448,192,143342,1,0,0:0:0:0:
64,192,143518,1,0,0:0:0:0:
448,192,143695,1,0,0:0:0:0:
192,192,143783,1,0,0:0:0:0:
64,192,143871,1,0,0:0:0:0:
192,192,144047,128,0,145459:0:0:0:0:
448,192,144047,1,0,0:0:0:0:
320,192,144224,1,0,0:0:0:0:
448,192,144400,1,0,0:0:0:0:
64,192,144489,1,0,0:0:0:0:
320,192,144489,1,0,0:0:0:0:
448,192,144577,1,0,0:0:0:0:
320,192,144753,1,0,0:0:0:0:
448,192,144930,1,0,0:0:0:0:
320,192,145106,1,0,0:0:0:0:
64,192,145195,1,0,0:0:0:0:
448,192,145283,1,0,0:0:0:0:
320,192,145459,1,0,0:0:0:0:
448,192,145459,128,0,146871:0:0:0:0:
192,192,145636,1,0,0:0:0:0:
320,192,145812,1,0,0:0:0:0:
64,192,145812,1,0,0:0:0:0:
192,192,145900,1,0,0:0:0:0:
64,192,145989,1,0,0:0:0:0:
320,192,145989,1,0,0:0:0:0:
192,192,146165,1,0,0:0:0:0:
320,192,146342,1,0,0:0:0:0:
192,192,146518,1,0,0:0:0:0:
64,192,146518,1,0,0:0:0:0:
320,192,146606,1,0,0:0:0:0:
192,192,146695,1,0,0:0:0:0:
64,192,146695,1,0,0:0:0:0:
320,192,146871,128,0,148283:0:0:0:0:
192,192,146871,1,0,0:0:0:0:
448,192,147047,1,0,0:0:0:0:
64,192,147224,1,0,0:0:0:0:
448,192,147312,1,0,0:0:0:0:
192,192,147400,1,0,0:0:0:0:
64,192,147577,1,0,0:0:0:0:
448,192,147753,1,0,0:0:0:0:
64,192,147930,1,0,0:0:0:0:
192,192,147930,1,0,0:0:0:0:
448,192,148018,1,0,0:0:0:0:
192,192,148106,1,0,0:0:0:0:
448,192,148283,128,0,149695:0:0:0:0:
64,192,148283,1,0,0:0:0:0:
320,192,148459,1,0,0:0:0:0:
192,192,148636,1,0,0:0:0:0:
320,192,148724,1,0,0:0:0:0:
192,192,148812,1,0,0:0:0:0:
64,192,148989,1,0,0:0:0:0:
320,192,149165,1,0,0:0:0:0:
192,192,149342,1,0,0:0:0:0:
64,192,149430,1,0,0:0:0:0:
192,192,149518,1,0,0:0:0:0:
320,192,149695,128,0,151106:0:0:0:0:
64,192,149695,1,0,0:0:0:0:
448,192,149871,1,0,0:0:0:0:
192,192,150047,1,0,0:0:0:0:
64,192,150047,1,0,0:0:0:0:
448,192,150136,1,0,0:0:0:0:
64,192,150224,1,0,0:0:0:0:
192,192,150224,1,0,0:0:0:0:
448,192,150400,1,0,0:0:0:0:
64,192,150577,1,0,0:0:0:0:
192,192,150577,1,0,0:0:0:0:
448,192,150753,1,0,0:0:0:0:
192,192,150842,1,0,0:0:0:0:
64,192,150930,1,0,0:0:0:0:
192,192,151106,128,0,152518:0:0:0:0:
448,192,151106,1,0,0:0:0:0:
64,192,151283,1,0,0:0:0:0:
320,192,151459,1,0,0:0:0:0:
448,192,151547,1,0,0:0:0:0:
64,192,151636,1,0,0:0:0:0:
320,192,151636,1,0,0:0:0:0:
448,192,151812,1,0,0:0:0:0:
320,192,151989,1,0,0:0:0:0:
64,192,152165,1,0,0:0:0:0:
448,192,152165,1,0,0:0:0:0:
320,192,152253,1,0,0:0:0:0:
448,192,152342,1,0,0:0:0:0:
64,192,152342,1,0,0:0:0:0:
320,192,152518,128,0,153930:0:0:0:0:
448,192,152695,1,0,0:0:0:0:
192,192,152871,1,0,0:0:0:0:
64,192,152871,1,0,0:0:0:0:
448,192,152959,1,0,0:0:0:0:
192,192,153047,1,0,0:0:0:0:
64,192,153224,1,0,0:0:0:0:
448,192,153400,1,0,0:0:0:0:
192,192,153577,1,0,0:0:0:0:
64,192,153665,1,0,0:0:0:0:
192,192,153753,1,0,0:0:0:0:
448,192,153753,1,0,0:0:0:0:
64,192,153930,128,0,155342:0:0:0:0:
192,192,153930,1,0,0:0:0:0:
448,192,154106,1,0,0:0:0:0:
192,192,154283,1,0,0:0:0:0:
448,192,154371,1,0,0:0:0:0:
320,192,154459,1,0,0:0:0:0:
192,192,154459,1,0,0:0:0:0:
448,192,154636,1,0,0:0:0:0:
320,192,154812,1,0,0:0:0:0:
192,192,154989,1,0,0:0:0:0:
448,192,154989,1,0,0:0:0:0:
320,192,155077,1,0,0:0:0:0:
192,192,155165,1,0,0:0:0:0:
448,192,155165,1,0,0:0:0:0:
320,192,155342,128,0,156753:0:0:0:0:
192,192,155342,1,0,0:0:0:0:
448,192,155518,1,0,0:0:0:0:
64,192,155695,1,0,0:0:0:0:
448,192,155783,1,0,0:0:0:0:
192,192,155871,1,0,0:0:0:0:
64,192,155871,1,0,0:0:0:0:
448,192,156047,1,0,0:0:0:0:
192,192,156224,1,0,0:0:0:0:
448,192,156400,1,0,0:0:0:0:
64,192,156400,1,0,0:0:0:0:
192,192,156489,1,0,0:0:0:0:
448,192,156577,1,0,0:0:0:0:
64,192,156577,1,0,0:0:0:0:
448,192,156753,128,0,158077:0:0:0:0:
192,192,156753,128,0,158077:0:0:0:0:
64,192,156753,1,0,0:0:0:0:
320,192,156930,1,0,0:0:0:0:
64,192,157106,1,0,0:0:0:0:
320,192,157195,1,0,0:0:0:0:
64,192,157283,1,0,0:0:0:0:
320,192,157459,1,0,0:0:0:0:
64,192,157636,1,0,0:0:0:0:
320,192,157812,1,0,0:0:0:0:
64,192,157900,1,0,0:0:0:0:
320,192,157989,1,0,0:0:0:0:
64,192,158165,1,0,0:0:0:0:
448,192,158342,1,0,0:0:0:0:
320,192,158518,1,0,0:0:0:0:
192,192,158695,1,0,0:0:0:0:
448,192,158871,1,0,0:0:0:0:
64,192,159047,1,0,0:0:0:0:
320,192,159224,1,0,0:0:0:0:
64,192,159224,1,0,0:0:0:0:
192,192,159312,1,0,0:0:0:0:
448,192,159400,1,0,0:0:0:0:
64,192,159400,1,0,0:0:0:0:
320,192,159489,1,0,0:0:0:0:
192,192,159577,1,0,0:0:0:0:
64,192,159577,1,0,0:0:0:0:
448,192,160989,1,0,0:0:0:0:
320,192,161165,1,0,0:0:0:0:
192,192,161253,1,0,0:0:0:0:
448,192,161253,1,0,0:0:0:0:
64,192,161253,1,0,0:0:0:0:
320,192,161342,1,0,0:0:0:0:
448,192,161518,1,0,0:0:0:0:
64,192,161695,1,0,0:0:0:0:
192,192,161695,1,0,0:0:0:0:
320,192,161783,1,0,0:0:0:0:
448,192,161783,1,0,0:0:0:0:
192,192,161871,1,0,0:0:0:0:
64,192,161871,1,0,0:0:0:0:
448,192,162047,1,0,0:0:0:0:
64,192,162224,1,0,0:0:0:0:
320,192,162224,1,0,0:0:0:0:
448,192,162312,1,0,0:0:0:0:
192,192,162312,1,0,0:0:0:0:
320,192,162400,1,0,0:0:0:0:
64,192,162400,1,0,0:0:0:0:
192,192,162577,1,0,0:0:0:0:
448,192,162753,1,0,0:0:0:0:
320,192,162930,1,0,0:0:0:0:
192,192,163106,1,0,0:0:0:0:
448,192,163283,1,0,0:0:0:0:
64,192,163459,1,0,0:0:0:0:
320,192,163636,1,0,0:0:0:0:
192,192,163812,1,0,0:0:0:0:
448,192,163989,1,0,0:0:0:0:
64,192,163989,1,0,0:0:0:0:
320,192,164077,1,0,0:0:0:0:
192,192,164165,1,0,0:0:0:0:
64,192,164165,1,0,0:0:0:0:
448,192,164342,1,0,0:0:0:0:
64,192,164518,1,0,0:0:0:0:
320,192,164518,1,0,0:0:0:0:
192,192,164606,1,0,0:0:0:0:
448,192,164695,1,0,0:0:0:0:
64,192,164695,1,0,0:0:0:0:
320,192,164871,1,0,0:0:0:0:
192,192,165047,1,0,0:0:0:0:
448,192,165224,1,0,0:0:0:0:
320,192,165224,1,0,0:0:0:0:
192,192,165400,1,0,0:0:0:0:
64,192,165400,1,0,0:0:0:0:
320,192,165577,1,0,0:0:0:0:
64,192,165753,1,0,0:0:0:0:
448,192,165753,1,0,0:0:0:0:
192,192,165930,1,0,0:0:0:0:
320,192,166106,1,0,0:0:0:0:
448,192,166106,1,0,0:0:0:0:
192,192,166283,1,0,0:0:0:0:
64,192,166283,1,0,0:0:0:0:
320,192,166459,1,0,0:0:0:0:
448,192,166459,1,0,0:0:0:0:
192,192,166636,1,0,0:0:0:0:
64,192,166812,1,0,0:0:0:0:
320,192,166812,1,0,0:0:0:0:
192,192,166900,1,0,0:0:0:0:
448,192,166900,1,0,0:0:0:0:
320,192,166989,1,0,0:0:0:0:
64,192,166989,1,0,0:0:0:0:
192,192,167165,1,0,0:0:0:0:
448,192,167342,1,0,0:0:0:0:
64,192,167342,1,0,0:0:0:0:
320,192,167430,1,0,0:0:0:0:
192,192,167430,1,0,0:0:0:0:
64,192,167518,1,0,0:0:0:0:
448,192,167518,1,0,0:0:0:0:
320,192,167695,1,0,0:0:0:0:
64,192,167871,1,0,0:0:0:0:
192,192,167871,1,0,0:0:0:0:
448,192,167959,1,0,0:0:0:0:
320,192,167959,1,0,0:0:0:0:
192,192,168047,1,0,0:0:0:0:
64,192,168047,1,0,0:0:0:0:
448,192,168224,1,0,0:0:0:0:
320,192,168400,1,0,0:0:0:0:
192,192,168577,1,0,0:0:0:0:
448,192,168753,1,0,0:0:0:0:
64,192,168930,1,0,0:0:0:0:
320,192,169106,1,0,0:0:0:0:
192,192,169283,1,0,0:0:0:0:
448,192,169459,1,0,0:0:0:0:
64,192,169459,1,0,0:0:0:0:
320,192,169636,1,0,0:0:0:0:
64,192,169724,1,0,0:0:0:0:
448,192,169724,1,0,0:0:0:0:
192,192,169812,1,0,0:0:0:0:
448,192,169989,1,0,0:0:0:0:
64,192,170165,1,0,0:0:0:0:
320,192,170165,1,0,0:0:0:0:
192,192,170253,1,0,0:0:0:0:
448,192,170253,1,0,0:0:0:0:
320,192,170342,1,0,0:0:0:0:
64,192,170518,1,0,0:0:0:0:
448,192,170695,1,0,0:0:0:0:
320,192,170695,1,0,0:0:0:0:
192,192,170783,1,0,0:0:0:0:
448,192,170871,1,0,0:0:0:0:
64,192,170871,1,0,0:0:0:0:
320,192,171047,1,0,0:0:0:0:
192,192,171224,1,0,0:0:0:0:
448,192,171400,1,0,0:0:0:0:
64,192,171577,1,0,0:0:0:0:
320,192,171577,1,0,0:0:0:0:
192,192,171753,1,0,0:0:0:0:
448,192,171930,1,0,0:0:0:0:
64,192,171930,1,0,0:0:0:0:
320,192,172106,1,0,0:0:0:0:
192,192,172283,1,0,0:0:0:0:
448,192,172283,1,0,0:0:0:0:
320,192,172459,1,0,0:0:0:0:
192,192,172547,1,0,0:0:0:0:
448,192,172547,1,0,0:0:0:0:
320,192,172636,1,0,0:0:0:0:
64,192,172812,1,0,0:0:0:0:
448,192,172989,1,0,0:0:0:0:
192,192,172989,1,0,0:0:0:0:
64,192,173077,1,0,0:0:0:0:
320,192,173165,1,0,0:0:0:0:
448,192,173342,1,0,0:0:0:0:
320,192,173518,1,0,0:0:0:0:
192,192,173606,1,0,0:0:0:0:
64,192,173606,1,0,0:0:0:0:
448,192,173695,1,0,0:0:0:0:
320,192,173695,1,0,0:0:0:0:
192,192,173871,1,0,0:0:0:0:
448,192,174047,1,0,0:0:0:0:
320,192,174224,1,0,0:0:0:0:
192,192,174400,1,0,0:0:0:0:
448,192,174577,1,0,0:0:0:0:
64,192,174753,1,0,0:0:0:0:
320,192,174930,1,0,0:0:0:0:
192,192,175106,1,0,0:0:0:0:
448,192,175283,1,0,0:0:0:0:
192,192,175371,1,0,0:0:0:0:
320,192,175371,1,0,0:0:0:0:
64,192,175459,1,0,0:0:0:0:
448,192,175636,1,0,0:0:0:0:
64,192,175812,1,0,0:0:0:0:
320,192,175812,1,0,0:0:0:0:
192,192,175900,1,0,0:0:0:0:
448,192,175989,1,0,0:0:0:0:
64,192,175989,1,0,0:0:0:0:
320,192,175989,1,0,0:0:0:0:
192,192,176165,1,0,0:0:0:0:
448,192,176342,1,0,0:0:0:0:
64,192,176342,1,0,0:0:0:0:
320,192,176518,1,0,0:0:0:0:
192,192,176695,1,0,0:0:0:0:
64,192,176871,1,0,0:0:0:0:
448,192,177047,1,0,0:0:0:0:
192,192,177224,1,0,0:0:0:0:
320,192,177400,1,0,0:0:0:0:
64,192,177577,1,0,0:0:0:0:
448,192,177753,1,0,0:0:0:0:
192,192,177930,1,0,0:0:0:0:
64,192,177930,1,0,0:0:0:0:
448,192,178106,1,0,0:0:0:0:
320,192,178283,1,0,0:0:0:0:
192,192,178283,1,0,0:0:0:0:
64,192,178459,1,0,0:0:0:0:
448,192,178459,1,0,0:0:0:0:
192,192,178636,1,0,0:0:0:0:
320,192,178636,1,0,0:0:0:0:
64,192,178812,1,0,0:0:0:0:
448,192,178812,1,0,0:0:0:0:
192,192,178989,1,0,0:0:0:0:
64,192,179165,1,0,0:0:0:0:
320,192,179342,1,0,0:0:0:0:
448,192,179342,1,0,0:0:0:0:
192,192,179518,1,0,0:0:0:0:
64,192,179518,1,0,0:0:0:0:
448,192,179695,1,0,0:0:0:0:
192,192,179871,1,0,0:0:0:0:
320,192,179871,1,0,0:0:0:0:
64,192,180047,1,0,0:0:0:0:
448,192,180224,1,0,0:0:0:0:
320,192,180224,1,0,0:0:0:0:
192,192,180224,1,0,0:0:0:0:
192,192,180400,1,0,0:0:0:0:
64,192,180400,1,0,0:0:0:0:
448,192,180577,1,0,0:0:0:0:
320,192,180577,1,0,0:0:0:0:
192,192,180577,1,0,0:0:0:0:
192,192,180753,1,0,0:0:0:0:
64,192,180753,1,0,0:0:0:0:
320,192,180842,1,0,0:0:0:0:
448,192,180842,1,0,0:0:0:0:
192,192,180930,1,0,0:0:0:0:
64,192,180930,1,0,0:0:0:0:
320,192,181018,1,0,0:0:0:0:
448,192,181018,1,0,0:0:0:0:
192,192,181106,1,0,0:0:0:0:
64,192,181106,1,0,0:0:0:0:
320,192,181195,1,0,0:0:0:0:
448,192,181195,1,0,0:0:0:0:
192,192,181283,1,0,0:0:0:0:
64,192,181283,1,0,0:0:0:0:
320,192,181371,1,0,0:0:0:0:
448,192,181371,1,0,0:0:0:0:
192,192,181459,1,0,0:0:0:0:
64,192,181459,1,0,0:0:0:0:
320,192,181547,1,0,0:0:0:0:
448,192,181547,1,0,0:0:0:0:
192,192,181636,1,0,0:0:0:0:
64,192,181636,1,0,0:0:0:0:
320,192,181724,1,0,0:0:0:0:
448,192,181724,1,0,0:0:0:0:
192,192,181812,1,0,0:0:0:0:
64,192,181812,1,0,0:0:0:0:
320,192,181900,1,0,0:0:0:0:
448,192,181900,1,0,0:0:0:0:
192,192,181989,1,0,0:0:0:0:
64,192,181989,1,0,0:0:0:0:
320,192,182077,1,0,0:0:0:0:
448,192,182077,1,0,0:0:0:0:
192,192,182165,1,0,0:0:0:0:
64,192,182165,1,0,0:0:0:0:
448,192,183577,1,0,0:0:0:0:
64,192,183577,1,0,0:0:0:0:
320,192,183753,1,0,0:0:0:0:
192,192,183842,1,0,0:0:0:0:
64,192,183930,1,0,0:0:0:0:
320,192,183930,1,0,0:0:0:0:
448,192,184106,1,0,0:0:0:0:
64,192,184283,1,0,0:0:0:0:
320,192,184283,1,0,0:0:0:0:
192,192,184371,1,0,0:0:0:0:
448,192,184459,1,0,0:0:0:0:
64,192,184459,1,0,0:0:0:0:
320,192,184636,1,0,0:0:0:0:
64,192,184812,1,0,0:0:0:0:
448,192,184812,1,0,0:0:0:0:
320,192,184900,1,0,0:0:0:0:
192,192,184989,1,0,0:0:0:0:
64,192,184989,1,0,0:0:0:0:
448,192,185165,1,0,0:0:0:0:
320,192,185342,1,0,0:0:0:0:
192,192,185518,1,0,0:0:0:0:
320,192,185695,1,0,0:0:0:0:
448,192,185871,1,0,0:0:0:0:
64,192,186047,1,0,0:0:0:0:
192,192,186047,1,0,0:0:0:0:
448,192,186224,1,0,0:0:0:0:
320,192,186224,1,0,0:0:0:0:
192,192,186400,1,0,0:0:0:0:
448,192,186577,1,0,0:0:0:0:
64,192,186577,1,0,0:0:0:0:
320,192,186665,1,0,0:0:0:0:
192,192,186753,1,0,0:0:0:0:
448,192,186753,1,0,0:0:0:0:
320,192,186930,1,0,0:0:0:0:
64,192,187106,1,0,0:0:0:0:
192,192,187106,1,0,0:0:0:0:
448,192,187195,1,0,0:0:0:0:
320,192,187195,1,0,0:0:0:0:
192,192,187283,1,0,0:0:0:0:
64,192,187283,1,0,0:0:0:0:
448,192,187459,1,0,0:0:0:0:
192,192,187636,1,0,0:0:0:0:
320,192,187636,1,0,0:0:0:0:
64,192,187724,1,0,0:0:0:0:
448,192,187724,1,0,0:0:0:0:
320,192,187812,1,0,0:0:0:0:
192,192,187812,1,0,0:0:0:0:
448,192,187989,1,0,0:0:0:0:
192,192,188165,1,0,0:0:0:0:
320,192,188342,1,0,0:0:0:0:
448,192,188518,1,0,0:0:0:0:
64,192,188695,1,0,0:0:0:0:
192,192,188871,1,0,0:0:0:0:
320,192,189047,1,0,0:0:0:0:
448,192,189224,1,0,0:0:0:0:
64,192,189224,1,0,0:0:0:0:
192,192,189400,1,0,0:0:0:0:
320,192,189400,1,0,0:0:0:0:
448,192,189489,1,0,0:0:0:0:
64,192,189577,1,0,0:0:0:0:
320,192,189577,1,0,0:0:0:0:
192,192,189753,1,0,0:0:0:0:
448,192,189930,1,0,0:0:0:0:
320,192,189930,1,0,0:0:0:0:
192,192,190018,1,0,0:0:0:0:
64,192,190018,1,0,0:0:0:0:
320,192,190106,1,0,0:0:0:0:
448,192,190106,1,0,0:0:0:0:
192,192,190283,1,0,0:0:0:0:
448,192,190459,1,0,0:0:0:0:
320,192,190459,1,0,0:0:0:0:
192,192,190547,1,0,0:0:0:0:
448,192,190636,1,0,0:0:0:0:
64,192,190636,1,0,0:0:0:0:
320,192,190812,1,0,0:0:0:0:
192,192,190989,1,0,0:0:0:0:
320,192,191165,1,0,0:0:0:0:
192,192,191342,1,0,0:0:0:0:
64,192,191518,1,0,0:0:0:0:
448,192,191695,1,0,0:0:0:0:
320,192,191695,1,0,0:0:0:0:
192,192,191871,1,0,0:0:0:0:
64,192,191871,1,0,0:0:0:0:
448,192,192047,1,0,0:0:0:0:
64,192,192047,1,0,0:0:0:0:
320,192,192224,1,0,0:0:0:0:
192,192,192312,1,0,0:0:0:0:
64,192,192312,1,0,0:0:0:0:
448,192,192400,1,0,0:0:0:0:
320,192,192400,1,0,0:0:0:0:
192,192,192577,1,0,0:0:0:0:
448,192,192753,1,0,0:0:0:0:
320,192,192842,1,0,0:0:0:0:
192,192,192842,1,0,0:0:0:0:
64,192,192930,1,0,0:0:0:0:
448,192,193106,1,0,0:0:0:0:
192,192,193283,1,0,0:0:0:0:
320,192,193283,1,0,0:0:0:0:
448,192,193371,1,0,0:0:0:0:
64,192,193459,1,0,0:0:0:0:
320,192,193459,1,0,0:0:0:0:
192,192,193636,1,0,0:0:0:0:
448,192,193812,1,0,0:0:0:0:
320,192,193989,1,0,0:0:0:0:
64,192,194165,1,0,0:0:0:0:
192,192,194165,1,0,0:0:0:0:
448,192,194342,1,0,0:0:0:0:
320,192,194342,1,0,0:0:0:0:
192,192,194518,1,0,0:0:0:0:
64,192,194518,1,0,0:0:0:0:
320,192,194695,1,0,0:0:0:0:
448,192,194871,1,0,0:0:0:0:
192,192,195047,1,0,0:0:0:0:
320,192,195047,1,0,0:0:0:0:
64,192,195136,1,0,0:0:0:0:
448,192,195224,1,0,0:0:0:0:
192,192,195400,1,0,0:0:0:0:
320,192,195577,1,0,0:0:0:0:
448,192,195665,1,0,0:0:0:0:
64,192,195665,1,0,0:0:0:0:
192,192,195753,1,0,0:0:0:0:
448,192,195930,1,0,0:0:0:0:
192,192,196106,1,0,0:0:0:0:
64,192,196106,1,0,0:0:0:0:
448,192,196195,1,0,0:0:0:0:
192,192,196283,1,0,0:0:0:0:
320,192,196283,1,0,0:0:0:0:
64,192,196459,1,0,0:0:0:0:
192,192,196459,1,0,0:0:0:0:
448,192,196636,1,0,0:0:0:0:
320,192,196636,1,0,0:0:0:0:
192,192,196636,1,0,0:0:0:0:
64,192,196812,1,0,0:0:0:0:
192,192,196812,1,0,0:0:0:0:
448,192,196989,1,0,0:0:0:0:
320,192,196989,1,0,0:0:0:0:
192,192,196989,1,0,0:0:0:0:
64,192,197165,1,0,0:0:0:0:
192,192,197165,1,0,0:0:0:0:
448,192,197342,1,0,0:0:0:0:
320,192,197342,1,0,0:0:0:0:
192,192,197342,1,0,0:0:0:0:
64,192,197518,1,0,0:0:0:0:
192,192,197518,1,0,0:0:0:0:
448,192,197695,1,0,0:0:0:0:
64,192,197695,1,0,0:0:0:0:
320,192,197871,1,0,0:0:0:0:
192,192,197959,1,0,0:0:0:0:
448,192,198047,1,0,0:0:0:0:
64,192,198224,1,0,0:0:0:0:
320,192,198400,1,0,0:0:0:0:
192,192,198400,1,0,0:0:0:0:
448,192,198489,1,0,0:0:0:0:
64,192,198577,1,0,0:0:0:0:
192,192,198577,1,0,0:0:0:0:
448,192,198753,1,0,0:0:0:0:
192,192,198930,1,0,0:0:0:0:
320,192,198930,1,0,0:0:0:0:
448,192,199018,1,0,0:0:0:0:
64,192,199018,1,0,0:0:0:0:
192,192,199106,1,0,0:0:0:0:
320,192,199106,1,0,0:0:0:0:
448,192,199283,1,0,0:0:0:0:
320,192,199283,1,0,0:0:0:0:
192,192,199459,1,0,0:0:0:0:
320,192,199459,1,0,0:0:0:0:
448,192,199636,1,0,0:0:0:0:
320,192,199636,1,0,0:0:0:0:
192,192,199812,1,0,0:0:0:0:
320,192,199812,1,0,0:0:0:0:
64,192,199989,1,0,0:0:0:0:
192,192,199989,1,0,0:0:0:0:
448,192,200165,1,0,0:0:0:0:
320,192,200165,1,0,0:0:0:0:
192,192,200342,1,0,0:0:0:0:
64,192,200342,1,0,0:0:0:0:
448,192,200518,1,0,0:0:0:0:
320,192,200695,1,0,0:0:0:0:
192,192,200695,1,0,0:0:0:0:
448,192,200871,1,0,0:0:0:0:
192,192,201047,1,0,0:0:0:0:
64,192,201047,1,0,0:0:0:0:
320,192,201224,1,0,0:0:0:0:
192,192,201400,1,0,0:0:0:0:
448,192,201400,1,0,0:0:0:0:
64,192,201577,1,0,0:0:0:0:
320,192,201577,1,0,0:0:0:0:
192,192,201753,1,0,0:0:0:0:
448,192,201930,1,0,0:0:0:0:
320,192,201930,1,0,0:0:0:0:
64,192,202106,1,0,0:0:0:0:
192,192,202106,1,0,0:0:0:0:
448,192,202283,1,0,0:0:0:0:
192,192,202459,1,0,0:0:0:0:
320,192,202459,1,0,0:0:0:0:
64,192,202636,1,0,0:0:0:0:
448,192,202812,1,0,0:0:0:0:
192,192,202812,1,0,0:0:0:0:
192,192,202989,1,0,0:0:0:0:
448,192,203165,1,0,0:0:0:0:
320,192,203165,1,0,0:0:0:0:
192,192,203342,1,0,0:0:0:0:
64,192,203342,1,0,0:0:0:0:
320,192,203430,1,0,0:0:0:0:
448,192,203430,1,0,0:0:0:0:
192,192,203518,1,0,0:0:0:0:
64,192,203518,1,0,0:0:0:0:
320,192,203606,1,0,0:0:0:0:
448,192,203606,1,0,0:0:0:0:
192,192,203695,1,0,0:0:0:0:
64,192,203695,1,0,0:0:0:0:
320,192,203783,1,0,0:0:0:0:
448,192,203783,1,0,0:0:0:0:
192,192,203871,1,0,0:0:0:0:
64,192,203871,1,0,0:0:0:0:
320,192,203959,1,0,0:0:0:0:
448,192,203959,1,0,0:0:0:0:
192,192,204047,1,0,0:0:0:0:
64,192,204047,1,0,0:0:0:0:
320,192,204136,1,0,0:0:0:0:
448,192,204136,1,0,0:0:0:0:
192,192,204224,1,0,0:0:0:0:
64,192,204224,1,0,0:0:0:0:
320,192,204312,1,0,0:0:0:0:
448,192,204312,1,0,0:0:0:0:
192,192,204400,1,0,0:0:0:0:
64,192,204400,1,0,0:0:0:0:
320,192,204489,1,0,0:0:0:0:
448,192,204489,1,0,0:0:0:0:
192,192,204577,1,0,0:0:0:0:
64,192,204577,1,0,0:0:0:0:
320,192,204665,1,0,0:0:0:0:
448,192,204665,1,0,0:0:0:0:
64,192,204753,1,0,0:0:0:0:
192,192,204753,128,0,206165:0:0:0:0:
320,192,205989,1,0,0:0:0:0:
448,192,206165,1,14,0:0:0:0:
320,192,206165,128,14,206518:0:0:0:0:
64,192,206165,128,14,206518:0:0:0:0:
