osu file format v14

[General]
AudioFilename: audio.mp3
AudioLeadIn: 0
PreviewTime: 114294
Countdown: 0
SampleSet: Normal
StackLeniency: 0.7
Mode: 1
LetterboxInBreaks: 0
WidescreenStoryboard: 0

[Editor]
Bookmarks: 30,11324,22618,33912,45206,67794,91794,103088,115794,127088,138382,149677,160971,172265,183559,194853,205971
DistanceSpacing: 0.9
BeatDivisor: 4
GridSize: 32
TimelineZoom: 1.7

[Metadata]
Title:Lost
TitleUnicode:Lost
Artist:Chasers
ArtistUnicode:Chasers
Creator:Greenshell
Version:Muzukashii
Source:
Tags:Lyawi UK Hardcore pendarrĀ² pendarr^2
BeatmapID:2116838
BeatmapSetID:1011361

[Difficulty]
HPDrainRate:6
CircleSize:3
OverallDifficulty:5
ApproachRate:10
SliderMultiplier:1.4
SliderTickRate:1

[Events]
//Background and Video events
0,0,"lost.jpg",0,-90
//Break Periods
2,45406,67344
//Storyboard Layer 0 (Background)
//Storyboard Layer 1 (Fail)
//Storyboard Layer 2 (Pass)
//Storyboard Layer 3 (Foreground)
//Storyboard Layer 4 (Overlay)
//Storyboard Sound Samples

[TimingPoints]
30,352.941176470588,4,1,0,100,1,0
115794,-100,4,1,0,100,0,1
160971,-100,4,1,0,100,0,0

[HitObjects]
224,224,30,5,4,0:0:0:0:
288,160,206,1,8,0:0:0:0:
224,160,382,1,0,0:0:0:0:
288,160,559,1,8,0:0:0:0:
288,160,912,1,8,0:0:0:0:
288,160,1088,1,8,0:0:0:0:
224,160,1265,1,0,0:0:0:0:
224,160,1441,1,0,0:0:0:0:
288,160,1794,1,8,0:0:0:0:
288,160,2500,1,8,0:0:0:0:
288,160,2853,1,8,0:0:0:0:
224,160,3029,1,0,0:0:0:0:
288,160,3206,1,8,0:0:0:0:
224,160,3382,1,0,0:0:0:0:
224,160,3735,1,0,0:0:0:0:
288,160,3912,1,8,0:0:0:0:
288,160,4088,1,8,0:0:0:0:
224,160,4265,1,0,0:0:0:0:
288,160,4618,1,8,0:0:0:0:
288,160,5324,1,8,0:0:0:0:
224,160,5677,1,0,0:0:0:0:
288,160,5853,1,8,0:0:0:0:
224,160,6029,1,0,0:0:0:0:
288,160,6206,1,8,0:0:0:0:
288,160,6559,1,8,0:0:0:0:
288,160,6735,1,8,0:0:0:0:
288,160,6912,1,8,0:0:0:0:
224,160,7088,1,0,0:0:0:0:
288,160,7441,1,8,0:0:0:0:
288,160,8147,1,8,0:0:0:0:
288,160,8500,1,8,0:0:0:0:
224,160,8677,1,0,0:0:0:0:
288,160,8853,1,8,0:0:0:0:
288,160,9029,1,8,0:0:0:0:
288,160,9382,1,8,0:0:0:0:
224,160,9559,1,0,0:0:0:0:
288,160,9735,1,8,0:0:0:0:
224,160,9912,1,0,0:0:0:0:
288,160,10265,1,8,0:0:0:0:
288,160,10971,1,8,0:0:0:0:
288,224,11324,1,12,0:0:0:0:
288,160,11677,1,8,0:0:0:0:
288,160,12029,1,8,0:0:0:0:
288,160,12382,1,8,0:0:0:0:
288,160,12735,1,8,0:0:0:0:
288,160,13088,1,8,0:0:0:0:
288,160,13441,1,8,0:0:0:0:
288,160,13794,1,8,0:0:0:0:
288,160,13971,1,8,0:0:0:0:
288,160,14147,1,8,0:0:0:0:
288,160,14500,1,8,0:0:0:0:
288,160,14853,1,8,0:0:0:0:
288,160,15206,1,8,0:0:0:0:
288,160,15559,1,8,0:0:0:0:
288,160,15912,1,8,0:0:0:0:
288,160,16265,1,8,0:0:0:0:
288,160,16618,1,8,0:0:0:0:
224,160,16971,1,0,0:0:0:0:
288,160,17147,1,8,0:0:0:0:
288,160,17324,1,8,0:0:0:0:
288,160,17500,1,8,0:0:0:0:
288,160,17853,1,8,0:0:0:0:
288,160,18029,1,8,0:0:0:0:
288,160,18206,1,8,0:0:0:0:
288,160,18559,1,8,0:0:0:0:
224,160,18735,1,0,0:0:0:0:
288,160,18912,1,8,0:0:0:0:
288,160,19000,1,8,0:0:0:0:
288,160,19088,1,8,0:0:0:0:
224,160,19265,1,0,0:0:0:0:
224,160,19353,1,0,0:0:0:0:
224,160,19441,1,0,0:0:0:0:
288,160,19618,1,8,0:0:0:0:
128,32,19794,2,0,L|128:176,4,140
256,192,21382,12,0,22265,0:0:0:0:
224,160,22441,5,0,0:0:0:0:
224,160,22618,1,4,0:0:0:0:
288,160,22971,1,8,0:0:0:0:
224,160,23147,1,0,0:0:0:0:
224,160,23235,1,0,0:0:0:0:
224,160,23324,1,0,0:0:0:0:
288,160,23500,1,8,0:0:0:0:
288,160,23677,1,8,0:0:0:0:
224,160,23853,1,0,0:0:0:0:
224,160,24029,1,0,0:0:0:0:
288,160,24382,1,8,0:0:0:0:
224,160,24735,1,0,0:0:0:0:
288,160,25088,1,8,0:0:0:0:
288,160,25441,1,8,0:0:0:0:
224,160,25794,1,0,0:0:0:0:
288,160,25971,1,8,0:0:0:0:
288,160,26059,1,8,0:0:0:0:
288,160,26147,1,8,0:0:0:0:
288,160,26324,1,8,0:0:0:0:
224,160,26500,1,0,0:0:0:0:
288,160,26677,1,8,0:0:0:0:
224,160,26853,1,0,0:0:0:0:
288,160,27206,1,8,0:0:0:0:
224,160,27559,1,0,0:0:0:0:
288,160,27912,1,8,0:0:0:0:
224,160,28088,1,0,0:0:0:0:
224,160,28265,1,0,0:0:0:0:
288,160,28618,1,8,0:0:0:0:
224,160,28794,1,0,0:0:0:0:
224,160,28882,1,0,0:0:0:0:
224,160,28971,1,0,0:0:0:0:
288,160,29147,1,8,0:0:0:0:
288,160,29324,1,8,0:0:0:0:
288,160,29500,1,8,0:0:0:0:
224,160,29677,1,0,0:0:0:0:
288,160,30029,1,8,0:0:0:0:
224,160,30382,1,0,0:0:0:0:
288,160,30735,1,8,0:0:0:0:
288,160,31088,1,8,0:0:0:0:
224,160,31441,1,0,0:0:0:0:
288,160,31618,1,8,0:0:0:0:
288,160,31706,1,8,0:0:0:0:
288,160,31794,1,8,0:0:0:0:
224,160,31971,1,0,0:0:0:0:
288,160,32147,1,8,0:0:0:0:
288,160,32324,1,8,0:0:0:0:
224,160,32500,1,0,0:0:0:0:
288,160,32853,1,8,0:0:0:0:
224,160,33206,1,0,0:0:0:0:
288,160,33559,1,8,0:0:0:0:
224,160,33735,1,0,0:0:0:0:
288,160,33912,1,8,0:0:0:0:
288,160,34265,1,8,0:0:0:0:
288,160,34618,1,8,0:0:0:0:
288,160,34971,1,8,0:0:0:0:
288,160,35324,1,8,0:0:0:0:
288,160,35677,1,8,0:0:0:0:
288,160,36029,1,8,0:0:0:0:
288,160,36382,1,8,0:0:0:0:
288,160,36559,1,8,0:0:0:0:
288,160,36735,1,8,0:0:0:0:
288,160,37088,1,8,0:0:0:0:
288,160,37441,1,8,0:0:0:0:
288,160,37794,1,8,0:0:0:0:
288,160,38147,1,8,0:0:0:0:
288,160,38500,1,8,0:0:0:0:
288,160,38853,1,8,0:0:0:0:
288,160,39029,1,8,0:0:0:0:
288,160,39206,1,8,0:0:0:0:
288,160,39382,1,8,0:0:0:0:
224,160,39559,1,0,0:0:0:0:
288,160,39735,1,8,0:0:0:0:
288,160,39912,1,8,0:0:0:0:
288,160,40088,1,8,0:0:0:0:
288,160,40441,1,8,0:0:0:0:
288,160,40618,1,8,0:0:0:0:
288,160,40794,1,8,0:0:0:0:
224,160,40971,1,0,0:0:0:0:
288,160,41147,1,8,0:0:0:0:
288,160,41324,1,8,0:0:0:0:
288,160,41500,1,8,0:0:0:0:
288,160,41588,1,8,0:0:0:0:
288,160,41677,1,8,0:0:0:0:
224,160,41853,1,0,0:0:0:0:
224,160,41941,1,0,0:0:0:0:
224,160,42029,1,0,0:0:0:0:
288,160,42206,1,8,0:0:0:0:
352,32,42382,2,0,L|352:192,4,140
224,160,45029,1,0,0:0:0:0:
224,224,45206,1,4,0:0:0:0:
224,224,67794,5,4,0:0:0:0:
288,160,68147,1,8,0:0:0:0:
288,160,68500,1,8,0:0:0:0:
224,160,68853,1,0,0:0:0:0:
288,160,69206,1,8,0:0:0:0:
288,160,69559,1,8,0:0:0:0:
224,160,69912,1,0,0:0:0:0:
288,160,70618,1,8,0:0:0:0:
288,160,70971,1,8,0:0:0:0:
224,160,71324,1,0,0:0:0:0:
288,160,71677,1,8,0:0:0:0:
288,160,72029,1,8,0:0:0:0:
224,160,72382,1,0,0:0:0:0:
288,160,72735,1,8,0:0:0:0:
224,160,73441,1,0,0:0:0:0:
224,160,73794,1,0,0:0:0:0:
288,160,73971,1,8,0:0:0:0:
224,160,74147,1,0,0:0:0:0:
288,160,74500,1,8,0:0:0:0:
224,160,74853,1,0,0:0:0:0:
224,160,75206,1,0,0:0:0:0:
224,160,75382,1,0,0:0:0:0:
288,160,75559,1,8,0:0:0:0:
288,160,76265,1,8,0:0:0:0:
224,160,76618,1,0,0:0:0:0:
288,160,76794,1,8,0:0:0:0:
288,160,77147,1,8,0:0:0:0:
224,160,77324,1,0,0:0:0:0:
288,160,77677,1,8,0:0:0:0:
224,160,78029,1,0,0:0:0:0:
224,160,78206,1,0,0:0:0:0:
288,160,78382,1,8,0:0:0:0:
224,160,79088,1,0,0:0:0:0:
224,160,79441,1,0,0:0:0:0:
288,160,79618,1,8,0:0:0:0:
224,160,79971,1,0,0:0:0:0:
224,160,80147,1,0,0:0:0:0:
288,160,80500,1,8,0:0:0:0:
224,160,80853,1,0,0:0:0:0:
224,160,81029,1,0,0:0:0:0:
288,160,81206,1,8,0:0:0:0:
288,160,81912,1,8,0:0:0:0:
224,160,82265,1,0,0:0:0:0:
288,160,82441,1,8,0:0:0:0:
224,160,82618,1,0,0:0:0:0:
288,160,82971,1,8,0:0:0:0:
224,160,83147,1,0,0:0:0:0:
288,160,83324,1,8,0:0:0:0:
224,160,83677,1,0,0:0:0:0:
288,160,84029,1,8,0:0:0:0:
224,160,84735,1,0,0:0:0:0:
224,160,85088,1,0,0:0:0:0:
288,160,85265,1,8,0:0:0:0:
224,160,85618,1,0,0:0:0:0:
224,160,85794,1,0,0:0:0:0:
288,160,86147,1,8,0:0:0:0:
224,160,86500,1,0,0:0:0:0:
224,160,86677,1,0,0:0:0:0:
288,160,86853,1,8,0:0:0:0:
288,160,87559,1,8,0:0:0:0:
224,160,87912,1,0,0:0:0:0:
288,160,88088,1,8,0:0:0:0:
224,160,88441,1,0,0:0:0:0:
224,160,88618,1,0,0:0:0:0:
288,160,88971,1,8,0:0:0:0:
224,160,89324,1,0,0:0:0:0:
224,160,89500,1,0,0:0:0:0:
288,160,89677,1,8,0:0:0:0:
224,160,90029,1,0,0:0:0:0:
256,192,90382,12,0,91441,0:0:0:0:
224,224,91794,5,4,0:0:0:0:
224,160,92147,1,0,0:0:0:0:
288,160,92324,1,8,0:0:0:0:
224,160,92677,1,0,0:0:0:0:
288,160,92853,1,8,0:0:0:0:
288,160,93029,1,8,0:0:0:0:
288,160,94618,1,8,0:0:0:0:
288,160,94971,1,8,0:0:0:0:
224,160,95147,1,0,0:0:0:0:
224,160,95500,1,0,0:0:0:0:
288,160,95677,1,8,0:0:0:0:
288,160,95853,1,8,0:0:0:0:
224,160,97441,1,0,0:0:0:0:
224,160,97794,1,0,0:0:0:0:
288,160,97971,1,8,0:0:0:0:
288,160,98324,1,8,0:0:0:0:
288,160,98500,1,8,0:0:0:0:
288,160,98677,1,8,0:0:0:0:
288,160,100265,1,8,0:0:0:0:
288,160,100618,1,8,0:0:0:0:
288,160,100794,1,8,0:0:0:0:
288,160,101147,1,8,0:0:0:0:
224,160,101324,1,0,0:0:0:0:
288,160,101500,1,8,0:0:0:0:
256,192,101677,12,0,102735,0:0:0:0:
224,224,103088,5,4,0:0:0:0:
288,160,103441,1,8,0:0:0:0:
288,160,103794,1,8,0:0:0:0:
288,160,104147,1,8,0:0:0:0:
288,160,104500,1,8,0:0:0:0:
288,160,104853,1,8,0:0:0:0:
288,160,105206,1,8,0:0:0:0:
288,160,105559,1,8,0:0:0:0:
288,160,105735,1,8,0:0:0:0:
288,160,105912,1,8,0:0:0:0:
288,160,106265,1,8,0:0:0:0:
288,160,106618,1,8,0:0:0:0:
288,160,106971,1,8,0:0:0:0:
288,160,107324,1,8,0:0:0:0:
288,160,107677,1,8,0:0:0:0:
288,160,108029,1,8,0:0:0:0:
288,160,108735,1,8,0:0:0:0:
288,160,108912,1,8,0:0:0:0:
224,160,109088,1,0,0:0:0:0:
288,160,109265,1,8,0:0:0:0:
288,160,109441,1,8,0:0:0:0:
224,160,109618,1,0,0:0:0:0:
288,160,109794,1,8,0:0:0:0:
224,160,110147,1,0,0:0:0:0:
288,160,110324,1,8,0:0:0:0:
288,160,110412,1,8,0:0:0:0:
288,160,110500,1,8,0:0:0:0:
224,160,110677,1,0,0:0:0:0:
288,160,110853,1,8,0:0:0:0:
288,160,110941,1,8,0:0:0:0:
288,160,111029,1,8,0:0:0:0:
224,160,111206,1,0,0:0:0:0:
448,32,111559,2,0,L|448:192,4,140
96,224,113324,2,0,L|96:384,2,140
224,224,114382,1,4,0:0:0:0:
256,192,114559,12,0,115441,0:0:0:0:
224,160,115618,5,0,0:0:0:0:
224,224,115794,1,4,0:0:0:0:
224,160,116147,1,0,0:0:0:0:
224,160,116235,1,0,0:0:0:0:
224,160,116324,1,0,0:0:0:0:
288,160,116500,1,8,0:0:0:0:
224,160,116765,1,0,0:0:0:0:
288,160,117029,1,8,0:0:0:0:
224,160,117206,1,0,0:0:0:0:
224,160,117382,1,0,0:0:0:0:
288,160,117559,1,8,0:0:0:0:
288,160,117735,1,8,0:0:0:0:
288,160,118088,1,8,0:0:0:0:
288,160,118441,1,8,0:0:0:0:
224,160,118618,1,0,0:0:0:0:
224,160,118882,1,0,0:0:0:0:
288,160,119147,1,8,0:0:0:0:
288,160,119412,1,8,0:0:0:0:
224,160,119677,1,0,0:0:0:0:
288,160,120029,1,8,0:0:0:0:
288,160,120294,1,8,0:0:0:0:
224,160,120559,1,0,0:0:0:0:
288,160,120735,1,8,0:0:0:0:
288,160,121000,1,8,0:0:0:0:
224,160,121265,1,0,0:0:0:0:
288,160,121441,1,8,0:0:0:0:
288,160,121794,1,8,0:0:0:0:
224,160,122147,1,0,0:0:0:0:
224,160,122235,1,0,0:0:0:0:
224,160,122324,1,0,0:0:0:0:
288,160,122500,1,8,0:0:0:0:
224,160,122677,1,0,0:0:0:0:
288,160,122853,1,8,0:0:0:0:
288,160,123206,1,8,0:0:0:0:
224,160,123382,1,0,0:0:0:0:
288,160,123559,1,8,0:0:0:0:
288,160,123824,1,8,0:0:0:0:
288,160,124088,1,8,0:0:0:0:
224,160,124265,1,0,0:0:0:0:
224,160,124618,1,0,0:0:0:0:
288,160,124794,1,8,0:0:0:0:
288,160,124882,1,8,0:0:0:0:
288,160,125147,1,8,0:0:0:0:
288,160,125677,1,8,0:0:0:0:
224,160,125941,1,0,0:0:0:0:
288,160,126206,1,8,0:0:0:0:
288,160,126471,1,8,0:0:0:0:
224,160,126735,1,0,0:0:0:0:
224,160,126912,1,0,0:0:0:0:
224,160,127088,1,0,0:0:0:0:
288,160,127441,1,8,0:0:0:0:
288,160,127529,1,8,0:0:0:0:
288,160,127618,1,8,0:0:0:0:
224,160,127794,1,0,0:0:0:0:
288,160,128059,1,8,0:0:0:0:
224,160,128324,1,0,0:0:0:0:
288,160,128500,1,8,0:0:0:0:
288,160,128677,1,8,0:0:0:0:
224,160,128853,1,0,0:0:0:0:
288,160,129029,1,8,0:0:0:0:
224,160,129382,1,0,0:0:0:0:
224,160,129735,1,0,0:0:0:0:
288,160,129912,1,8,0:0:0:0:
224,160,130177,1,0,0:0:0:0:
288,160,130441,1,8,0:0:0:0:
288,160,130706,1,8,0:0:0:0:
224,160,130971,1,0,0:0:0:0:
224,160,131324,1,0,0:0:0:0:
288,160,131588,1,8,0:0:0:0:
224,160,131853,1,0,0:0:0:0:
288,160,132029,1,8,0:0:0:0:
224,160,132294,1,0,0:0:0:0:
224,160,132559,1,0,0:0:0:0:
288,160,132735,1,8,0:0:0:0:
288,160,133088,1,8,0:0:0:0:
288,160,133177,1,8,0:0:0:0:
288,160,133265,1,8,0:0:0:0:
224,160,133441,1,0,0:0:0:0:
288,160,133794,1,8,0:0:0:0:
224,160,133971,1,0,0:0:0:0:
224,160,134147,1,0,0:0:0:0:
288,160,134500,1,8,0:0:0:0:
224,160,134677,1,0,0:0:0:0:
288,160,134853,1,8,0:0:0:0:
288,160,135118,1,8,0:0:0:0:
288,160,135382,1,8,0:0:0:0:
224,160,135559,1,0,0:0:0:0:
224,160,135912,1,0,0:0:0:0:
288,160,136088,1,8,0:0:0:0:
288,160,136177,1,8,0:0:0:0:
288,160,136441,1,8,0:0:0:0:
224,160,136971,1,0,0:0:0:0:
288,160,137235,1,8,0:0:0:0:
224,160,137500,1,0,0:0:0:0:
288,160,137677,1,8,0:0:0:0:
288,160,137765,1,8,0:0:0:0:
288,160,137853,1,8,0:0:0:0:
224,160,138029,1,0,0:0:0:0:
288,160,138206,1,8,0:0:0:0:
224,224,138382,1,4,0:0:0:0:
224,160,138735,1,0,0:0:0:0:
224,160,138823,1,0,0:0:0:0:
224,160,138912,1,0,0:0:0:0:
288,160,139088,1,8,0:0:0:0:
224,160,139353,1,0,0:0:0:0:
288,160,139617,1,8,0:0:0:0:
224,160,139794,1,0,0:0:0:0:
224,160,139882,1,0,0:0:0:0:
224,160,139970,1,0,0:0:0:0:
288,160,140147,1,8,0:0:0:0:
288,160,140323,1,8,0:0:0:0:
224,160,140676,1,0,0:0:0:0:
288,160,141029,1,8,0:0:0:0:
224,160,141206,1,0,0:0:0:0:
224,160,141294,1,0,0:0:0:0:
224,160,141470,1,0,0:0:0:0:
224,160,141559,1,0,0:0:0:0:
288,160,141735,1,8,0:0:0:0:
288,160,142000,1,8,0:0:0:0:
224,160,142265,1,0,0:0:0:0:
288,160,142617,1,8,0:0:0:0:
288,160,142706,1,8,0:0:0:0:
288,160,142882,1,8,0:0:0:0:
288,160,142971,1,8,0:0:0:0:
224,160,143147,1,0,0:0:0:0:
288,160,143323,1,8,0:0:0:0:
288,160,143588,1,8,0:0:0:0:
224,160,143853,1,0,0:0:0:0:
288,160,144029,1,8,0:0:0:0:
288,160,144382,1,8,0:0:0:0:
224,160,144735,1,0,0:0:0:0:
224,160,144823,1,0,0:0:0:0:
224,160,144912,1,0,0:0:0:0:
288,160,145088,1,8,0:0:0:0:
224,160,145265,1,0,0:0:0:0:
288,160,145441,1,8,0:0:0:0:
288,160,145794,1,8,0:0:0:0:
224,160,145970,1,0,0:0:0:0:
288,160,146147,1,8,0:0:0:0:
288,160,146235,1,8,0:0:0:0:
288,160,146412,1,8,0:0:0:0:
288,160,146500,1,8,0:0:0:0:
288,160,146676,1,8,0:0:0:0:
224,160,146853,1,0,0:0:0:0:
224,160,147206,1,0,0:0:0:0:
288,160,147382,1,8,0:0:0:0:
288,160,147470,1,8,0:0:0:0:
288,160,147735,1,8,0:0:0:0:
288,160,148265,1,8,0:0:0:0:
224,160,148529,1,0,0:0:0:0:
288,160,148794,1,8,0:0:0:0:
288,160,149059,1,8,0:0:0:0:
224,160,149323,1,0,0:0:0:0:
224,160,149500,1,0,0:0:0:0:
224,160,149676,1,0,0:0:0:0:
288,160,150029,1,8,0:0:0:0:
288,160,150117,1,8,0:0:0:0:
288,160,150206,1,8,0:0:0:0:
224,160,150382,1,0,0:0:0:0:
288,160,150647,1,8,0:0:0:0:
224,160,150912,1,0,0:0:0:0:
288,160,151088,1,8,0:0:0:0:
288,160,151177,1,8,0:0:0:0:
288,160,151265,1,8,0:0:0:0:
224,160,151441,1,0,0:0:0:0:
288,160,151617,1,8,0:0:0:0:
288,160,151970,1,8,0:0:0:0:
224,160,152323,1,0,0:0:0:0:
288,160,152500,1,8,0:0:0:0:
288,160,152588,1,8,0:0:0:0:
224,160,152765,1,0,0:0:0:0:
224,160,152853,1,0,0:0:0:0:
288,160,153029,1,8,0:0:0:0:
288,160,153294,1,8,0:0:0:0:
224,160,153559,1,0,0:0:0:0:
224,160,153912,1,0,0:0:0:0:
224,160,154000,1,0,0:0:0:0:
288,160,154176,1,8,0:0:0:0:
288,160,154265,1,8,0:0:0:0:
224,160,154441,1,0,0:0:0:0:
288,160,154617,1,8,0:0:0:0:
224,160,154882,1,0,0:0:0:0:
224,160,155147,1,0,0:0:0:0:
288,160,155323,1,8,0:0:0:0:
288,160,155677,1,8,0:0:0:0:
288,160,156029,1,8,0:0:0:0:
288,160,156118,1,8,0:0:0:0:
288,160,156206,1,8,0:0:0:0:
288,160,156382,1,8,0:0:0:0:
224,160,156559,1,0,0:0:0:0:
288,160,156735,1,8,0:0:0:0:
288,160,157088,1,8,0:0:0:0:
224,160,157265,1,0,0:0:0:0:
288,160,157441,1,8,0:0:0:0:
288,160,157529,1,8,0:0:0:0:
288,160,157706,1,8,0:0:0:0:
288,160,157794,1,8,0:0:0:0:
288,160,157971,1,8,0:0:0:0:
224,160,158147,1,0,0:0:0:0:
288,160,158500,1,8,0:0:0:0:
288,160,158677,1,8,0:0:0:0:
288,160,158765,1,8,0:0:0:0:
288,160,159029,1,8,0:0:0:0:
288,160,159206,1,8,0:0:0:0:
288,160,159382,1,8,0:0:0:0:
224,160,159559,1,0,0:0:0:0:
256,192,159735,12,0,160618,0:0:0:0:
224,160,160794,5,0,0:0:0:0:
224,224,160971,1,4,0:0:0:0:
288,160,161324,1,8,0:0:0:0:
224,160,161500,1,0,0:0:0:0:
224,160,161588,1,0,0:0:0:0:
224,160,161677,1,0,0:0:0:0:
288,160,161853,1,8,0:0:0:0:
288,160,162030,1,8,0:0:0:0:
224,160,162206,1,0,0:0:0:0:
224,160,162382,1,0,0:0:0:0:
288,160,162735,1,8,0:0:0:0:
224,160,163088,1,0,0:0:0:0:
288,160,163441,1,8,0:0:0:0:
288,160,163794,1,8,0:0:0:0:
224,160,164147,1,0,0:0:0:0:
288,160,164324,1,8,0:0:0:0:
288,160,164412,1,8,0:0:0:0:
288,160,164500,1,8,0:0:0:0:
288,160,164677,1,8,0:0:0:0:
224,160,164853,1,0,0:0:0:0:
288,160,165030,1,8,0:0:0:0:
224,160,165206,1,0,0:0:0:0:
288,160,165559,1,8,0:0:0:0:
224,160,165912,1,0,0:0:0:0:
288,160,166265,1,8,0:0:0:0:
224,160,166441,1,0,0:0:0:0:
224,160,166618,1,0,0:0:0:0:
288,160,166971,1,8,0:0:0:0:
224,160,167147,1,0,0:0:0:0:
224,160,167235,1,0,0:0:0:0:
224,160,167324,1,0,0:0:0:0:
288,160,167500,1,8,0:0:0:0:
288,160,167677,1,8,0:0:0:0:
288,160,167853,1,8,0:0:0:0:
224,160,168030,1,0,0:0:0:0:
288,160,168382,1,8,0:0:0:0:
224,160,168735,1,0,0:0:0:0:
288,160,169088,1,8,0:0:0:0:
288,160,169441,1,8,0:0:0:0:
224,160,169794,1,0,0:0:0:0:
288,160,169971,1,8,0:0:0:0:
288,160,170059,1,8,0:0:0:0:
288,160,170147,1,8,0:0:0:0:
224,160,170324,1,0,0:0:0:0:
288,160,170500,1,8,0:0:0:0:
288,160,170677,1,8,0:0:0:0:
224,160,170853,1,0,0:0:0:0:
288,160,171206,1,8,0:0:0:0:
224,160,171559,1,0,0:0:0:0:
288,160,171912,1,8,0:0:0:0:
224,160,172088,1,0,0:0:0:0:
288,160,172265,1,8,0:0:0:0:
288,160,172618,1,8,0:0:0:0:
288,160,172971,1,8,0:0:0:0:
288,160,173324,1,8,0:0:0:0:
288,160,173677,1,8,0:0:0:0:
288,160,174030,1,8,0:0:0:0:
288,160,174382,1,8,0:0:0:0:
288,160,174735,1,8,0:0:0:0:
288,160,174912,1,8,0:0:0:0:
288,160,175088,1,8,0:0:0:0:
288,160,175441,1,8,0:0:0:0:
288,160,175794,1,8,0:0:0:0:
288,160,176147,1,8,0:0:0:0:
288,160,176500,1,8,0:0:0:0:
288,160,176853,1,8,0:0:0:0:
288,160,177206,1,8,0:0:0:0:
288,160,177382,1,8,0:0:0:0:
288,160,177559,1,8,0:0:0:0:
288,160,177735,1,8,0:0:0:0:
224,160,177912,1,0,0:0:0:0:
288,160,178088,1,8,0:0:0:0:
288,160,178265,1,8,0:0:0:0:
288,160,178441,1,8,0:0:0:0:
288,160,178794,1,8,0:0:0:0:
288,160,178971,1,8,0:0:0:0:
288,160,179147,1,8,0:0:0:0:
224,160,179324,1,0,0:0:0:0:
288,160,179500,1,8,0:0:0:0:
288,160,179677,1,8,0:0:0:0:
288,160,179853,1,8,0:0:0:0:
288,160,179941,1,8,0:0:0:0:
288,160,180030,1,8,0:0:0:0:
224,160,180206,1,0,0:0:0:0:
224,160,180294,1,0,0:0:0:0:
224,160,180382,1,0,0:0:0:0:
288,160,180559,1,8,0:0:0:0:
160,224,180735,2,0,L|160:384,4,140
224,160,183382,1,0,0:0:0:0:
224,224,183559,1,4,0:0:0:0:
288,160,183735,1,8,0:0:0:0:
224,160,183911,1,0,0:0:0:0:
288,160,184088,1,8,0:0:0:0:
288,160,184441,1,8,0:0:0:0:
288,160,184617,1,8,0:0:0:0:
224,160,184794,1,0,0:0:0:0:
224,160,184970,1,0,0:0:0:0:
288,160,185323,1,8,0:0:0:0:
288,160,186029,1,8,0:0:0:0:
288,160,186382,1,8,0:0:0:0:
224,160,186558,1,0,0:0:0:0:
288,160,186735,1,8,0:0:0:0:
224,160,186911,1,0,0:0:0:0:
224,160,187264,1,0,0:0:0:0:
288,160,187441,1,8,0:0:0:0:
288,160,187617,1,8,0:0:0:0:
224,160,187794,1,0,0:0:0:0:
288,160,188147,1,8,0:0:0:0:
288,160,188853,1,8,0:0:0:0:
224,160,189206,1,0,0:0:0:0:
288,160,189382,1,8,0:0:0:0:
224,160,189558,1,0,0:0:0:0:
288,160,189735,1,8,0:0:0:0:
288,160,190088,1,8,0:0:0:0:
288,160,190264,1,8,0:0:0:0:
288,160,190441,1,8,0:0:0:0:
224,160,190617,1,0,0:0:0:0:
288,160,190970,1,8,0:0:0:0:
288,160,191676,1,8,0:0:0:0:
288,160,192029,1,8,0:0:0:0:
224,160,192206,1,0,0:0:0:0:
288,160,192382,1,8,0:0:0:0:
288,160,192558,1,8,0:0:0:0:
288,160,192911,1,8,0:0:0:0:
224,160,193088,1,0,0:0:0:0:
288,160,193264,1,8,0:0:0:0:
224,160,193441,1,0,0:0:0:0:
288,160,193794,1,8,0:0:0:0:
288,160,194500,1,8,0:0:0:0:
288,224,194853,1,12,0:0:0:0:
288,160,195206,1,8,0:0:0:0:
288,160,195558,1,8,0:0:0:0:
288,160,195911,1,8,0:0:0:0:
288,160,196264,1,8,0:0:0:0:
288,160,196617,1,8,0:0:0:0:
288,160,196970,1,8,0:0:0:0:
288,160,197323,1,8,0:0:0:0:
288,160,197500,1,8,0:0:0:0:
288,160,197676,1,8,0:0:0:0:
288,160,198029,1,8,0:0:0:0:
288,160,198382,1,8,0:0:0:0:
288,160,198735,1,8,0:0:0:0:
288,160,199088,1,8,0:0:0:0:
288,160,199441,1,8,0:0:0:0:
288,160,199794,1,8,0:0:0:0:
288,160,200147,1,8,0:0:0:0:
224,160,200500,1,0,0:0:0:0:
288,160,200676,1,8,0:0:0:0:
288,160,200853,1,8,0:0:0:0:
288,160,201029,1,8,0:0:0:0:
288,160,201382,1,8,0:0:0:0:
288,160,201558,1,8,0:0:0:0:
288,160,201735,1,8,0:0:0:0:
288,160,202088,1,8,0:0:0:0:
224,160,202264,1,0,0:0:0:0:
288,160,202441,1,8,0:0:0:0:
288,160,202529,1,8,0:0:0:0:
288,160,202617,1,8,0:0:0:0:
224,160,202794,1,0,0:0:0:0:
224,160,202882,1,0,0:0:0:0:
224,160,202970,1,0,0:0:0:0:
288,160,203147,1,8,0:0:0:0:
352,224,203324,2,0,L|352:368,4,140
256,192,204911,12,0,205794,0:0:0:0:
224,160,205970,5,0,0:0:0:0:
