osu file format v14

[General]
AudioFilename: 13_-_Charlie_Clouser_-_Hello_Zepp.mp3
AudioLeadIn: 0
PreviewTime: 134809
Countdown: 0
SampleSet: Soft
StackLeniency: 0.4
Mode: 0
LetterboxInBreaks: 0
WidescreenStoryboard: 0

[Editor]
Bookmarks: 21163
DistanceSpacing: 1.6
BeatDivisor: 4
GridSize: 4
TimelineZoom: 0.9

[Metadata]
Title:Hello Zepp
TitleUnicode:Hello Zepp
Artist:Charlie Clouser
ArtistUnicode:Charlie Clouser
Creator:Arf
Version:Insane
Source:Saw
Tags:rfandomization violin original soundtrack movie film jigsaw ost billy puppet spiral cinema
BeatmapID:890903
BeatmapSetID:403759

[Difficulty]
HPDrainRate:6
CircleSize:4
OverallDifficulty:7
ApproachRate:8
SliderMultiplier:1.65
SliderTickRate:1

[Events]
//Background and Video events
0,0,"vjub6pl-saw-movie-wallpaper.jpg",0,0
//Break Periods
2,98366,109667
2,152619,155169
//Storyboard Layer 0 (Background)
//Storyboard Layer 1 (Fail)
//Storyboard Layer 2 (Pass)
//Storyboard Layer 3 (Foreground)
//Storyboard Sound Samples

[TimingPoints]
162,437.521876093805,4,2,0,60,1,0
21163,-100,4,2,0,40,0,0
26413,-200,4,3,0,40,0,0
26850,-100,4,2,0,40,0,0
27288,-100,4,3,0,40,0,0
27507,-100,4,2,0,40,0,0
33413,-200,4,3,0,40,0,0
33851,-100,4,2,0,40,0,0
34288,-100,4,3,0,40,0,0
34507,-100,4,2,0,40,0,0
40414,-200,4,3,0,40,0,0
40851,-100,4,2,0,40,0,0
41289,-100,4,3,0,40,0,0
41507,-100,4,2,0,40,0,0
47414,-200,4,3,0,40,0,0
47851,-100,4,2,0,40,0,0
48289,-100,4,3,0,40,0,0
48508,-100,4,2,0,40,0,0
54414,-200,4,3,0,40,0,0
54852,-100,4,2,0,40,0,0
55289,-100,4,3,0,40,0,0
55508,-100,4,2,0,40,0,0
61415,-200,4,3,0,40,0,0
61852,-100,4,2,0,40,0,0
62290,-100,4,3,0,40,0,0
62508,-100,4,2,0,40,0,0
63165,-100,4,2,0,60,0,0
77165,-200,4,2,0,60,0,0
80666,-100,4,2,0,60,0,0
81978,-200,4,2,0,60,0,0
84166,-100,4,2,0,60,0,0
98166,-100,4,2,0,35,0,0
110417,-200,4,2,0,20,0,0
134918,-100,4,2,0,60,0,1
150232,-100,4,2,0,60,0,0
152419,-100,4,2,0,15,0,0
155919,-100,4,2,0,40,0,0
166420,-100,4,2,0,55,0,0
166857,-100,4,2,0,65,0,0
167295,-100,4,2,0,75,0,0
167732,-100,4,2,0,85,0,0
168170,-100,4,2,0,55,0,0
169920,-100,4,2,0,60,0,1
173420,-100,4,2,0,60,0,0
174733,-100,4,2,0,55,0,0
176045,-100,4,2,0,50,0,0
176920,-100,4,2,0,40,0,0
177795,-100,4,2,0,30,0,0
178670,-100,4,2,0,20,0,0
179545,-100,4,2,0,10,0,0
180421,-100,4,2,0,5,0,0

[Colours]
Combo1 : 98,98,98
Combo2 : 255,0,0
Combo3 : 192,192,192
Combo4 : 128,0,0
Combo5 : 198,99,0

[HitObjects]
100,112,21163,6,0,B|140:132|180:132|180:132|216:164|208:208,1,165,2|0,0:0|0:0,0:0:0:0:
132,268,21819,1,0,0:0:0:0:
208,204,22038,2,0,P|248:196|296:208,1,82.5,2|0,0:0|0:0,0:0:0:0:
329,296,22475,2,0,P|289:304|241:292,1,82.5,0|0,0:0|0:0,0:0:0:0:
288,204,22913,22,0,B|317:160|310:135|266:110|267:70|304:36,1,165,2|0,0:0|0:0,0:0:0:0:
389,71,23569,1,2,0:0:0:0:
398,84,23678,1,2,0:0:0:0:
406,98,23788,2,0,P|423:143|422:179,1,82.5,2|0,0:0|0:0,0:0:0:0:
302,259,24225,2,0,P|302:217|318:180,1,82.5,0|0,0:0|0:0,0:0:0:0:
345,331,24663,6,0,B|301:351|277:348|248:322|209:318|163:348,1,165,2|0,0:0|0:0,0:0:0:0:
77,352,25319,1,0,0:0:0:0:
120,253,25538,2,0,P|126:207|115:165,1,82.5,2|0,0:0|0:0,0:0:0:0:
108,158,25866,1,0,0:0:0:0:
94,148,25976,1,0,0:0:0:0:
4,88,26194,1,0,0:0:0:0:
102,44,26413,6,0,P|145:44|183:31,1,82.5,4|0,0:0|0:0,0:0:0:0:
287,9,27069,5,0,0:0:0:0:
290,25,27178,1,0,0:0:0:0:
291,42,27288,2,0,P|283:86|254:117,1,82.5,8|0,0:0|0:0,0:0:0:0:
163,168,27725,1,0,0:0:0:0:
163,168,28163,22,0,B|174:210|190:226|190:226|181:269|181:269|207:291|210:328,1,165,2|0,0:0|0:0,0:0:0:0:
324,328,28819,1,0,0:0:0:0:
384,224,29038,2,0,P|392:176|380:136,1,82.5,2|0,0:0|0:0,0:0:0:0:
292,56,29475,1,0,0:0:0:0:
431,34,29694,1,0,0:0:0:0:
296,156,29913,6,0,B|256:172|204:164|204:164|160:160|144:208,1,165,2|0,0:0|0:0,0:0:0:0:
156,304,30569,1,2,0:0:0:0:
156,304,30679,1,2,0:0:0:0:
156,304,30788,2,0,P|196:296|232:260,1,82.5,2|0,0:0|0:0,0:0:0:0:
297,156,31226,1,0,0:0:0:0:
226,269,31444,1,0,0:0:0:0:
386,333,31663,22,0,P|451:286|463:206,1,165,2|0,0:0|0:0,0:0:0:0:
464,208,32319,1,0,0:0:0:0:
264,248,32538,1,2,0:0:0:0:
348,132,32757,1,0,0:0:0:0:
348,132,32866,1,0,0:0:0:0:
348,132,32976,1,0,0:0:0:0:
380,324,33194,1,0,0:0:0:0:
272,160,33413,6,0,P|268:120|292:76,1,82.5,4|0,0:0|0:0,0:0:0:0:
392,36,34069,5,0,0:0:0:0:
375,36,34179,1,0,0:0:0:0:
358,32,34288,2,0,P|312:17|285:-8,1,82.5,8|0,0:0|0:0,0:0:0:0:
190,62,34726,1,0,0:0:0:0:
190,62,35163,6,0,B|152:141|152:141|164:191|236:195,1,165,2|0,0:0|0:0,0:0:0:0:
354,178,35820,1,0,0:0:0:0:
291,298,36038,1,2,0:0:0:0:
277,170,36257,1,0,0:0:0:0:
277,170,36366,1,0,0:0:0:0:
277,170,36476,2,0,P|296:128|337:102,1,82.5
181,135,36913,22,0,B|132:131|105:147|94:190|70:200|23:186,1,165,2|0,0:0|0:0,0:0:0:0:
229,65,37570,1,2,0:0:0:0:
229,65,37679,1,2,0:0:0:0:
229,65,37788,2,0,P|257:101|265:138,1,82.5,2|0,0:0|0:0,0:0:0:0:
268,297,38226,1,0,0:0:0:0:
136,227,38445,1,0,0:0:0:0:
327,209,38663,22,0,B|405:193|405:193|451:156|426:115,1,165,2|0,0:0|0:0,0:0:0:0:
316,32,39320,1,0,0:0:0:0:
468,17,39538,1,2,0:0:0:0:
296,127,39757,1,0,0:0:0:0:
296,127,39867,1,0,0:0:0:0:
296,127,39976,1,0,0:0:0:0:
412,216,40195,1,0,0:0:0:0:
280,294,40414,54,0,P|259:274|241:215,1,82.5,4|0,0:0|0:0,0:0:0:0:
222,103,41070,5,0,0:0:0:0:
131,201,41289,1,8,0:0:0:0:
71,115,41507,1,0,0:0:0:0:
189,277,41726,1,0,0:0:0:0:
189,277,42164,6,0,B|232:288|304:272|304:272|344:308,1,165,2|0,0:0|0:0,0:0:0:0:
424,360,42820,1,0,0:0:0:0:
428,212,43039,2,0,P|420:164|428:120,1,82.5,2|0,0:0|0:0,0:0:0:0:
428,116,43367,1,0,0:0:0:0:
436,100,43476,1,0,0:0:0:0:
488,4,43695,1,0,0:0:0:0:
350,39,43914,22,0,B|304:32|272:56|272:56|236:32|192:40,1,165,2|0,0:0|0:0,0:0:0:0:
59,94,44570,2,0,L|18:60,1,41.25,2|2,0:0|0:0,0:0:0:0:
96,120,44789,2,0,P|132:156|148:204,1,82.5,2|0,0:0|0:0,0:0:0:0:
248,296,45226,2,0,P|288:308|332:304,1,82.5,0|0,0:0|0:0,0:0:0:0:
208,232,45664,22,0,P|174:284|223:367,1,165,2|0,0:0|0:0,0:0:0:0:
328,304,46320,1,0,0:0:0:0:
308,188,46539,2,0,L|296:136,1,41.25,2|0,0:0|0:0,0:0:0:0:
215,141,46758,2,0,L|227:193,1,41.25,0|0,0:0|0:0,0:0:0:0:
264,80,46976,2,0,L|252:28,1,41.25,0|0,0:0|0:0,0:0:0:0:
171,33,47195,2,0,L|183:85,1,41.25,0|0,0:0|0:0,0:0:0:0:
299,148,47414,54,0,P|331:118|336:64,1,82.5,4|0,0:0|0:0,0:0:0:0:
455,168,48070,5,0,0:0:0:0:
455,168,48180,1,0,0:0:0:0:
455,168,48289,2,0,P|419:192|403:236,1,82.5,8|0,0:0|0:0,0:0:0:0:
370,315,48726,1,0,0:0:0:0:
370,315,49164,6,0,B|306:289|309:215|309:215|275:192,1,165,2|0,0:0|0:0,0:0:0:0:
162,150,49820,1,0,0:0:0:0:
188,264,50039,2,0,P|204:304|196:360,1,82.5,2|0,0:0|0:0,0:0:0:0:
202,342,50367,1,0,0:0:0:0:
202,342,50477,1,0,0:0:0:0:
64,328,50695,1,0,0:0:0:0:
188,264,50914,22,0,B|240:248|284:260|284:260|332:208,1,165,2|0,0:0|0:0,0:0:0:0:
348,77,51570,1,2,0:0:0:0:
331,78,51680,1,2,0:0:0:0:
315,81,51789,2,0,P|269:95|241:119,1,82.5,2|0,0:0|0:0,0:0:0:0:
330,210,52227,2,0,P|370:199|403:174,1,82.5
435,36,52664,22,0,B|434:98|434:98|489:125|484:190,1,165,2|0,0:0|0:0,0:0:0:0:
429,285,53320,1,0,0:0:0:0:
323,304,53539,2,0,L|234:316,1,82.5,2|0,0:0|0:0,0:0:0:0:
143,221,53977,1,0,0:0:0:0:
104,346,54195,1,0,0:0:0:0:
220,235,54414,22,0,P|216:199|188:158,1,82.5,4|0,0:0|0:0,0:0:0:0:
93,53,55070,6,0,L|66:20,1,41.25
123,77,55289,2,0,P|161:55|204:56,1,82.5,8|0,0:0|0:0,0:0:0:0:
327,74,55727,1,0,0:0:0:0:
327,74,56164,22,0,B|273:109|273:109|244:168|188:169,1,165,2|0,0:0|0:0,0:0:0:0:
55,172,56821,1,0,0:0:0:0:
123,292,57039,2,0,P|160:308|210:305,1,82.5,2|0,0:0|0:0,0:0:0:0:
323,217,57477,1,0,0:0:0:0:
197,168,57696,1,0,0:0:0:0:
282,289,57914,6,0,P|361:289|404:206,1,165,2|0,0:0|0:0,0:0:0:0:
344,78,58571,1,0,0:0:0:0:
414,237,58789,1,2,0:0:0:0:
336,62,59008,1,0,0:0:0:0:
404,222,59227,2,0,P|360:229|317:207,1,82.5,0|0,0:0|0:0,0:0:0:0:
228,73,59664,22,0,B|240:114|241:142|191:170|185:205|215:254,1,165,2|0,0:0|0:0,0:0:0:0:
244,328,60321,1,0,0:0:0:0:
203,229,60540,2,0,P|159:237|119:265,1,82.5,2|0,0:0|0:0,0:0:0:0:
120,272,60868,1,0,0:0:0:0:
116,288,60977,1,0,0:0:0:0:
188,368,61196,1,0,0:0:0:0:
203,229,61415,6,0,B|216:184|187:149,1,82.5,4|0,0:0|0:0,0:0:0:0:
136,56,62071,5,0,0:0:0:0:
136,56,62180,1,0,0:0:0:0:
136,56,62290,1,8,0:0:0:0:
96,156,62508,1,0,0:0:0:0:
240,84,62727,1,0,0:0:0:0:
240,84,63165,5,2,0:0:0:0:
193,223,63383,1,0,0:0:0:0:
240,84,63602,2,0,P|244:172|184:228,1,165,0|0,0:0|0:0,0:0:0:0:
416,288,64477,1,0,0:0:0:0:
280,328,64696,1,0,0:0:0:0:
320,220,64915,22,0,P|340:184|340:132,1,82.5,2|0,0:0|0:0,0:0:0:0:
272,60,65352,1,0,0:0:0:0:
216,152,65571,1,0,0:0:0:0:
308,52,65790,1,0,0:0:0:0:
181,159,66009,1,0,0:0:0:0:
344,45,66227,2,0,P|388:37|428:45,1,82.5
411,171,66665,21,2,0:0:0:0:
216,152,66884,1,0,0:0:0:0:
338,300,67102,2,0,P|401:250|411:171,1,165,0|0,0:0|0:0,0:0:0:0:
410,170,67977,1,0,0:0:0:0:
256,56,68196,1,0,0:0:0:0:
309,221,68415,6,0,L|337:301,1,82.5,2|0,0:0|0:0,0:0:0:0:
280,140,68852,1,0,0:0:0:0:
176,220,69071,1,0,0:0:0:0:
292,100,69290,1,0,0:0:0:0:
164,252,69509,1,0,0:0:0:0:
300,64,69727,2,0,P|332:32|368:24,1,82.5,0|0,0:0|0:0,0:0:0:0:
440,139,70165,21,2,0:0:0:0:
303,220,70384,1,0,0:0:0:0:
300,64,70603,2,0,P|324:156|296:232,1,165,0|0,0:0|0:0,0:0:0:0:
303,220,71478,1,0,0:0:0:0:
376,328,71696,1,0,0:0:0:0:
196,296,71915,22,0,B|156:284|156:284|124:248,1,82.5,2|0,0:0|0:0,0:0:0:0:
185,78,72353,1,0,0:0:0:0:
52,165,72571,1,0,0:0:0:0:
232,88,72790,1,0,0:0:0:0:
8,152,73009,1,0,0:0:0:0:
280,100,73228,2,0,P|324:128|344:160,1,82.5,0|0,0:0|0:0,0:0:0:0:
292,232,73665,5,2,0:0:0:0:
448,172,73884,1,0,0:0:0:0:
292,232,74103,2,0,L|120:296,1,165,0|0,0:0|0:0,0:0:0:0:
137,289,74978,1,0,0:0:0:0:
220,144,75197,1,0,0:0:0:0:
320,288,75415,22,0,P|360:304|408:304,1,82.5,2|0,0:0|0:0,0:0:0:0:
325,142,75853,1,0,0:0:0:0:
417,280,76072,1,0,0:0:0:0:
276,129,76290,1,0,0:0:0:0:
465,289,76509,1,0,0:0:0:0:
224,117,76728,2,0,P|180:109|128:121,1,82.5,0|0,0:0|0:0,0:0:0:0:
52,196,77165,5,2,0:0:0:0:
144,32,77384,1,0,0:0:0:0:
252,186,77603,2,0,P|283:218|328:236,1,82.5
317,233,78478,37,0,0:0:0:0:
167,285,78697,1,0,0:0:0:0:
197,131,78915,2,0,P|228:113|278:113,1,82.5,2|0,0:0|0:0,0:0:0:0:
274,111,79790,5,0,0:0:0:0:
233,281,80009,1,0,0:0:0:0:
411,217,80228,1,0,0:0:0:0:
164,65,80666,37,2,0:0:0:0:
289,200,80884,1,0,0:0:0:0:
164,65,81103,2,0,P|94:100|50:193,1,165
287,296,81978,5,0,0:0:0:0:
238,122,82197,1,0,0:0:0:0:
287,296,82416,2,0,P|317:337|355:352,1,82.5,2|0,0:0|0:0,0:0:0:0:
345,350,83291,5,0,0:0:0:0:
481,211,83509,1,0,0:0:0:0:
299,165,83728,1,0,0:0:0:0:
481,211,84166,21,2,0:0:0:0:
447,367,84384,1,0,0:0:0:0:
328,260,84603,2,0,P|297:187|319:98,1,165
328,260,85478,1,0,0:0:0:0:
164,336,85697,1,0,0:0:0:0:
200,172,85916,6,0,L|224:64,1,82.5,2|0,0:0|0:0,0:0:0:0:
180,256,86353,1,0,0:0:0:0:
312,172,86572,1,0,0:0:0:0:
58,127,86791,1,0,0:0:0:0:
236,15,87010,1,0,0:0:0:0:
128,200,87228,2,0,P|106:239|112:292,1,82.5,2|0,0:0|0:0,0:0:0:0:
349,289,87666,21,2,0:0:0:0:
181,344,87885,1,0,0:0:0:0:
234,185,88103,2,0,P|190:113|115:91,1,165,0|0,0:0|0:0,0:0:0:0:
454,118,88978,1,0,0:0:0:0:
405,283,89197,1,0,0:0:0:0:
386,69,89416,22,0,P|418:41|466:36,1,82.5,2|0,0:0|0:0,0:0:0:0:
347,138,89853,1,0,0:0:0:0:
178,110,90072,1,0,0:0:0:0:
378,168,90291,1,0,0:0:0:0:
148,79,90510,1,0,0:0:0:0:
401,197,90729,2,0,P|417:232|415:280,1,82.5,2|0,0:0|0:0,0:0:0:0:
320,340,91166,37,2,0:0:0:0:
179,239,91385,1,0,0:0:0:0:
340,163,91604,1,0,0:0:0:0:
175,365,92041,1,0,0:0:0:0:
268,73,92479,1,0,0:0:0:0:
417,180,92697,1,0,0:0:0:0:
189,53,92916,22,0,P|192:100|215:134,1,82.5,2|0,0:0|0:0,0:0:0:0:
333,284,93354,1,0,0:0:0:0:
315,98,93572,1,0,0:0:0:0:
162,216,93791,1,0,0:0:0:0:
377,195,94010,1,0,0:0:0:0:
85,223,94229,2,0,L|-2:232,1,82.5,2|0,0:0|0:0,0:0:0:0:
272,203,94666,21,4,0:0:0:0:
256,192,94776,12,0,98166,0:0:0:0:
152,78,110417,22,0,B|158:104|177:117|177:117|196:149,1,82.5,2|0,0:0|0:0,0:0:0:0:
317,147,111292,2,0,B|335:117|335:117|354:104|360:78,1,82.5,0|0,0:0|0:0,0:0:0:0:
255,27,112167,2,0,L|255:114,1,82.5,2|0,0:0|0:0,0:0:0:0:
197,257,113042,1,0,0:0:0:0:
315,257,113480,1,0,0:0:0:0:
123,242,113917,38,0,B|133:196|182:183|182:183|188:132|188:132|256:138|255:69,1,247.5,2|0,0:0|0:0,0:0:0:0:
256,69,115667,2,0,B|256:138|324:132|324:132|330:183|330:183|379:196|389:242,1,247.5,2|0,0:0|0:0,0:0:0:0:
255,273,117417,22,0,B|244:240|280:216|246:180,1,82.5,2|0,0:0|0:0,0:0:0:0:
216,72,118292,2,0,P|256:62|300:75,1,82.5
296,203,119167,2,0,P|256:213|212:200,1,82.5,2|0,0:0|0:0,0:0:0:0:
256,104,120042,1,0,0:0:0:0:
256,301,120480,1,0,0:0:0:0:
183,293,120918,38,0,B|221:329|256:300|256:300|290:329|330:293,1,165,2|0,0:0|0:0,0:0:0:0:
412,224,122230,2,0,B|339:188|269:88|323:46|356:62|372:130,1,247.5,0|0,0:0|0:0,0:0:0:0:
256,199,123980,1,0,0:0:0:0:
145,112,124418,22,0,B|156:62|189:46|243:88|173:188|104:221,1,247.5,2|0,0:0|0:0,0:0:0:0:
201,254,126168,2,0,B|227:273|205:311|205:311|256:369|307:311|307:311|283:273|319:246,1,247.5,2|0,0:0|0:0,0:0:0:0:
256,160,127918,37,2,0:0:0:0:
322,55,128355,2,0,P|361:74|386:119,1,82.5,2|0,0:0|0:0,0:0:0:0:
129,105,129230,2,0,P|153:72|190:55,1,82.5,2|0,0:0|0:0,0:0:0:0:
296,288,130105,2,0,P|256:298|206:280,1,82.5,2|0,0:0|0:0,0:0:0:0:
121,199,130981,1,2,0:0:0:0:
254,69,131418,22,0,B|291:111|292:166|224:208|224:264|265:306,1,247.5,2|0,0:0|0:0,0:0:0:0:
256,192,133168,12,0,134481,0:0:0:0:
360,92,134918,5,2,0:0:0:0:
216,176,135137,1,0,0:0:0:0:
360,260,135356,1,0,0:0:0:0:
216,176,135575,2,0,P|228:132|260:100,1,82.5,4|0,0:0|0:0,0:0:0:0:
252,105,136231,1,0,0:0:0:0:
388,192,136450,1,0,0:0:0:0:
246,267,136668,6,0,P|206:271|162:251,1,82.5,2|0,0:0|0:0,0:0:0:0:
104,96,137106,1,0,0:0:0:0:
168,256,137325,1,0,0:0:0:0:
204,76,137543,1,0,0:0:0:0:
88,232,137762,1,0,0:0:0:0:
84,244,137872,1,0,0:0:0:0:
80,256,137981,2,0,P|54:288|10:311,1,82.5,4|0,0:0|0:0,0:0:0:0:
168,328,138418,21,6,0:0:0:0:
16,168,138637,1,0,0:0:0:0:
224,104,138856,1,0,0:0:0:0:
226,272,139075,2,0,P|194:312|158:332,1,82.5,4|0,0:0|0:0,0:0:0:0:
168,328,139731,1,0,0:0:0:0:
372,272,139950,1,0,0:0:0:0:
224,104,140169,22,0,L|182:84,3,41.25,2|0|0|0,0:0|0:0|0:0|0:0,0:0:0:0:
264,116,140606,2,0,L|270:170,1,41.25,0|0,0:0|0:0,0:0:0:0:
353,190,140825,2,0,L|347:136,1,41.25,4|0,0:0|0:0,0:0:0:0:
341,72,141044,1,0,0:0:0:0:
220,230,141262,1,0,0:0:0:0:
426,286,141481,2,0,P|456:256|460:200,1,82.5,4|0,0:0|0:0,0:0:0:0:
434,40,141919,5,6,0:0:0:0:
236,108,142137,1,0,0:0:0:0:
383,219,142356,2,0,P|423:226|463:217,1,82.5,4|0,0:0|0:0,0:0:0:0:
236,108,142794,2,0,P|195:100|155:109,1,82.5,0|0,0:0|0:0,0:0:0:0:
56,240,143231,1,0,0:0:0:0:
155,109,143450,1,0,0:0:0:0:
224,280,143669,22,0,L|260:372,1,82.5,6|0,0:0|0:0,0:0:0:0:
412,312,144106,1,4,0:0:0:0:
224,280,144325,1,0,0:0:0:0:
454,232,144544,1,0,0:0:0:0:
184,172,144762,1,0,0:0:0:0:
495,161,144981,2,0,L|458:235,1,82.5,4|0,0:0|0:0,0:0:0:0:
299,235,145419,21,6,0:0:0:0:
495,161,145638,1,0,0:0:0:0:
299,235,145856,2,0,P|335:255|395:251,1,82.5,4|0,0:0|0:0,0:0:0:0:
180,152,146294,2,0,P|160:188|164:248,1,82.5,0|0,0:0|0:0,0:0:0:0:
228,348,146731,1,0,0:0:0:0:
68,236,146950,1,0,0:0:0:0:
288,164,147169,6,0,L|392:124,1,82.5,6|0,0:0|0:0,0:0:0:0:
504,88,147606,1,4,0:0:0:0:
308,40,147825,1,0,0:0:0:0:
420,228,148044,1,0,0:0:0:0:
416,24,148263,1,0,0:0:0:0:
224,152,148481,2,0,P|184:168|144:164,1,82.5,4|0,0:0|0:0,0:0:0:0:
44,64,148919,21,6,0:0:0:0:
215,284,149138,1,0,0:0:0:0:
308,40,149356,1,4,0:0:0:0:
51,232,149575,1,0,0:0:0:0:
296,184,149794,1,4,0:0:0:0:
204,79,150013,1,0,0:0:0:0:
145,204,150232,21,4,0:0:0:0:
256,192,150341,12,0,152419,0:0:0:0:
248,100,155919,5,2,0:0:0:0:
364,184,156138,1,0,0:0:0:0:
234,249,156357,2,0,P|213:163|250:97,1,165,0|0,0:0|0:0,0:0:0:0:
247,99,157232,1,0,0:0:0:0:
96,163,157451,1,0,0:0:0:0:
234,249,157669,22,0,P|279:262|328:253,1,82.5,2|0,0:0|0:0,0:0:0:0:
437,209,158107,1,0,0:0:0:0:
313,161,158326,1,0,0:0:0:0:
450,231,158544,1,0,0:0:0:0:
301,139,158763,1,0,0:0:0:0:
467,256,158982,2,0,P|486:293|491:339,1,82.5,0|0,0:0|0:0,0:0:0:0:
358,237,159419,21,2,0:0:0:0:
470,116,159638,1,0,0:0:0:0:
358,237,159857,2,0,L|474:112,1,165,0|0,0:0|0:0,0:0:0:0:
470,116,160732,1,0,0:0:0:0:
302,68,160951,1,0,0:0:0:0:
358,237,161170,6,0,L|385:317,1,82.5,2|0,0:0|0:0,0:0:0:0:
398,166,161607,1,0,0:0:0:0:
264,224,161826,1,0,0:0:0:0:
417,139,162045,1,0,0:0:0:0:
249,253,162263,1,0,0:0:0:0:
433,112,162482,2,0,P|452:66|452:24,1,82.5,0|0,0:0|0:0,0:0:0:0:
302,49,162920,21,2,0:0:0:0:
109,113,163138,1,0,0:0:0:0:
379,42,163357,2,0,P|347:114|268:122,1,165,0|0,0:0|0:0,0:0:0:0:
268,122,164232,1,0,0:0:0:0:
341,279,164451,1,0,0:0:0:0:
145,249,164670,22,0,L|47:233,1,82.5,2|0,0:0|0:0,0:0:0:0:
163,131,165107,1,0,0:0:0:0:
261,218,165326,1,0,0:0:0:0:
171,334,165545,1,0,0:0:0:0:
323,329,165764,1,0,0:0:0:0:
182,204,165982,2,0,P|206:159|247:138,1,82.5,0|0,0:0|0:0,0:0:0:0:
377,137,166420,5,2,0:0:0:0:
269,71,166639,1,0,0:0:0:0:
341,204,166857,1,0,0:0:0:0:
209,114,167076,1,0,0:0:0:0:
307,271,167295,1,0,0:0:0:0:
152,161,167514,1,0,0:0:0:0:
152,257,167732,21,0,0:0:0:0:
209,114,167951,1,0,0:0:0:0:
224,276,168170,1,2,0:0:0:0:
281,108,168389,1,0,0:0:0:0:
296,297,168607,1,0,0:0:0:0:
354,102,168826,1,0,0:0:0:0:
368,315,169045,1,0,0:0:0:0:
430,96,169264,1,0,0:0:0:0:
440,336,169482,1,0,0:0:0:0:
440,336,169592,1,0,0:0:0:0:
440,336,169701,1,0,0:0:0:0:
273,243,169920,21,6,0:0:0:0:
459,158,170139,1,0,0:0:0:0:
277,94,170358,2,0,P|230:81|185:84,1,82.5,0|4,0:0|0:0,0:0:0:0:
90,326,170795,2,0,P|131:325|170:313,1,82.5,0|0,0:0|0:0,0:0:0:0:
321,277,171233,1,0,0:0:0:0:
183,175,171451,1,0,0:0:0:0:
321,90,171670,6,0,P|365:86|410:96,1,82.5,6|0,0:0|0:0,0:0:0:0:
321,277,172108,1,0,0:0:0:0:
321,90,172326,1,0,0:0:0:0:
210,240,172545,1,0,0:0:0:0:
388,182,172764,1,0,0:0:0:0:
210,125,172983,2,0,L|126:96,1,82.5,4|0,0:0|0:0,0:0:0:0:
471,209,173420,21,6,0:0:0:0:
256,192,173530,12,0,180421,0:0:0:0:
