osu file format v14

[General]
AudioFilename: audio.mp3
AudioLeadIn: 0
PreviewTime: 14282
Countdown: 0
SampleSet: Soft
StackLeniency: 1
Mode: 0
LetterboxInBreaks: 0
WidescreenStoryboard: 1

[Editor]
DistanceSpacing: 1
BeatDivisor: 4
GridSize: 8
TimelineZoom: 1.9

[Metadata]
Title:claws
TitleUnicode:claws
Artist:Charli XCX
ArtistUnicode:Charli XCX
Creator:anfeargorm
Version:Skid's Advanced
Source:
Tags:Aphestra Skidooskei Skid HMF HatsuneMikuFEET Hatsune Miku FEET Nina Kosaka Nina_Kosaka ABSOLUTE EPIC 4 ABSOLUTE_EPIC_4 hyperpop electropop glitch pop english how i'm feeling now im i am
BeatmapID:3128069
BeatmapSetID:1458874

[Difficulty]
HPDrainRate:3.5
CircleSize:4
OverallDifficulty:4.5
ApproachRate:5.5
SliderMultiplier:1.3
SliderTickRate:1

[Events]
//Background and Video events
0,0,"hello UwU.jpg",0,0
//Break Periods
2,43037,48823
2,85704,91490
2,114148,119934
//Storyboard Layer 0 (Background)
//Storyboard Layer 1 (Fail)
//Storyboard Layer 2 (Pass)
//Storyboard Layer 3 (Foreground)
//Storyboard Layer 4 (Overlay)
//Storyboard Sound Samples

[TimingPoints]
171,444.444444444444,4,2,69,40,1,0
13504,-83.3333333333333,4,2,69,40,0,0
14393,-90.9090909090909,4,2,69,60,0,0
28615,-90.9090909090909,4,2,71,70,0,0
29059,-83.3333333333333,4,2,69,80,0,0
42837,-83.3333333333333,4,2,70,40,0,0
45504,-83.3333333333333,4,2,70,50,0,0
49948,-111.111111111111,4,2,70,50,0,0
56170,-83.3333333333333,4,2,70,50,0,0
57059,-90.9090909090909,4,2,70,60,0,0
57282,-90.9090909090909,4,2,69,60,0,0
59726,-90.9090909090909,4,2,71,60,0,0
59948,-90.9090909090909,4,2,69,60,0,0
71282,-90.9090909090909,4,2,71,70,0,0
71726,-76.9230769230769,4,2,69,80,0,0
85059,-76.9230769230769,4,2,71,70,0,0
85282,-76.9230769230769,4,2,70,80,0,0
85504,-76.9230769230769,4,2,70,40,0,0
88170,-76.9230769230769,4,2,70,50,0,0
92615,-111.111111111111,4,2,70,50,0,0
98837,-76.9230769230769,4,2,70,50,0,0
99726,-76.9230769230769,4,2,70,90,0,0
100282,-76.9230769230769,4,2,69,90,0,0
106837,-100,4,2,69,90,0,0
107282,-100,4,2,69,70,0,0
110393,-90.9090909090909,4,2,69,90,0,0
121059,-90.9090909090909,4,2,69,50,0,0
124615,-90.9090909090909,4,2,69,60,0,0
128170,-133.333333333333,4,2,69,70,0,0
129059,-133.333333333333,4,2,70,70,0,0
142393,-133.333333333333,4,2,70,50,0,0
143948,-133.333333333333,4,2,70,90,0,0
145504,-133.333333333333,4,2,69,90,0,0
146615,-133.333333333333,4,2,69,80,0,0
147282,-133.333333333333,4,2,69,70,0,0
147726,-133.333333333333,4,2,69,60,0,0

[Colours]
Combo1 : 170,255,255
Combo2 : 0,183,183
Combo3 : 0,234,234

[HitObjects]
322,319,2393,6,0,B|356:329|378:302|378:302|382:305|382:305|399:282|440:290,2,130,2|2|2,2:1|2:1|2:1,2:0:0:0:
211,242,3726,1,2,3:2:0:0:
211,242,4170,2,0,B|214:283|214:283|169:288|169:288|165:242,1,130,2|0,2:1|0:0,2:0:0:0:
152,117,5059,2,0,P|119:122|76:109,2,65,0|0|2,0:0|0:0|3:2,0:0:0:0:
267,56,5948,6,0,B|300:59|300:59|304:62|304:62|342:65,1,65,2|0,2:1|2:0,2:0:0:0:
389,34,6393,2,0,B|369:106|369:106|429:123|429:123|415:184,1,195,2|2,3:1|3:2,0:0:0:0:
400,244,7282,6,0,P|371:199|299:229,1,130,2|2,3:1|2:1,2:0:0:0:
306,217,8615,1,2,2:1:0:0:
306,217,9059,1,2,3:2:0:0:
358,336,9504,2,0,B|344:330|344:330|335:334|335:334|322:328|322:328|313:332|313:332|300:326|300:326|291:330|291:330|278:324|278:324|270:327|270:327|257:322|257:322|246:326|246:326|235:321,1,130,2|0,2:0|0:0,2:0:0:0:
112,355,10393,2,0,P|125:317|124:282,2,65,2|2|2,2:0|2:0|2:0,0:0:0:0:
51,239,11282,2,0,P|58:201|68:103,2,130,2|2|2,2:1|2:1|2:1,2:0:0:0:
208,111,13504,6,0,B|238:84|238:84|270:106,1,77.999997619629,0|0,2:0|0:0,0:0:0:0:
326,157,13948,2,0,B|357:178|357:178|387:151,1,77.999997619629
436,98,14393,6,0,L|454:246,1,143.000004364014,12|2,1:3|2:0,2:0:0:0:
351,341,15282,2,0,P|325:302|293:296,1,71.5000021820069,8|2,1:0|2:0,2:0:0:0:
249,342,15726,2,0,P|223:269|161:271,1,143.000004364014,12|2,1:3|2:0,2:0:0:0:
118,321,16393,1,2,2:0:0:0:
118,321,16615,1,12,1:3:0:0:
42,200,17059,2,0,L|50:125,2,71.5000021820069,8|12|2,1:0|1:3|2:0,0:0:0:0:
126,84,17948,6,0,B|251:67|198:175|325:151,2,214.500006546021,12|12|12,1:3|1:3|1:3,2:0:0:0:
203,210,19726,1,2,2:0:0:0:
203,210,20170,1,12,1:3:0:0:
195,281,20392,1,2,0:0:0:0:
187,352,20615,2,0,B|234:303|291:314|281:341|281:341|266:358|255:339,1,143.000004364014,2|0,2:0|0:0,0:0:0:0:
403,337,21504,6,0,B|391:275|411:255|398:189,1,143.000004364014,12|2,1:3|2:0,2:0:0:0:
256,182,22393,2,0,L|266:100,1,71.5000021820069,8|2,1:0|2:0,0:0:0:0:
244,42,22837,2,0,P|208:37|170:51,1,71.5000021820069,12|2,1:3|2:3,2:0:0:0:
166,118,23282,2,0,B|97:110|97:110|93:111|93:111|16:103,1,143.000004364014,2|12,2:0|1:3,2:0:0:0:
55,243,24170,2,0,L|130:252,1,71.5000021820069,8|12,1:0|1:3,0:0:0:0:
176,302,24615,1,2,2:0:0:0:
245,283,24837,1,2,2:0:0:0:
302,324,25059,6,0,B|321:325|321:325|364:271|331:200,1,143.000004364014,12|2,1:3|2:0,2:0:0:0:
299,152,25726,1,12,1:3:0:0:
299,152,25948,1,8,1:0:0:0:
166,96,26393,2,0,L|92:106,2,71.5000021820069,12|2|2,1:3|2:0|2:0,2:0:0:0:
302,43,27282,5,12,1:3:0:0:
382,161,27726,2,0,L|426:102,1,71.5000021820069,2|0,2:0|0:0,2:0:0:0:
474,52,28170,1,2,2:0:0:0:
474,52,28615,1,14,1:3:0:0:
449,205,29059,6,0,P|383:172|295:185,5,155.999995239258,8|8|12|8|12|8,2:0|1:0|1:3|2:0|1:3|1:0,2:0:0:0:
324,335,31726,1,2,2:0:0:0:
184,266,32170,2,0,P|186:216|201:182,1,77.999997619629,12|0,2:3|0:0,2:0:0:0:
236,123,32615,6,0,P|168:169|108:126,5,155.999995239258,8|8|12|8|12|2,2:0|1:0|1:3|2:0|1:3|2:0,2:0:0:0:
37,256,35726,5,12,1:3:0:0:
160,351,36170,2,0,B|238:351|238:351|243:346|243:346|318:346,5,155.999995239258,8|8|12|8|12|8,2:0|1:0|1:3|2:0|1:3|1:0,2:0:0:0:
364,287,38615,1,12,1:3:0:0:
364,287,38837,1,2,2:0:0:0:
230,206,39282,2,0,P|228:165|245:126,1,77.999997619629,12|0,2:3|0:0,2:0:0:0:
302,82,39726,6,0,B|263:100|231:76|231:76|227:78|227:78|193:55|156:77,5,155.999995239258,8|8|12|8|12|2,2:0|1:0|1:3|2:0|1:3|2:0,2:0:0:0:
103,224,42393,1,2,0:0:0:0:
256,192,42837,5,10,2:0:0:0:
434,172,49948,6,0,P|339:104|218:132,1,233.999992858887,2|10,3:2|2:0,2:0:0:0:
143,203,51282,2,0,P|115:202|69:190,2,58.4999982147217,0|0|2,0:0|0:0|3:2,0:0:0:0:
335,336,52615,2,0,L|329:208,1,116.999996429443,10|2,2:0|2:0,2:0:0:0:
391,119,53504,6,0,B|325:101|347:157|274:136,1,116.999996429443,2|2,3:2|2:0,2:0:0:0:
171,97,54393,2,0,P|188:147|198:225,1,116.999996429443,10|2,2:0|2:0,2:0:0:0:
179,326,55282,1,2,3:2:0:0:
428,320,56170,6,0,B|391:304|391:304|339:315,1,77.999997619629,10|10,2:0|2:0,2:0:0:0:
280,337,56615,2,0,B|243:344|243:344|206:328,1,77.999997619629,10|10,2:0|2:0,2:0:0:0:
147,287,57059,6,0,P|158:247|158:217,2,71.5000021820069,12|2|2,1:3|2:0|2:0,2:0:0:0:
92,153,57948,1,8,1:0:0:0:
140,100,58170,1,2,2:0:0:0:
204,130,58393,1,12,1:3:0:0:
335,73,58837,2,0,P|321:110|318:148,1,71.5000021820069,2|2,2:0|2:0,0:0:0:0:
343,208,59282,1,12,1:3:0:0:
422,326,59726,2,0,B|354:305|354:305|278:339,1,143.000004364014,8|2,1:0|2:0,2:0:0:0:
164,262,60615,6,0,P|173:230|173:186,1,71.5000021820069,12|2,1:3|2:0,2:0:0:0:
116,149,61059,2,0,P|107:117|107:73,1,71.5000021820069,2|14,2:0|1:3,2:0:0:0:
163,36,61504,2,0,L|241:47,2,71.5000021820069,8|2|12,1:0|2:0|1:3,2:0:0:0:
261,139,62393,2,0,B|334:151|321:92|396:108,1,143.000004364014,2|12,2:0|1:3,0:0:0:0:
448,237,63282,6,0,B|456:254|448:272|448:272|453:273|453:273|445:290|455:311,2,71.5000021820069,2|2|2,2:0|2:0|2:0,2:0:0:0:
346,337,64170,6,0,L|273:331,1,71.5000021820069,12|2,1:3|2:0,2:0:0:0:
203,324,64615,1,2,2:0:0:0:
215,181,65059,1,8,1:0:0:0:
287,187,65281,1,2,2:0:0:0:
358,193,65503,1,12,1:3:0:0:
369,50,65948,2,0,L|296:44,2,71.5000021820069,2|2|12,2:0|2:0|1:3,2:0:0:0:
233,95,66837,6,0,P|202:86|163:93,1,71.5000021820069,8|12,1:0|1:3,2:0:0:0:
112,143,67282,2,0,P|106:178|115:213,1,71.5000021820069,2|2,2:0|2:0,2:0:0:0:
181,236,67726,2,0,B|197:225|197:225|229:269|220:346,1,143.000004364014,12|2,1:3|2:0,2:0:0:0:
156,370,68393,1,12,3:0:0:0:
156,370,68615,1,8,1:0:0:0:
52,271,69059,2,0,L|48:350,2,71.5000021820069,12|2|2,1:3|2:0|2:0,2:0:0:0:
184,216,69948,5,12,1:3:0:0:
276,340,70393,1,2,2:0:0:0:
276,340,70615,1,0,0:0:0:0:
276,340,70837,1,2,2:0:0:0:
353,219,71282,1,14,2:3:0:0:
249,85,71726,6,0,B|177:129|177:129|97:102,5,168.999992263794,8|8|12|8|12|8,2:0|1:0|1:3|2:0|1:3|1:0,2:0:0:0:
194,240,74393,1,2,2:0:0:0:
350,176,74837,2,0,P|364:218|361:257,1,84.4999961318971,12|2,2:3|2:0,2:0:0:0:
369,341,75282,6,0,B|416:336|437:293|437:293|465:332|521:328,5,168.999992263794,8|8|12|8|12|10,2:0|1:0|1:3|2:0|1:3|2:1,2:0:0:0:
171,285,78393,5,14,2:3:0:0:
310,189,78837,2,0,B|307:236|321:274|321:274|306:310|306:310|312:359,5,168.999992263794,8|8|12|8|12|8,2:0|1:0|1:3|2:0|1:3|1:0,2:0:0:0:
394,328,81282,1,12,1:3:0:0:
394,328,81504,1,2,2:0:0:0:
450,168,81948,2,0,P|448:121|429:89,1,84.4999961318971,12|2,2:3|2:0,2:0:0:0:
344,82,82393,6,0,B|329:74|311:77|311:77|296:127|296:127|294:122|294:122|283:165|283:165|263:168|245:157,5,168.999992263794,8|8|12|8|12|2,2:0|1:0|1:3|2:0|1:3|2:0,2:0:0:0:
112,62,85059,1,10,2:0:0:0:
87,229,85504,5,10,2:0:0:0:
53,169,92615,6,0,P|133:147|239:130,1,175.499994644165,2|2,3:2|2:0,0:0:0:0:
261,86,93504,2,0,P|295:90|331:96,1,58.4999982147217,10|2,1:2|2:0,2:0:0:0:
360,134,93948,2,0,P|406:119|480:113,1,116.999996429443,2|2,2:0|3:2,2:0:0:0:
418,340,95282,2,0,L|422:274,2,58.4999982147217,10|2|2,2:0|2:0|2:0,0:0:0:0:
311,292,96170,6,0,P|257:316|187:303,1,116.999996429443,2|2,3:2|2:0,2:0:0:0:
89,344,97059,2,0,P|65:290|78:220,1,116.999996429443,10|2,2:0|2:0,2:0:0:0:
37,122,97948,2,0,P|91:98|161:111,1,116.999996429443,2|2,3:2|2:0,2:0:0:0:
306,47,98837,6,0,B|306:91|306:91|309:95|309:95|309:133,1,84.4999961318971,10|2,2:1|2:0,2:0:0:0:
237,175,99282,2,0,B|237:219|237:219|234:223|234:223|234:261,1,84.4999961318971,10|2,2:1|2:0,2:0:0:0:
294,325,99726,1,12,1:3:0:0:
294,325,100170,6,0,B|331:323|331:306|331:306|329:289|360:288|360:288|390:286|391:305|391:305|392:319|443:317,6,168.999992263794,2|10|2|2|10|10|10,1:0|1:0|1:0|1:0|1:0|2:0|2:0,2:0:0:0:
212,176,103282,6,0,L|206:264,1,84.4999961318971,12|2,1:3|2:0,2:0:0:0:
126,286,103726,2,0,B|78:298|47:263|47:263|58:218|109:206,4,168.999992263794,2|10|2|2|10,1:0|1:0|1:0|1:0|1:0,2:0:0:0:
232,154,105948,2,0,L|242:325,1,168.999992263794,2|2,2:1|2:1,2:0:0:0:
358,264,106837,6,0,P|331:198|483:167,1,260,12|0,2:3|2:0,2:0:0:0:
462,278,108170,2,0,B|321:245|391:372|207:323,1,260,12|0,2:3|2:0,2:0:0:0:
24,210,110393,6,0,P|48:140|154:199,1,214.500006546021,12|12,2:3|1:3,2:0:0:0:
148,253,111282,1,8,1:0:0:0:
268,175,111726,2,0,P|292:245|365:233,1,143.000004364014,12|2,2:3|2:0,2:0:0:0:
351,244,112615,2,0,B|376:270|376:270|401:245|401:245|426:270|426:270|451:246,1,143.000004364014,2|10,2:1|1:0,0:0:0:0:
401,111,113504,2,0,L|401:257,1,143.000004364014,0|0,0:0|1:0,0:0:0:0:
256,192,121059,12,0,127282,0:0:0:0:
461,99,128170,6,0,P|366:78|251:86,1,195.00000743866,14|2,1:3|2:0,2:0:0:0:
255,277,129948,2,0,P|350:298|465:290,1,195.00000743866,14|0,1:3|2:0,2:0:0:0:
287,182,131726,6,0,L|92:196,1,195.00000743866,14|2,1:3|2:0,2:0:0:0:
97,284,133504,2,0,B|189:277|189:277|196:279|196:279|301:271,1,195.00000743866,14|0,1:3|0:0,2:0:0:0:
420,125,135282,6,0,P|333:137|394:276,1,292.50001115799,14|2,1:3|2:0,2:0:0:0:
488,259,137059,2,0,P|401:222|326:375,1,292.50001115799,14|0,1:3|0:0,2:0:0:0:
418,357,138837,2,0,P|346:320|131:305,1,292.50001115799,14|2,1:3|2:0,2:0:0:0:
44,332,140615,6,0,B|119:334|154:256|105:200|105:200|101:202|101:202|102:170|83:146|83:146|146:160|173:127|173:127|164:111|146:119|152:138,1,390.00001487732,14|14,1:3|1:3,2:0:0:0:
256,192,142837,12,0,148282,2:1:0:0:
