osu file format v14

[General]
AudioFilename: audio.mp3
AudioLeadIn: 0
PreviewTime: 14282
Countdown: 0
SampleSet: Soft
StackLeniency: 0.5
Mode: 0
LetterboxInBreaks: 0
WidescreenStoryboard: 1

[Editor]
Bookmarks: 57059,59726,95282,99726,103726,110393,113948,128170
DistanceSpacing: 1.2
BeatDivisor: 8
GridSize: 4
TimelineZoom: 2.899999

[Metadata]
Title:claws
TitleUnicode:claws
Artist:Charli XCX
ArtistUnicode:Charli XCX
Creator:anfeargorm
Version:Normal
Source:
Tags:Aphestra Skidooskei Skid HMF HatsuneMikuFEET Hatsune Miku FEET Nina Kosaka Nina_Kosaka ABSOLUTE EPIC 4 ABSOLUTE_EPIC_4 hyperpop electropop glitch pop english how i'm feeling now im i am
BeatmapID:3414978
BeatmapSetID:1458874

[Difficulty]
HPDrainRate:2.5
CircleSize:2.5
OverallDifficulty:3
ApproachRate:4
SliderMultiplier:0.899999999999999
SliderTickRate:1

[Events]
//Background and Video events
0,0,"hello UwU.jpg",0,0
//Break Periods
2,43037,48628
2,85703,91295
2,107037,109073
2,114148,119739
//Storyboard Layer 0 (Background)
//Storyboard Layer 1 (Fail)
//Storyboard Layer 2 (Pass)
//Storyboard Layer 3 (Foreground)
//Storyboard Layer 4 (Overlay)
//Storyboard Sound Samples

[TimingPoints]
171,444.444444444444,4,2,69,40,1,0
14393,-100,4,2,69,60,0,0
28615,-86.9565217391304,4,2,71,70,0,0
29059,-86.9565217391304,4,2,69,80,0,0
42837,-86.9565217391304,4,2,70,40,0,0
45504,-86.9565217391304,4,2,70,50,0,0
57059,-100,4,2,70,60,0,0
57282,-100,4,2,69,60,0,0
59726,-100,4,2,71,60,0,0
59948,-100,4,2,69,60,0,0
71282,-86.9565217391304,4,2,71,70,0,0
71726,-86.9565217391304,4,2,69,80,0,0
85059,-86.9565217391304,4,2,71,70,0,0
85282,-86.9565217391304,4,2,70,80,0,0
85504,-86.9565217391304,4,2,70,40,0,0
88171,-86.9565217391304,4,2,70,50,0,0
99726,-86.9565217391304,4,2,70,90,0,0
100170,-80,4,2,70,90,0,0
100282,-80,4,2,69,90,0,0
107282,-80,4,2,69,70,0,0
110393,-86.9565217391304,4,2,69,90,0,0
121059,-86.9565217391304,4,2,69,50,0,0
124615,-86.9565217391304,4,2,69,60,0,0
128171,-86.9565217391304,4,2,69,70,0,0
129059,-117.647058823529,4,2,70,70,0,0
142392,-117.647058823529,4,2,70,50,0,0
143948,-117.647058823529,4,2,70,90,0,0
145504,-117.647058823529,4,2,69,90,0,0
146615,-117.647058823529,4,2,69,80,0,0
147282,-117.647058823529,4,2,69,70,0,0
147726,-117.647058823529,4,2,69,60,0,0

[Colours]
Combo1 : 170,255,255
Combo2 : 0,183,183
Combo3 : 0,234,234

[HitObjects]
64,291,14393,6,0,B|152:299|152:299|156:306|156:306|247:316,1,180,12|8,1:3|1:0,0:0:0:0:
303,377,15726,1,12,1:3:0:0:
370,318,16170,2,0,B|351:295|351:295|362:227,1,89.9999999999999,2|12,2:0|1:3,0:0:0:0:
425,172,17059,2,0,L|418:108,1,45,8|12,1:0|1:3,0:0:0:0:
445,90,17504,1,2,2:0:0:0:
381,25,17948,6,0,B|297:29|297:29|291:37|291:37|233:39,1,135,12|12,1:3|1:3,0:0:0:0:
218,71,18837,2,0,L|115:60,1,89.9999999999999,8|12,1:0|1:3,0:0:0:0:
52,109,19726,1,2,2:0:0:0:
101,183,20170,1,12,1:3:0:0:
57,262,20615,1,2,2:0:0:0:
221,335,21504,6,0,B|242:314|242:314|223:150,1,180,12|8,1:3|1:0,0:0:0:0:
226,74,22837,2,0,L|291:83,1,45,12|2,1:3|2:3,0:0:0:0:
312,62,23282,2,0,L|414:48,1,89.9999999999999,2|12,2:0|1:3,0:0:0:0:
443,129,24170,2,0,L|434:179,1,45,8|12,1:0|1:3,0:0:0:0:
398,200,24615,2,0,L|407:250,1,45,2|2,2:0|2:0,0:0:0:0:
427,283,25059,6,0,B|338:270|338:270|303:317,1,135,12|12,1:3|1:3,0:0:0:0:
324,349,25948,1,8,1:0:0:0:
235,367,26393,1,12,1:3:0:0:
167,307,26837,1,2,2:0:0:0:
198,222,27282,1,12,1:3:0:0:
198,222,27726,1,2,2:0:0:0:
377,212,28615,5,14,1:3:0:0:
335,125,29059,2,0,P|302:100|228:107,1,103.500001974106,8|8,2:0|1:0,0:0:0:0:
203,135,29726,1,8,2:0:0:0:
228,180,29948,2,0,P|240:232|207:295,2,103.500001974106,12|8|12,1:3|2:0|1:3,0:0:0:0:
137,128,31282,2,0,L|76:137,1,51.7500009870529,8|12,1:0|1:3,0:0:0:0:
35,145,31726,2,0,B|58:190|58:190|33:259,1,103.500001974106,2|12,2:0|2:3,0:0:0:0:
102,322,32615,6,0,L|163:333,1,51.7500009870529,8|12,2:0|1:3,0:0:0:0:
187,293,33059,2,0,L|303:281,2,103.500001974106,8|12|8,1:0|1:3|2:0,0:0:0:0:
198,189,34393,1,12,1:3:0:0:
273,118,34837,1,2,2:0:0:0:
407,275,35726,6,0,P|440:215|417:166,1,103.500001974106,12|8,1:3|2:0,0:0:0:0:
385,161,36393,1,8,2:0:0:0:
343,130,36615,2,0,P|310:70|333:21,2,103.500001974106,8|12|8,1:0|1:3|2:0,0:0:0:0:
294,221,37948,2,0,B|243:216|243:216|235:219|235:219|172:211,1,103.500001974106,12|8,1:3|1:0,0:0:0:0:
162,170,38615,1,12,1:3:0:0:
138,123,38837,2,0,B|115:74|115:74|134:16,1,103.500001974106,2|12,2:0|2:3,0:0:0:0:
222,73,39726,6,0,L|291:84,1,51.7500009870529,8|12,2:0|1:3,0:0:0:0:
296,127,40170,2,0,L|404:97,2,103.500001974106,8|12|8,1:0|1:3|2:0,0:0:0:0:
351,214,41504,2,0,P|366:247|344:326,1,103.500001974106,12|2,1:3|2:0,0:0:0:0:
303,319,42170,1,8,2:0:0:0:
257,294,42393,2,0,L|140:312,1,103.500001974106,0|10,0:0|2:0,0:0:0:0:
256,192,49948,12,10,56170,2:0:0:0:
296,131,57059,6,0,L|312:187,1,45,12|2,1:3|2:0,0:0:0:0:
344,201,57504,2,0,L|327:302,1,89.9999999999999,2|8,2:0|1:0,0:0:0:0:
251,336,58393,1,12,1:3:0:0:
198,263,58837,1,2,2:0:0:0:
108,249,59282,2,0,L|100:196,1,45,12|2,1:3|2:0,0:0:0:0:
99,159,59726,2,0,P|136:142|202:155,1,89.9999999999999,8|2,1:0|2:0,0:0:0:0:
194,56,60615,6,0,L|350:34,1,135,12|14,1:3|1:3,0:0:0:0:
371,47,61504,2,0,B|355:82|355:82|366:134,1,89.9999999999999,8|12,1:0|1:3,0:0:0:0:
452,155,62393,1,2,2:0:0:0:
410,234,62837,1,12,1:3:0:0:
447,317,63282,1,2,2:0:0:0:
239,376,64170,6,0,L|231:323,1,45,12|2,1:3|2:0,0:0:0:0:
216,279,64615,2,0,B|280:277|280:277|304:297,1,89.9999999999999,2|8,2:0|1:0,0:0:0:0:
389,232,65504,2,0,L|408:133,1,89.9999999999999,12|2,1:3|2:0,0:0:0:0:
316,85,66393,1,12,1:3:0:0:
228,114,66837,2,0,L|182:119,1,45,8|12,1:0|1:3,0:0:0:0:
152,152,67282,2,0,L|106:157,1,45,2|2,2:0|2:0,0:0:0:0:
74,187,67726,6,0,L|98:327,1,135,12|12,1:3|3:0,0:0:0:0:
131,348,68615,1,8,1:0:0:0:
215,378,69059,1,12,1:3:0:0:
304,372,69504,1,2,2:0:0:0:
359,301,69948,2,0,L|452:315,1,89.9999999999999,12|2,1:3|2:0,0:0:0:0:
403,100,71282,5,14,2:3:0:0:
302,124,71726,2,0,P|277:157|284:231,1,103.500001974106,8|8,2:0|1:0,0:0:0:0:
318,248,72393,1,8,2:0:0:0:
362,274,72615,2,0,B|448:267|448:267|460:244,2,103.500001974106,12|8|12,1:3|2:0|1:3,0:0:0:0:
264,309,73949,2,0,L|252:366,1,51.7500009870529,8|12,1:0|1:3,0:0:0:0:
203,373,74393,2,0,B|84:349,1,103.500001974106,2|12,2:0|2:3,0:0:0:0:
78,247,75282,6,0,L|153:234,1,51.7500009870529,8|12,2:0|1:3,0:0:0:0:
179,225,75726,2,0,P|181:172|149:120,2,103.500001974106,8|12|8,1:0|1:3|2:0,0:0:0:0:
276,261,77060,1,12,1:3:0:0:
277,157,77504,2,0,L|284:106,1,51.7500009870529,10|2,2:1|2:1,0:0:0:0:
334,93,77948,2,0,L|327:33,1,51.7500009870529,2|2,2:1|2:1,0:0:0:0:
370,11,78393,6,0,P|417:3|474:42,1,103.500001974106,14|8,2:3|2:0,0:0:0:0:
467,80,79060,1,8,2:0:0:0:
467,131,79282,2,0,B|479:223|479:223|493:232,2,103.500001974106,8|12|8,1:0|1:3|2:0,0:0:0:0:
375,179,80615,2,0,B|331:173|331:173|323:176|323:176|272:171,1,103.500001974106,12|8,1:3|1:0,0:0:0:0:
220,166,81282,1,12,1:3:0:0:
168,160,81504,2,0,B|156:207|156:207|177:257,1,103.500001974106,2|12,2:0|2:3,0:0:0:0:
200,358,82393,6,0,L|265:345,1,51.7500009870529,8|12,2:0|1:3,0:0:0:0:
285,309,82837,2,0,L|324:198,2,103.500001974106,8|12|8,1:0|1:3|2:0,0:0:0:0:
378,360,84171,2,0,P|426:377|476:366,1,103.500001974106,12|2,1:3|2:0,0:0:0:0:
500,321,84837,1,8,2:0:0:0:
504,267,85059,2,0,B|498:217|498:217|492:211|492:211|484:145,1,103.500001974106,10|10,2:0|2:0,0:0:0:0:
256,192,92615,12,10,98837,2:1:0:0:
364,159,99726,5,12,1:3:0:0:
364,159,100170,2,0,L|339:30,2,112.5,2|10|2,1:0|1:0|1:0,0:0:0:0:
280,235,101504,2,0,L|268:356,1,112.5,2|10,1:0|1:0,0:0:0:0:
171,292,102393,1,10,2:0:0:0:
171,292,102615,2,0,L|103:303,1,56.2499999999999,12|10,1:3|2:0,0:0:0:0:
29,227,103282,6,0,B|48:201|48:201|27:118,1,112.5,12|2,1:3|1:0,0:0:0:0:
14,68,103948,1,8,2:0:0:0:
31,14,104170,2,0,P|72:1|140:16,1,112.5,10|2,1:0|1:0,0:0:0:0:
182,119,105059,2,0,P|223:132|291:117,1,112.5,2|10,1:0|1:0,0:0:0:0:
357,27,105948,2,0,P|385:22|421:39,1,56.2499999999999,2|2,2:1|2:1,0:0:0:0:
463,50,106393,2,0,P|481:71|484:111,1,56.2499999999999,2|2,2:1|2:1,0:0:0:0:
468,151,106837,5,12,2:3:0:0:
140,241,110393,6,0,B|240:217|240:217|291:259,1,155.250002961159,12|12,2:3|1:3,0:0:0:0:
317,287,111282,2,0,L|441:270,2,103.500001974106,8|12|2,1:0|2:3|2:0,0:0:0:0:
241,357,112615,2,0,L|178:347,2,51.7500009870529,2|2|10,2:1|2:1|1:0,0:0:0:0:
256,192,113948,1,14,1:3:0:0:
256,192,121059,12,14,128170,1:3:0:0:
311,211,129059,6,0,P|295:195|161:197,1,153.000002918243,2|14,2:0|1:3,0:0:0:0:
94,301,130615,2,0,L|109:380,2,76.5000014591216,0|0|0,0:0|2:0|2:0,0:0:0:0:
57,272,131726,6,0,L|63:218,1,38.2500007295608,14|0,1:3|0:0,0:0:0:0:
73,96,132615,2,0,L|55:19,2,76.5000014591216,2|2|14,2:0|2:0|1:3,0:0:0:0:
115,112,133726,2,0,L|205:102,1,76.5000014591216
296,15,134837,1,0,0:0:0:0:
374,62,135282,6,0,L|352:231,2,153.000002918243,14|2|14,1:3|2:0|1:3,0:0:0:0:
235,182,137948,2,0,L|226:228,1,38.2500007295608,0|0,2:0|2:0,0:0:0:0:
279,295,138615,2,0,L|288:346,1,38.2500007295608,0|14,2:0|1:3,0:0:0:0:
328,348,139059,2,0,B|421:368|421:368|452:314|452:314|436:245|436:245|452:193,1,267.750005106926,0|14,0:0|1:3,0:0:0:0:
432,163,140837,2,0,L|419:80,1,76.5000014591216
285,62,141948,1,0,0:0:0:0:
211,117,142393,1,14,1:3:0:0:
256,192,142837,12,0,148282,2:1:0:0:
