osu file format v14

[General]
AudioFilename: audio.mp3
AudioLeadIn: 0
PreviewTime: 14282
Countdown: 0
SampleSet: Soft
StackLeniency: 0.5
Mode: 0
LetterboxInBreaks: 0
WidescreenStoryboard: 1

[Editor]
Bookmarks: 57059,59726,95282,99726,103726,110393,113948,128170
DistanceSpacing: 1.2
BeatDivisor: 8
GridSize: 4
TimelineZoom: 2.899999

[Metadata]
Title:claws
TitleUnicode:claws
Artist:Charli XCX
ArtistUnicode:Charli XCX
Creator:anfeargorm
Version:Light Insane
Source:
Tags:Aphestra Skidooskei Skid HMF HatsuneMikuFEET Hatsune Miku FEET Nina Kosaka Nina_Kosaka ABSOLUTE EPIC 4 ABSOLUTE_EPIC_4 hyperpop electropop glitch pop english how i'm feeling now im i am
BeatmapID:3301121
BeatmapSetID:1458874

[Difficulty]
HPDrainRate:4
CircleSize:4
OverallDifficulty:7
ApproachRate:8
SliderMultiplier:1.8
SliderTickRate:1

[Events]
//Background and Video events
0,0,"hello UwU.jpg",0,0
//Break Periods
2,114148,120309
//Storyboard Layer 0 (Background)
//Storyboard Layer 1 (Fail)
//Storyboard Layer 2 (Pass)
//Storyboard Layer 3 (Foreground)
//Storyboard Layer 4 (Overlay)
//Storyboard Sound Samples

[TimingPoints]
171,444.444444444444,4,2,69,40,1,0
14393,-100,4,2,69,60,0,0
20615,-250,4,2,69,60,0,0
21504,-100,4,2,69,60,0,0
28615,-83.3333333333333,4,2,71,70,0,0
29059,-83.3333333333333,4,2,69,80,0,0
34837,-133.333333333333,4,2,69,80,0,0
35726,-83.3333333333333,4,2,69,80,0,0
42837,-250,4,2,70,40,0,0
45504,-250,4,2,70,50,0,0
56170,-125,4,2,70,50,0,0
57059,-100,4,2,70,60,0,0
57282,-100,4,2,69,60,0,0
59726,-100,4,2,71,60,0,0
59948,-100,4,2,69,60,0,0
63282,-250,4,2,69,60,0,0
64170,-100,4,2,69,60,0,0
71282,-83.3333333333333,4,2,71,70,0,0
71726,-83.3333333333333,4,2,69,80,0,0
84615,-133.333333333333,4,2,69,80,0,0
85282,-133.333333333333,4,2,70,80,0,0
85504,-250,4,2,70,40,0,0
88171,-250,4,2,70,50,0,0
92615,-142.857142857143,4,2,70,50,0,0
99726,-83.3333333333333,4,2,70,90,0,0
100282,-83.3333333333333,4,2,69,90,0,0
105948,-133.333333333333,4,2,69,90,0,0
106837,-83.3333333333333,4,2,69,90,0,0
107282,-83.3333333333333,4,2,69,70,0,0
110393,-83.3333333333333,4,2,69,90,0,0
121059,-83.3333333333333,4,2,69,50,0,0
124615,-83.3333333333333,4,2,69,60,0,0
128170,-250,4,2,69,70,0,0
129059,-250,4,2,70,70,0,0
142392,-250,4,2,70,50,0,0
143948,-250,4,2,70,90,0,0
145504,-100,4,2,69,90,0,0
146615,-250,4,2,69,80,0,0
147282,-250,4,2,69,70,0,0
147726,-250,4,2,69,60,0,0

[Colours]
Combo1 : 170,255,255
Combo2 : 0,183,183
Combo3 : 0,234,234

[HitObjects]
66,173,14393,6,0,P|107:202|155:192,1,90,12|2,1:3|2:0,0:0:0:0:
299,88,14837,2,0,L|147:111,1,135,2|0,2:0|2:0,0:0:0:0:
149,96,15282,1,8,1:0:0:0:
109,23,15504,1,2,2:0:0:0:
246,122,15726,2,0,L|216:283,1,135,12|0,1:3|0:0,0:0:0:0:
217,274,16170,6,0,P|250:305|307:293,1,90,2|2,2:0|2:0,0:0:0:0:
459,173,16615,2,0,L|303:198,1,135,12|0,1:3|0:0,0:0:0:0:
301,197,17059,1,8,1:0:0:0:
342,102,17282,1,12,1:3:0:0:
214,190,17504,2,0,L|72:212,1,135,2|0,2:0|2:0,0:0:0:0:
62,211,17948,6,0,P|33:173|50:123,1,90,12|2,1:3|2:0,0:0:0:0:
174,36,18393,1,2,2:0:0:0:
174,36,18615,2,0,P|180:80|152:113,1,90,12|8,1:3|1:0,0:0:0:0:
88,43,19059,1,2,2:0:0:0:
250,143,19282,2,0,L|397:119,1,135,12|0,1:3|2:0,0:0:0:0:
405,118,19726,6,0,P|437:78|419:25,1,90,2|2,2:0|2:0,0:0:0:0:
251,235,20170,2,0,P|248:279|278:311,1,90,12|0,1:3|0:0,0:0:0:0:
435,330,20615,6,0,B|427:308|427:308|430:290|430:290|419:261,1,72,2|0,2:0|0:0,0:0:0:0:
420,262,21504,6,0,L|299:242,1,90,12|2,1:3|2:0,0:0:0:0:
156,357,21948,2,0,L|318:338,1,135,2|0,2:0|0:0,0:0:0:0:
307,339,22393,2,0,P|335:302|323:258,1,90,8|2,1:0|2:0,0:0:0:0:
145,157,22837,1,12,1:3:0:0:
202,274,23059,1,2,2:3:0:0:
137,141,23282,6,0,P|135:87|182:56,1,90,2|2,2:0|2:0,0:0:0:0:
264,10,23726,2,0,L|287:170,1,135,12|0,1:3|0:0,0:0:0:0:
285,166,24170,5,8,1:0:0:0:
374,105,24393,1,12,1:3:0:0:
373,291,24615,2,0,L|390:188,1,90,2|2,2:0|2:0,0:0:0:0:
151,364,25059,6,0,P|215:376|272:341,1,135,12|0,1:3|0:0,0:0:0:0:
281,314,25504,1,2,2:0:0:0:
101,220,25726,1,12,1:3:0:0:
265,226,25948,2,0,L|376:203,1,90,8|0,1:0|0:0,0:0:0:0:
167,88,26393,2,0,P|194:132|183:184,1,90,12|2,1:3|2:0,0:0:0:0:
26,281,26837,6,0,L|43:85,2,180,2|12|2,2:0|1:3|2:0,0:0:0:0:
26,307,28615,6,0,B|94:332|140:279|107:260|159:221|225:245,1,215.999993408203,14|8,1:3|2:0,0:0:0:0:
346,371,29282,1,8,2:0:0:0:
465,280,29504,5,8,1:0:0:0:
445,212,29726,1,8,2:0:0:0:
293,258,29948,5,12,1:3:0:0:
329,126,30170,1,8,2:0:0:0:
456,94,30393,5,8,2:0:0:0:
450,76,30615,1,8,2:0:0:0:
327,10,30837,5,12,1:3:0:0:
327,10,30948,1,2,2:0:0:0:
327,10,31059,1,8,2:0:0:0:
247,75,31282,6,0,L|270:194,1,107.999996704102,8|12,1:0|1:3,0:0:0:0:
418,254,31726,1,2,2:0:0:0:
348,137,31948,1,2,2:0:0:0:
400,261,32170,6,0,B|255:299|255:299|211:249,1,215.999993408203,12|8,2:3|2:0,0:0:0:0:
207,27,32837,1,12,1:3:0:0:
37,69,33059,5,8,1:0:0:0:
64,151,33282,1,8,2:0:0:0:
214,120,33504,5,12,1:3:0:0:
190,248,33726,1,8,2:0:0:0:
68,264,33948,5,8,2:0:0:0:
74,281,34170,1,8,2:0:0:0:
209,367,34393,5,12,1:3:0:0:
209,367,34504,1,2,2:0:0:0:
209,367,34615,1,8,2:0:0:0:
299,302,34837,6,0,P|341:279|409:341,1,135.000005149842,2|2,2:0|2:0,0:0:0:0:
407,346,35726,6,0,L|174:313,1,215.999993408203,12|8,1:3|2:0,0:0:0:0:
93,384,36393,1,8,2:0:0:0:
20,295,36615,5,8,1:0:0:0:
34,218,36837,1,8,2:0:0:0:
190,227,37059,5,12,1:3:0:0:
161,106,37282,1,8,2:0:0:0:
35,98,37504,5,8,2:0:0:0:
40,75,37726,1,8,2:0:0:0:
145,6,37948,5,12,1:3:0:0:
145,6,38059,1,2,2:0:0:0:
145,6,38170,1,8,2:0:0:0:
195,96,38393,6,0,L|333:70,1,107.999996704102,8|12,1:0|1:3,0:0:0:0:
467,23,38837,1,2,2:0:0:0:
421,142,39059,1,2,2:0:0:0:
474,39,39282,6,0,B|523:174|523:174|453:222,1,215.999993408203,12|8,2:3|2:0,0:0:0:0:
289,12,39948,1,12,1:3:0:0:
399,82,40170,5,8,1:0:0:0:
378,161,40393,1,8,2:0:0:0:
264,174,40615,5,12,1:3:0:0:
292,311,40837,1,8,2:0:0:0:
455,235,41059,5,8,2:0:0:0:
452,257,41282,1,8,2:0:0:0:
368,347,41504,5,12,1:3:0:0:
368,347,41615,1,2,2:0:0:0:
368,347,41726,1,8,2:0:0:0:
296,261,41948,6,0,L|174:283,1,107.999996704102,2|8,2:0|2:0,0:0:0:0:
35,331,42393,2,0,B|103:345|103:345|119:367|119:367|202:383,1,161.999995056153
205,381,42837,6,0,B|268:331|236:251|236:251|209:280|167:280,1,216,10|2,2:0|0:0,0:0:0:0:
172,181,44393,2,0,L|174:213,1,18,2|2,0:0|0:0,0:0:0:0:
188,174,44615,6,0,B|202:27|202:27|207:70|238:96,1,216,0|2,3:0|2:0,0:0:0:0:
425,52,46393,6,0,P|401:29|290:30,2,144,2|10|2,3:2|2:0|3:2,0:0:0:0:
365,176,48615,2,0,L|349:98,2,72,2|10|2,2:0|2:0|2:0,0:0:0:0:
304,310,49948,6,0,B|230:287|170:336|170:336|127:325|124:278,1,216,2|2,3:2|0:0,0:0:0:0:
181,220,51504,2,0,L|147:215,1,18,2|2,0:0|0:0,0:0:0:0:
196,223,51726,6,0,P|211:197|157:105,1,144,0|10,3:2|2:0,0:0:0:0:
64,176,53059,1,2,2:0:0:0:
11,43,53504,6,0,L|89:59,1,72,2|2,3:2|2:0,0:0:0:0:
165,119,54393,2,0,L|243:103,1,72,10|2,2:0|2:0,0:0:0:0:
296,32,55282,6,0,P|346:23|391:54,1,108,2|2,3:2|2:0,0:0:0:0:
337,195,56170,6,0,P|365:149|318:175,1,144,10|10,2:0|2:0,0:0:0:0:
336,171,57059,6,0,P|376:145|447:162,1,90,12|2,1:3|2:0,0:0:0:0:
361,288,57504,2,0,L|201:260,1,135,2|0,2:0|0:0,0:0:0:0:
204,262,57948,1,8,1:0:0:0:
263,356,58170,1,2,2:0:0:0:
193,177,58393,2,0,L|212:68,1,90,12|0,1:3|0:0,0:0:0:0:
103,16,58837,5,2,2:0:0:0:
103,16,59059,1,2,2:0:0:0:
20,107,59282,1,12,1:3:0:0:
20,107,59393,1,2,2:0:0:0:
20,107,59504,1,2,2:0:0:0:
109,144,59726,6,0,L|83:256,1,90,8|12,1:0|1:3,0:0:0:0:
216,372,60170,2,0,L|195:233,1,135,2|0,2:0|0:0,0:0:0:0:
187,211,60615,6,0,P|240:182|290:207,1,90,12|2,1:3|2:0,0:0:0:0:
311,266,61059,1,2,2:0:0:0:
283,102,61282,1,14,1:3:0:0:
364,181,61504,6,0,L|378:92,1,90,8|2,1:0|2:0,0:0:0:0:
165,6,61948,2,0,L|198:165,1,135,12|0,1:3|0:0,0:0:0:0:
198,161,62393,6,0,P|154:192|103:176,1,90,2|2,2:0|2:0,0:0:0:0:
13,81,62837,1,12,1:3:0:0:
13,81,62948,1,2,2:0:0:0:
13,81,63059,1,2,2:0:0:0:
40,166,63282,6,0,B|32:188|32:188|35:206|35:206|24:234,1,72,2|2,2:0|2:0,0:0:0:0:
25,235,64170,6,0,P|72:270|120:259,1,90,12|2,1:3|2:0,0:0:0:0:
210,134,64615,2,0,L|298:148,1,90,2|2,2:0|2:0,0:0:0:0:
344,225,65059,5,8,1:0:0:0:
400,144,65282,1,2,2:0:0:0:
240,231,65504,2,0,L|269:370,1,135,12|0,1:3|2:0,0:0:0:0:
270,382,65948,5,2,2:0:0:0:
348,305,66170,1,2,2:0:0:0:
166,364,66393,1,12,1:3:0:0:
166,364,66504,1,2,2:0:0:0:
166,364,66615,2,0,L|63:349,1,90,2|8,2:0|1:0,0:0:0:0:
37,143,67059,1,12,1:3:0:0:
3,234,67282,2,0,P|48:240|94:216,1,90,2|2,2:0|2:0,0:0:0:0:
159,73,67726,6,0,L|319:93,1,135,12|0,1:3|2:0,0:0:0:0:
322,93,68170,1,2,2:0:0:0:
140,160,68393,1,12,3:0:0:0:
332,186,68615,2,0,L|242:173,1,90,8|0,1:0|2:0,0:0:0:0:
307,372,69059,6,0,P|337:341|340:288,1,90,12|2,1:3|2:0,0:0:0:0:
69,329,69504,6,0,L|257:303,2,180,2|12|2,2:0|1:3|2:0,0:0:0:0:
51,319,71282,6,0,P|77:261|217:241,1,215.999993408203,14|8,2:3|2:0,0:0:0:0:
303,366,71948,1,8,2:0:0:0:
456,336,72170,5,8,1:0:0:0:
427,253,72393,1,8,2:0:0:0:
278,241,72615,5,12,1:3:0:0:
335,97,72837,1,8,2:0:0:0:
483,192,73059,5,8,2:0:0:0:
475,174,73282,1,8,2:0:0:0:
489,18,73504,5,12,1:3:0:0:
489,18,73615,1,2,2:0:0:0:
489,18,73726,1,8,2:0:0:0:
469,152,73948,6,0,L|340:181,1,107.999996704102,8|12,1:0|1:3,0:0:0:0:
189,288,74393,1,2,2:0:0:0:
100,186,74615,1,2,2:0:0:0:
198,276,74837,6,0,B|251:136|251:136|187:75,1,215.999993408203,12|8,2:3|2:0,0:0:0:0:
7,13,75504,1,12,1:3:0:0:
189,90,75726,5,8,1:0:0:0:
150,161,75948,1,8,2:0:0:0:
3,119,76170,5,12,1:3:0:0:
30,258,76393,1,8,2:0:0:0:
138,259,76615,5,8,2:0:0:0:
130,280,76837,1,8,2:0:0:0:
194,370,77059,5,12,1:3:0:0:
194,370,77170,1,2,2:0:0:0:
194,370,77282,1,8,2:0:0:0:
147,240,77504,6,0,L|280:222,1,107.999996704102,10|2,2:1|2:1,0:0:0:0:
205,357,77948,2,0,L|338:375,1,107.999996704102,2|2,2:1|2:1,0:0:0:0:
407,94,78393,6,0,B|387:178|387:178|348:205|348:205|320:313,1,215.999993408203,14|8,2:3|2:0,0:0:0:0:
483,371,79059,1,8,2:0:0:0:
347,358,79282,5,8,1:0:0:0:
416,279,79504,1,8,2:0:0:0:
512,253,79726,5,12,1:3:0:0:
454,105,79948,1,8,2:0:0:0:
322,140,80170,5,8,2:0:0:0:
337,122,80393,1,8,2:0:0:0:
277,0,80615,5,12,1:3:0:0:
277,0,80726,1,2,2:0:0:0:
277,0,80837,1,8,2:0:0:0:
457,120,81059,6,0,L|335:101,1,107.999996704102,8|12,1:0|1:3,0:0:0:0:
175,48,81504,1,2,2:0:0:0:
270,177,81726,1,2,2:0:0:0:
165,63,81948,6,0,B|79:185|79:185|124:261,1,215.999993408203,12|8,2:3|2:0,0:0:0:0:
261,88,82615,1,12,1:3:0:0:
75,55,82837,5,8,1:0:0:0:
134,131,83059,1,8,2:0:0:0:
267,192,83282,5,12,1:3:0:0:
222,332,83504,1,8,2:0:0:0:
102,261,83726,5,8,2:0:0:0:
112,283,83948,1,8,2:0:0:0:
22,373,84170,5,12,1:3:0:0:
22,373,84282,1,2,2:0:0:0:
22,373,84393,1,8,2:0:0:0:
38,220,84615,6,0,P|92:185|120:192,1,67.5000025749208,2|8,2:0|2:0,0:0:0:0:
170,344,85059,2,0,P|224:379|252:372,1,67.5000025749208,10|2,2:0|2:0,0:0:0:0:
319,265,85504,6,0,B|292:255|273:223|274:159|298:138|298:138|324:182|368:183,1,216,10|2,2:0|0:0,0:0:0:0:
390,113,87059,2,0,L|412:110,1,18,2|2,0:0|0:0,0:0:0:0:
378,99,87282,6,0,B|333:32|251:56|251:56|226:86|172:82,1,216,0|2,3:0|2:0,0:0:0:0:
121,34,89059,6,0,P|88:31|32:122,2,144,2|10|2,3:2|2:0|3:2,0:0:0:0:
214,98,91282,2,0,L|198:174,2,72,2|10|2,2:0|2:0|2:0,0:0:0:0:
220,85,92615,6,0,P|253:64|284:71,1,62.9999980773926,2|2,3:2|2:0,0:0:0:0:
323,150,93059,2,0,P|356:171|387:164,1,62.9999980773926,2|2,2:0|2:0,0:0:0:0:
475,70,93504,2,0,L|472:46,4,15.7499995193482,10|2|2|2|2,1:2|2:0|2:0|2:0|2:0,0:0:0:0:
476,86,93948,2,0,L|464:160,1,62.9999980773926,2|2,2:0|2:0,0:0:0:0:
453,271,94393,6,0,P|428:247|399:244,1,62.9999980773926,2|2,3:2|2:0,0:0:0:0:
331,332,94837,2,0,P|306:356|277:359,1,62.9999980773926,2|2,2:0|2:0,0:0:0:0:
205,261,95282,1,10,2:0:0:0:
205,261,95504,1,2,2:0:0:0:
295,161,95726,2,0,L|286:97,1,62.9999980773926,2|2,2:0|2:0,0:0:0:0:
50,74,96170,6,0,P|79:103|117:99,1,62.9999980773926,2|2,3:2|2:0,0:0:0:0:
178,37,96615,1,2,2:0:0:0:
178,37,96837,1,2,2:0:0:0:
250,104,97059,2,0,L|271:99,4,15.7499995193482,10|2|2|2|2,2:0|2:0|2:0|2:0|2:0,0:0:0:0:
233,111,97504,2,0,P|216:140|225:181,1,62.9999980773926,2|2,2:0|2:0,0:0:0:0:
301,280,97948,6,0,L|366:263,1,62.9999980773926,2|0,3:2|0:0,0:0:0:0:
435,324,98393,1,2,2:0:0:0:
435,324,98615,1,2,2:0:0:0:
295,353,98837,6,0,L|271:240,1,94.499997116089,10|0,2:1|0:0,0:0:0:0:
291,246,99282,6,0,L|303:162,1,62.9999980773926,10|2,2:1|2:0,0:0:0:0:
377,74,99726,6,0,L|406:193,1,107.999996704102,12|0,1:3|0:0,0:0:0:0:
501,332,100170,5,2,1:0:0:0:
485,314,100393,1,8,2:0:0:0:
329,223,100615,5,10,1:0:0:0:
375,288,100837,1,2,2:0:0:0:
463,223,101059,5,2,1:0:0:0:
512,98,101282,1,2,2:0:0:0:
361,82,101504,5,2,1:0:0:0:
372,104,101726,1,2,2:0:0:0:
486,9,101948,5,10,1:0:0:0:
486,9,102059,1,2,2:0:0:0:
486,9,102170,1,2,2:0:0:0:
362,120,102393,5,10,2:0:0:0:
249,22,102615,1,12,1:3:0:0:
144,83,102837,6,0,P|203:113|255:90,1,107.999996704102,10|2,2:0|3:0,0:0:0:0:
12,27,103282,6,0,L|56:250,1,215.999993408203,12|2,1:3|1:0,0:0:0:0:
109,33,103948,1,8,2:0:0:0:
204,115,104170,5,10,1:0:0:0:
164,175,104393,1,2,2:0:0:0:
61,301,104615,5,2,1:0:0:0:
15,163,104837,1,2,2:0:0:0:
211,281,105059,5,2,1:0:0:0:
193,294,105282,1,2,2:0:0:0:
52,290,105504,5,10,1:0:0:0:
52,290,105615,1,2,2:0:0:0:
52,290,105726,1,2,2:0:0:0:
165,209,105948,6,0,L|179:349,1,135.000005149842,2|2,2:1|2:1,0:0:0:0:
74,195,106615,1,2,2:1:0:0:
256,192,106837,5,12,2:3:0:0:
256,192,108170,1,12,2:3:0:0:
256,192,109059,1,12,2:3:0:0:
468,262,110393,6,0,P|422:217|347:240,1,107.999996704102,12|0,2:3|2:0,0:0:0:0:
304,341,110837,1,2,2:0:0:0:
253,146,111059,1,12,1:3:0:0:
181,260,111282,2,0,L|303:238,1,107.999996704102,8|2,1:0|2:0,0:0:0:0:
173,105,111726,2,0,P|113:70|9:102,1,161.999995056153,12|0,2:3|2:0,0:0:0:0:
25,108,112170,6,0,L|41:219,1,107.999996704102,2|2,2:0|2:0,0:0:0:0:
145,274,112615,5,2,2:1:0:0:
153,234,112726,1,2,2:1:0:0:
179,204,112837,1,2,2:1:0:0:
216,188,112948,1,2,2:1:0:0:
256,192,113059,1,10,1:0:0:0:
256,192,113948,1,0,1:0:0:0:
256,192,121059,12,0,127948,2:0:0:0:
318,181,128170,6,0,P|288:156|188:166,2,144,14|2|14,1:3|2:0|1:3,0:0:0:0:
318,181,130615,5,0,0:0:0:0:
247,248,131059,2,0,L|257:323,1,72,0|0,2:0|2:0,0:0:0:0:
43,305,131726,6,0,P|79:268|176:279,2,144,14|2|14,1:3|2:0|1:3,0:0:0:0:
102,359,133726,1,0,0:0:0:0:
227,337,134170,2,0,L|334:350,1,108
491,215,135282,6,0,P|455:274|386:280,2,144,14|2|14,1:3|2:0|1:3,0:0:0:0:
413,207,137282,1,0,0:0:0:0:
361,146,137504,1,0,0:0:0:0:
453,55,137726,6,0,L|441:135,2,72,0|0|0,0:0|2:0|2:0,0:0:0:0:
333,19,138837,6,0,P|302:30|281:130,2,144,14|2|14,1:3|2:0|1:3,0:0:0:0:
256,192,140726,12,14,142393,1:3:0:0:
256,192,142837,6,0,B|186:160|125:198|93:232|93:232|126:247|126:247|162:243|162:243|184:274|184:274|195:274|195:274|220:264|220:264|245:271|245:271|276:268|276:268|313:283,1,414,0|0,0:0|2:0,0:0:0:0:
311,292,145504,6,0,B|331:336|331:336|349:142|349:142|389:257|389:257|351:363,1,450,2|2,2:0|2:1,0:0:0:0:
256,192,146726,12,0,148282,2:1:0:0:
