osu file format v14

[General]
AudioFilename: audio.mp3
AudioLeadIn: 0
PreviewTime: 14282
Countdown: 0
SampleSet: Soft
StackLeniency: 0.2
Mode: 0
LetterboxInBreaks: 0
WidescreenStoryboard: 1

[Editor]
Bookmarks: 57059,59726,95282,99726,103726,110393,113948,128170
DistanceSpacing: 1.2
BeatDivisor: 8
GridSize: 8
TimelineZoom: 4.499998

[Metadata]
Title:claws
TitleUnicode:claws
Artist:Charli XCX
ArtistUnicode:Charli XCX
Creator:anfeargorm
Version:Insane
Source:
Tags:Aphestra Skidooskei Skid HMF HatsuneMikuFEET Hatsune Miku FEET Nina Kosaka Nina_Kosaka ABSOLUTE EPIC 4 ABSOLUTE_EPIC_4 hyperpop electropop glitch pop english how i'm feeling now im i am
BeatmapID:3062400
BeatmapSetID:1458874

[Difficulty]
HPDrainRate:5
CircleSize:4.2
OverallDifficulty:7.5
ApproachRate:8.8
SliderMultiplier:1.8
SliderTickRate:1

[Events]
//Background and Video events
0,0,"hello UwU.jpg",0,0
//Break Periods
2,113948,120339
//Storyboard Layer 0 (Background)
//Storyboard Layer 1 (Fail)
//Storyboard Layer 2 (Pass)
//Storyboard Layer 3 (Foreground)
//Storyboard Layer 4 (Overlay)
//Storyboard Sound Samples

[TimingPoints]
171,444.444444444444,4,2,69,40,1,0
14393,-83.3333333333333,4,2,69,60,0,0
14837,-125,4,2,69,60,0,0
15726,-83.3333333333333,4,2,69,60,0,0
16170,-125,4,2,69,60,0,0
16615,-83.3333333333333,4,2,69,60,0,0
17504,-125,4,2,69,60,0,0
17948,-83.3333333333333,4,2,69,60,0,0
19726,-125,4,2,69,60,0,0
20170,-83.3333333333333,4,2,69,60,0,0
21948,-125,4,2,69,60,0,0
22837,-83.3333333333333,4,2,69,60,0,0
25948,-125,4,2,69,60,0,0
26393,-83.3333333333333,4,2,69,60,0,0
28615,-50,4,2,71,70,0,0
29059,-133.333333333333,4,2,69,80,0,1
29504,-100,4,2,69,80,0,1
29948,-66.6666666666667,4,2,69,80,0,1
30393,-100,4,2,69,80,0,1
31504,-66.6666666666667,4,2,69,80,0,1
31726,-133.333333333333,4,2,69,80,0,1
32171,-66.6666666666667,4,2,69,80,0,1
32393,-100,4,2,69,80,0,1
32615,-133.333333333333,4,2,69,80,0,1
32837,-66.6666666666667,4,2,69,80,0,1
33059,-100,4,2,69,80,0,1
33504,-66.6666666666667,4,2,69,80,0,1
33948,-100,4,2,69,80,0,1
34837,-133.333333333333,4,2,69,80,0,1
35726,-66.6666666666667,4,2,69,80,0,1
35948,-100,4,2,69,80,0,1
36171,-133.333333333333,4,2,69,80,0,1
36615,-100,4,2,69,80,0,1
37059,-66.6666666666667,4,2,69,80,0,1
37504,-100,4,2,69,80,0,1
38615,-66.6666666666667,4,2,69,80,0,1
38837,-133.333333333333,4,2,69,80,0,1
39282,-66.6666666666667,4,2,69,80,0,1
39504,-100,4,2,69,80,0,1
39726,-133.333333333333,4,2,69,80,0,1
39948,-66.6666666666667,4,2,69,80,0,1
40171,-100,4,2,69,80,0,1
40615,-66.6666666666667,4,2,69,80,0,1
41059,-100,4,2,69,80,0,1
41948,-133.333333333333,4,2,69,80,0,1
42171,-66.6666666666667,4,2,69,80,0,1
42837,-222.222222222222,4,2,70,40,0,0
44615,-181.818181818182,4,2,70,40,0,0
45503,-181.818181818182,4,2,70,50,0,0
49948,-222.222222222222,4,2,70,50,0,0
51615,-222.222222222222,4,2,70,50,0,0
51726,-181.818181818182,4,2,70,50,0,0
57059,-66.6666666666667,4,2,70,60,0,0
57281,-66.6666666666667,4,2,69,60,0,0
57504,-133.333333333333,4,2,69,60,0,0
58393,-66.6666666666667,4,2,69,60,0,0
59726,-133.333333333333,4,2,71,60,0,0
59948,-66.6666666666667,4,2,69,60,0,0
60171,-133.333333333333,4,2,69,60,0,0
60615,-66.6666666666667,4,2,69,60,0,0
60837,-133.333333333333,4,2,69,60,0,0
61282,-66.6666666666667,4,2,69,60,0,0
61504,-133.333333333333,4,2,69,60,0,0
61948,-66.6666666666667,4,2,69,60,0,0
64615,-133.333333333333,4,2,69,60,0,0
65504,-66.6666666666667,4,2,69,60,0,0
66837,-133.333333333333,4,2,69,60,0,0
67059,-66.6666666666667,4,2,69,60,0,0
67282,-133.333333333333,4,2,69,60,0,0
67726,-66.6666666666667,4,2,69,60,0,0
68171,-133.333333333333,4,2,69,60,0,0
68393,-66.6666666666667,4,2,69,60,0,0
68615,-133.333333333333,4,2,69,60,0,0
69059,-66.6666666666667,4,2,69,60,0,0
69282,-133.333333333333,4,2,69,60,0,0
69948,-66.6666666666667,4,2,69,60,0,0
71282,-50,4,2,71,70,0,0
71726,-133.333333333333,4,2,69,80,0,1
72171,-100,4,2,69,80,0,1
72615,-66.6666666666667,4,2,69,80,0,1
73059,-100,4,2,69,80,0,1
74171,-66.6666666666667,4,2,69,80,0,1
74393,-133.333333333333,4,2,69,80,0,1
74837,-66.6666666666667,4,2,69,80,0,1
75059,-100,4,2,69,80,0,1
75282,-133.333333333333,4,2,69,80,0,1
75504,-66.6666666666667,4,2,69,80,0,1
75726,-100,4,2,69,80,0,1
76171,-66.6666666666667,4,2,69,80,0,1
76615,-100,4,2,69,80,0,1
77504,-66.6666666666667,4,2,69,80,0,1
77726,-50,4,2,69,80,0,1
77948,-133.333333333333,4,2,69,80,0,1
78171,-100,4,2,69,80,0,1
78393,-66.6666666666667,4,2,69,80,0,1
78615,-100,4,2,69,80,0,1
78837,-133.333333333333,4,2,69,80,0,1
79282,-100,4,2,69,80,0,1
79726,-66.6666666666667,4,2,69,80,0,1
80171,-100,4,2,69,80,0,1
81282,-66.6666666666667,4,2,69,80,0,1
81504,-133.333333333333,4,2,69,80,0,1
81948,-66.6666666666667,4,2,69,80,0,1
82171,-100,4,2,69,80,0,1
82393,-133.333333333333,4,2,69,80,0,1
82837,-100,4,2,69,80,0,1
83282,-66.6666666666667,4,2,69,80,0,1
83726,-100,4,2,69,80,0,1
84615,-133.333333333333,4,2,69,80,0,1
84837,-66.6666666666667,4,2,69,80,0,1
85059,-66.6666666666667,4,2,71,70,0,1
85282,-66.6666666666667,4,2,70,80,0,1
85504,-222.222222222222,4,2,70,40,0,0
87282,-181.818181818182,4,2,70,40,0,0
88170,-181.818181818182,4,2,70,50,0,0
92615,-153.846153846154,4,2,70,50,0,0
99726,-153.846153846154,4,2,70,90,0,1
100282,-100,4,2,69,90,0,1
101059,-66.6666666666667,4,2,69,90,0,1
101615,-100,4,2,69,90,0,1
101948,-66.6666666666667,4,2,69,90,0,1
102393,-100,4,2,69,90,0,1
102615,-66.6666666666667,4,2,69,90,0,1
102837,-133.333333333333,4,2,69,90,0,1
103282,-66.6666666666667,4,2,69,90,0,1
103504,-100,4,2,69,90,0,1
104171,-66.6666666666667,4,2,69,90,0,1
104726,-100,4,2,69,90,0,1
105948,-133.333333333333,4,2,69,90,0,0
106837,-66.6666666666667,4,2,69,90,0,0
107281,-66.6666666666667,4,2,69,70,0,0
109059,-133.333333333333,4,2,69,70,0,0
110393,-66.6666666666667,4,2,69,90,0,1
110615,-100,4,2,69,90,0,1
110837,-133.333333333333,4,2,69,90,0,1
111059,-66.6666666666667,4,2,69,90,0,1
111948,-100,4,2,69,90,0,1
113948,-100,4,2,69,90,0,0
121059,-153.846153846154,4,2,69,50,0,0
124615,-153.846153846154,4,2,69,60,0,0
128171,-153.846153846154,4,2,69,70,0,0
129059,-153.846153846154,4,2,70,70,0,0
142392,-153.846153846154,4,2,70,50,0,0
143948,-153.846153846154,4,2,70,90,0,0
145503,-153.846153846154,4,2,69,90,0,0
146615,-153.846153846154,4,2,69,80,0,0
147282,-153.846153846154,4,2,69,70,0,0
147726,-153.846153846154,4,2,69,60,0,0

[Colours]
Combo1 : 170,255,255
Combo2 : 0,183,183
Combo3 : 0,234,234

[HitObjects]
70,211,14393,6,0,P|104:170|189:183,1,107.999996704102,12|2,1:3|2:0,0:0:0:0:
265,288,14837,2,0,P|229:281|165:260,1,72,2|0,2:0|0:0,0:0:0:0:
270,196,15282,1,8,1:0:0:0:
173,347,15504,1,2,2:0:0:0:
281,181,15726,2,0,P|342:162|417:215,1,161.999995056153,12|0,1:3|0:0,0:0:0:0:
408,230,16170,6,0,P|385:273|384:322,1,72,2|2,2:0|2:0,0:0:0:0:
482,101,16615,2,0,P|421:82|346:135,1,161.999995056153,12|0,1:3|0:0,0:0:0:0:
350,154,17059,1,8,1:0:0:0:
339,20,17282,2,0,P|329:8|279:6,1,53.9999983520508,12|0,1:3|2:0,0:0:0:0:
198,44,17504,2,0,P|273:28|321:24,1,108,2|0,2:0|2:0,0:0:0:0:
218,119,17948,6,0,P|180:63|105:73,1,107.999996704102,12|2,1:3|2:0,0:0:0:0:
95,280,18393,1,2,2:0:0:0:
42,202,18615,2,0,P|77:157|153:161,1,107.999996704102,12|8,1:3|1:0,0:0:0:0:
168,230,19059,1,2,2:0:0:0:
388,244,19282,2,0,P|343:192|236:201,1,161.999995056153,12|0,1:3|2:0,0:0:0:0:
251,205,19726,6,0,P|266:248|268:283,1,72,2|2,2:0|2:0,0:0:0:0:
162,338,20170,2,0,P|135:297|166:239,1,107.999996704102,12|0,1:3|0:0,0:0:0:0:
272,357,20615,1,2,2:0:0:0:
272,357,21059,1,0,0:0:0:0:
475,135,21504,6,0,P|446:80|374:85,1,107.999996704102,12|2,1:3|2:0,0:0:0:0:
301,170,21948,2,0,P|375:153|400:154,1,72,2|0,2:0|0:0,0:0:0:0:
270,72,22393,1,8,1:0:0:0:
386,228,22615,1,2,2:0:0:0:
276,55,22837,2,0,P|235:23|164:56,1,107.999996704102,12|2,1:3|2:3,0:0:0:0:
158,190,23282,5,2,2:0:0:0:
198,116,23504,1,2,2:0:0:0:
322,216,23726,2,0,P|254:242|239:357,1,161.999995056153,12|0,1:3|0:0,0:0:0:0:
241,335,24170,1,8,1:0:0:0:
438,266,24393,1,12,1:3:0:0:
323,203,24615,1,2,2:0:0:0:
349,337,24837,1,2,2:0:0:0:
270,98,25059,6,0,B|140:74|212:211|66:183,1,215.999993408203,12|2,1:3|2:0,0:0:0:0:
25,78,25726,1,12,1:3:0:0:
87,197,25948,2,0,P|71:241|62:319,1,108,8|0,1:0|2:0,0:0:0:0:
61,316,26393,2,0,P|111:359|175:338,1,107.999996704102,12|2,1:3|2:0,0:0:0:0:
257,225,26837,5,2,2:0:0:0:
257,225,27282,1,12,1:3:0:0:
257,225,27726,1,2,2:0:0:0:
21,346,28615,6,0,B|-39:356|-17:276|91:266|96:312|77:326|103:362|129:371|202:360|205:279,1,270,14|0,1:3|2:0,0:0:0:0:
193,303,29059,6,0,L|190:286,2,16.875,8|2|2,2:0|2:0|2:0,0:0:0:0:
166,178,29282,1,8,2:0:0:0:
138,25,29504,6,0,L|150:91,1,45,8|0,1:0|2:0,0:0:0:0:
166,178,29726,1,8,2:0:0:0:
201,352,29948,6,0,L|190:285,1,67.5,12|0,1:3|2:0,0:0:0:0:
166,178,30171,1,8,2:0:0:0:
138,25,30393,6,0,L|150:91,1,45,8|0,2:0|2:0,0:0:0:0:
166,178,30615,1,8,2:0:0:0:
197,292,30837,5,12,1:3:0:0:
197,292,30948,1,2,2:0:0:0:
197,292,31059,1,8,2:0:0:0:
232,121,31282,6,0,P|255:106|293:108,1,45,8|0,1:0|2:0,0:0:0:0:
383,284,31504,6,0,P|346:265|320:214,1,67.5,12|0,1:3|2:0,0:0:0:0:
377,141,31726,6,0,P|379:147|378:163,3,16.875,2|2|2|2,2:0|2:0|2:0|2:0,0:0:0:0:
368,131,31948,1,2,2:0:0:0:
165,131,32171,6,0,L|245:119,1,67.5,12|0,2:3|0:0,0:0:0:0:
332,26,32393,2,0,L|381:18,1,45,0|0,0:0|2:0,0:0:0:0:
437,248,32615,6,0,L|409:243,2,16.875,8|2|2,2:0|2:0|2:0,0:0:0:0:
317,227,32837,6,0,L|222:211,1,67.5,12|0,1:3|2:0,0:0:0:0:
117,298,33059,6,0,L|161:305,1,45,8|0,1:0|2:0,0:0:0:0:
270,327,33282,1,8,2:0:0:0:
439,356,33504,6,0,L|344:340,1,67.5,12|0,1:3|2:0,0:0:0:0:
270,327,33726,1,8,2:0:0:0:
117,298,33948,6,0,L|161:305,1,45,8|0,2:0|2:0,0:0:0:0:
270,327,34171,1,8,2:0:0:0:
380,353,34393,5,12,1:3:0:0:
380,353,34504,1,2,2:0:0:0:
380,353,34615,1,8,2:0:0:0:
250,216,34837,6,0,L|261:139,3,67.5000000000002,2|2|2|2,2:0|2:0|2:0|2:0,0:0:0:0:
259,149,35726,6,0,L|159:134,1,67.5,12|0,1:3|0:0,0:0:0:0:
100,48,35948,2,0,L|49:40,1,45,0|0,0:0|2:0,0:0:0:0:
78,160,36171,6,0,L|105:155,2,16.875,8|2|2,2:0|2:0|2:0,0:0:0:0:
192,138,36393,1,8,2:0:0:0:
346,109,36615,6,0,L|301:116,1,45,8|0,1:0|2:0,0:0:0:0:
192,138,36837,1,8,2:0:0:0:
28,167,37059,6,0,L|112:153,1,67.5,12|0,1:3|2:0,0:0:0:0:
192,138,37282,1,8,2:0:0:0:
346,109,37504,6,0,L|301:116,1,45,8|0,2:0|2:0,0:0:0:0:
192,138,37726,1,8,2:0:0:0:
102,164,37948,5,12,1:3:0:0:
102,164,38059,1,2,2:0:0:0:
102,164,38171,1,8,2:0:0:0:
252,331,38393,6,0,P|269:345|280:364,1,45,8|0,1:0|2:0,0:0:0:0:
173,244,38615,6,0,P|178:207|197:175,1,67.5,12|0,1:3|2:0,0:0:0:0:
131,353,38837,6,0,P|122:358|110:362,3,16.875,2|2|2|2,2:0|2:0|2:0|2:0,0:0:0:0:
138,341,39059,1,2,2:0:0:0:
256,229,39282,6,0,L|167:213,1,67.5,12|0,2:3|0:0,0:0:0:0:
86,239,39504,2,0,L|23:227,1,45,0|0,0:0|2:0,0:0:0:0:
126,142,39726,6,0,L|155:137,2,16.875,8|2|2,2:0|2:0|2:0,0:0:0:0:
267,124,39948,2,0,L|355:110,1,67.5,12|0,1:3|2:0,0:0:0:0:
512,184,40171,6,0,L|453:194,1,45,8|0,1:0|2:0,0:0:0:0:
367,210,40393,1,8,2:0:0:0:
190,240,40615,6,0,L|278:226,1,67.5,12|0,1:3|2:0,0:0:0:0:
367,210,40837,1,8,2:0:0:0:
512,184,41059,6,0,L|467:191,1,45,8|0,2:0|2:0,0:0:0:0:
367,210,41282,1,8,2:0:0:0:
264,237,41504,5,12,1:3:0:0:
264,237,41615,1,2,2:0:0:0:
264,237,41726,1,8,2:0:0:0:
380,338,41948,6,0,P|394:316|388:296,1,33.7500000000001,2|0,2:0|2:0,0:0:0:0:
274,239,42171,6,0,L|294:380,1,135,8|0,2:0|0:0,0:0:0:0:
303,384,42615,1,2,2:0:0:0:
351,227,42837,6,0,B|341:173|382:126|454:143|454:143|403:149|380:193,1,243,10|0,2:0|0:0,0:0:0:0:
465,227,44393,2,0,P|467:242|460:263,1,20.25
389,359,44615,6,0,B|389:336|411:317|411:317|359:320|358:337|347:380|273:372,1,198,0|10,3:0|2:0,0:0:0:0:
228,289,45726,1,2,2:0:0:0:
208,266,45948,2,0,P|247:262|261:275,1,49.4999999999999,2|2,2:0|2:0,0:0:0:0:
90,383,46393,6,0,P|123:329|131:287,1,98.9999999999999,2|2,3:2|2:0,0:0:0:0:
113,284,47059,1,2,2:0:0:0:
22,217,47282,2,0,P|28:185|88:173,1,98.9999999999999,10|2,2:0|2:0,0:0:0:0:
53,195,47948,1,2,2:0:0:0:
193,209,48171,6,0,P|244:203|290:187,1,98.9999999999999,2|2,3:2|2:0,0:0:0:0:
293,98,48837,1,2,2:0:0:0:
350,94,49059,6,0,L|301:89,1,49.4999999999999,10|2,2:0|2:0,0:0:0:0:
430,189,49504,2,0,L|380:194,1,49.4999999999999,2|2,2:0|2:0,0:0:0:0:
512,62,49948,6,0,B|456:63|411:115|428:174|428:174|448:134|499:127,1,243,2|0,3:2|0:0,0:0:0:0:
505,221,51504,2,0,P|509:228|515:248,1,20.25
443,316,51726,6,0,B|394:308|383:247|383:247|333:214|276:253,1,198,2|10,3:2|2:0,0:0:0:0:
226,365,52837,1,2,2:0:0:0:
210,334,53059,2,0,P|235:333|255:348,1,49.4999999999999,2|2,2:0|2:0,0:0:0:0:
165,250,53504,6,0,P|181:211|198:142,1,98.9999999999999,2|2,3:2|2:0,0:0:0:0:
189,141,54171,1,2,2:0:0:0:
261,67,54393,2,0,P|295:50|336:101,1,98.9999999999999,10|2,2:0|2:0,0:0:0:0:
294,85,55059,1,2,2:0:0:0:
451,30,55282,6,0,P|430:71|416:140,1,98.9999999999999,2|0,3:2|0:0,0:0:0:0:
448,203,55948,1,2,2:0:0:0:
398,286,56171,5,10,2:0:0:0:
434,211,56393,1,10,2:0:0:0:
321,217,56615,5,10,2:0:0:0:
368,365,56837,1,10,2:0:0:0:
328,203,57059,6,0,P|281:261|206:269,1,135,12|2,1:3|2:0,0:0:0:0:
224,272,57504,2,0,P|229:261|234:257,4,16.875,2|2|2|2|2,2:0|2:0|2:0|2:0|2:0,0:0:0:0:
224,272,57948,6,0,P|198:257|178:251,1,33.7500000000001,8|0,1:0|2:0,0:0:0:0:
109,231,58171,2,0,P|78:230|57:235,1,33.7500000000001,2|0,2:0|2:0,0:0:0:0:
8,376,58393,6,0,P|38:310|66:166,1,202.5,12|0,1:3|2:0,0:0:0:0:
59,171,58837,5,2,2:0:0:0:
15,86,59059,1,2,2:0:0:0:
168,134,59282,2,0,P|198:117|240:119,2,67.5,12|2|2,1:3|2:0|2:0,0:0:0:0:
168,134,59726,6,0,L|226:148,1,33.7500000000001,8|0,1:0|2:0,0:0:0:0:
327,265,59948,2,0,L|262:250,1,67.5,12|0,1:3|0:0,0:0:0:0:
261,249,60171,2,0,P|267:243|275:240,4,16.875,2|2|2|2|0,2:0|2:0|2:0|2:0|0:0,0:0:0:0:
261,249,60615,6,0,P|238:294|248:334,1,67.5,12|0,1:3|0:0,0:0:0:0:
161,223,60837,2,0,L|153:178,1,33.7500000000001,2|0,2:0|2:0,0:0:0:0:
211,120,61059,2,0,L|214:103,3,16.875,2|2|2|2,2:0|2:0|2:0|2:0,0:0:0:0:
218,86,61282,6,0,P|245:65|278:57,1,67.5,14|0,1:3|0:0,0:0:0:0:
392,158,61504,2,0,L|309:144,1,67.5000000000002,8|2,1:0|2:0,0:0:0:0:
325,146,61948,6,0,P|364:222|387:380,1,202.5,12|0,1:3|0:0,0:0:0:0:
383,349,62393,5,2,2:0:0:0:
302,378,62615,1,2,2:0:0:0:
163,309,62837,2,0,L|98:327,2,67.5,12|2|2,1:3|2:0|2:0,0:0:0:0:
163,309,64171,6,0,P|113:249|117:159,1,135,12|2,1:3|2:0,0:0:0:0:
106,194,64615,2,0,P|118:201|125:213,4,16.875,2|2|2|2|2,2:0|2:0|2:0|2:0|2:0,0:0:0:0:
106,194,65059,6,0,L|149:188,1,33.7500000000001,8|0,1:0|2:0,0:0:0:0:
223,238,65282,2,0,L|265:244,1,33.7500000000001,2|0,2:0|2:0,0:0:0:0:
341,137,65504,6,0,P|309:182|263:338,1,202.5,12|0,1:3|2:0,0:0:0:0:
270,330,65948,5,2,2:0:0:0:
351,302,66171,1,2,2:0:0:0:
489,378,66393,2,0,L|412:360,2,67.5,12|2|2,1:3|2:0|2:0,0:0:0:0:
489,378,66837,6,0,P|479:358|477:336,1,33.7500000000001,8|0,1:0|2:0,0:0:0:0:
495,149,67059,2,0,L|481:238,1,67.5,12|0,1:3|2:0,0:0:0:0:
391,117,67282,2,0,L|386:91,4,16.875,2|2|2|2|2,2:0|2:0|2:0|2:0|2:0,0:0:0:0:
391,117,67726,6,0,B|279:89|329:221|183:163,1,202.5,12|0,1:3|2:0,0:0:0:0:
137,116,68171,2,0,P|146:113|153:112,3,16.875,2|2|2|2,2:0|2:0|2:0|2:0,0:0:0:0:
137,116,68393,6,0,P|153:145|161:179,1,67.5,12|0,3:0|2:0,0:0:0:0:
132,371,68615,6,0,L|145:299,1,67.5000000000002,8|0,1:0|2:0,0:0:0:0:
15,175,69059,6,0,P|43:192|67:217,1,67.5,12|0,1:3|0:0,0:0:0:0:
130,298,69282,2,0,L|124:331,1,33.7500000000001,2|0,2:0|2:0,0:0:0:0:
9,384,69504,2,0,L|1:306,1,67.5000000000002,2|0,2:0|2:0,0:0:0:0:
66,216,69948,6,0,L|75:138,2,67.5,12|2|2,1:3|2:0|2:0,0:0:0:0:
168,192,70393,5,2,2:0:0:0:
168,192,70837,1,2,2:0:0:0:
203,305,71282,6,0,B|149:286|149:286|238:274|238:274|256:285|256:285|376:270,1,270,14|0,2:3|2:0,0:0:0:0:
451,195,71726,6,0,L|430:193,2,16.875,8|2|2,2:0|2:0|2:0,0:0:0:0:
335,181,71948,1,8,2:0:0:0:
190,164,72171,6,0,L|253:170,1,45,8|0,1:0|2:0,0:0:0:0:
335,181,72393,1,8,2:0:0:0:
354,0,72615,6,0,L|347:67,1,67.5,12|0,1:3|0:0,0:0:0:0:
335,181,72837,1,8,2:0:0:0:
478,197,73059,6,0,L|433:192,1,45,8|0,2:0|2:0,0:0:0:0:
335,181,73282,1,8,2:0:0:0:
355,75,73504,5,12,1:3:0:0:
355,75,73615,1,2,2:0:0:0:
355,75,73726,1,8,2:0:0:0:
242,162,73948,6,0,P|219:144|194:136,1,45,8|0,1:0|2:0,0:0:0:0:
56,238,74171,6,0,P|94:222|121:197,1,67.5,12|0,1:3|2:0,0:0:0:0:
103,67,74393,6,0,P|101:71|100:94,3,16.875,2|2|2|2,2:0|2:0|2:0|2:0,0:0:0:0:
108,97,74615,1,2,2:0:0:0:
205,0,74837,6,0,L|288:8,1,67.5,12|0,2:3|0:0,0:0:0:0:
341,98,75059,2,0,L|388:103,1,45,2|0,2:0|2:0,0:0:0:0:
319,221,75282,6,0,L|314:191,2,16.875,8|2|2,2:0|2:0|2:0,0:0:0:0:
213,96,75504,2,0,L|220:174,1,67.5,12|0,1:3|0:0,0:0:0:0:
229,250,75726,6,0,L|234:295,1,45,8|0,1:0|2:0,0:0:0:0:
244,384,75948,1,8,2:0:0:0:
229,250,76171,6,0,L|223:183,1,67.5,12|0,1:3|0:0,0:0:0:0:
213,96,76393,1,8,2:0:0:0:
124,116,76615,6,0,L|129:170,1,45,8|0,2:0|2:0,0:0:0:0:
140,247,76837,2,0,L|145:301,1,45,8|0,2:0|2:0,0:0:0:0:
132,124,77059,5,12,1:3:0:0:
132,124,77171,1,2,2:0:0:0:
132,124,77282,1,8,2:0:0:0:
230,42,77504,6,0,P|294:25|320:35,1,67.5,10|0,2:1|0:0,0:0:0:0:
442,168,77726,2,0,L|354:154,1,90,2|0,2:1|2:0,0:0:0:0:
223,258,77948,2,0,L|251:253,3,16.875,2|2|2|2,2:1|2:0|2:0|2:0,0:0:0:0:
258,239,78171,2,0,P|228:226|207:232,1,45,2|0,2:1|0:0,0:0:0:0:
18,315,78393,6,0,L|98:302,1,67.5,14|0,2:3|0:0,0:0:0:0:
215,376,78615,2,0,L|267:369,1,45,2|0,2:0|0:0,0:0:0:0:
223,258,78837,6,0,L|199:255,2,16.875,8|2|2,2:0|2:0|2:0,0:0:0:0:
323,277,79059,1,8,2:0:0:0:
273,174,79282,6,0,L|218:168,1,45,8|0,1:0|2:0,0:0:0:0:
367,187,79504,1,8,2:0:0:0:
306,85,79726,6,0,L|237:76,1,67.5,12|0,1:3|0:0,0:0:0:0:
408,101,79948,1,8,2:0:0:0:
272,173,80171,6,0,L|228:169,1,45,8|0,2:0|2:0,0:0:0:0:
367,187,80393,1,8,2:0:0:0:
416,108,80615,5,12,1:3:0:0:
416,108,80726,1,2,2:0:0:0:
416,108,80837,1,8,2:0:0:0:
317,28,81059,6,0,P|281:32|264:45,1,45,8|0,1:0|2:0,0:0:0:0:
221,206,81282,6,0,P|242:157|238:126,1,67.5,12|0,1:3|2:0,0:0:0:0:
150,47,81504,6,0,P|153:54|167:74,3,16.875,2|2|2|2,2:0|2:0|2:0|2:0,0:0:0:0:
166,62,81726,1,2,2:0:0:0:
55,180,81948,6,0,L|68:265,1,67.5,12|0,2:3|0:0,0:0:0:0:
175,333,82171,2,0,L|187:396,1,45,2|0,2:0|2:0,0:0:0:0:
252,270,82393,6,0,L|254:247,2,16.875,8|2|2,2:0|2:0|2:0,0:0:0:0:
264,151,82615,1,12,1:3:0:0:
374,37,82837,6,0,L|368:98,1,45,8|0,1:0|2:0,0:0:0:0:
358,187,83059,1,8,2:0:0:0:
253,253,83282,6,0,L|246:320,1,67.5,12|0,1:3|0:0,0:0:0:0:
264,151,83504,1,8,2:0:0:0:
345,277,83726,6,0,L|339:332,1,45,8|0,2:0|2:0,0:0:0:0:
358,187,83948,1,8,2:0:0:0:
377,89,84171,5,12,1:3:0:0:
377,89,84282,1,2,2:0:0:0:
377,89,84393,1,8,2:0:0:0:
210,107,84615,6,0,P|226:127|246:132,1,33.7500000000001,2|0,2:0|0:0,0:0:0:0:
377,76,84837,6,0,L|227:96,1,135,8|10,2:0|2:0,0:0:0:0:
176,34,85282,1,2,2:0:0:0:
189,234,85504,6,0,B|177:216|147:169|79:181|52:228|52:228|78:204|128:211,1,243,10|0,2:0|0:0,0:0:0:0:
112,295,87059,2,0,P|120:307|123:315,1,20.25
216,384,87282,6,0,B|201:350|229:313|237:323|267:322|277:298|271:250|271:250|268:273|257:288,1,198,0|10,3:0|2:0,0:0:0:0:
347,361,88393,1,2,2:0:0:0:
379,346,88615,2,0,P|356:330|333:336,1,49.4999999999999,2|2,2:0|2:0,0:0:0:0:
468,329,89059,6,0,P|466:297|419:226,1,98.9999999999999,2|2,3:2|2:0,0:0:0:0:
420,240,89726,1,2,2:0:0:0:
350,156,89948,6,0,P|333:188|270:177,1,98.9999999999999,10|2,2:0|2:0,0:0:0:0:
274,170,90615,1,2,2:0:0:0:
177,245,90837,6,0,P|170:196|151:150,1,98.9999999999999,2|2,3:2|2:0,0:0:0:0:
64,72,91504,1,2,2:0:0:0:
122,76,91726,6,0,L|60:86,1,49.4999999999999,10|2,2:0|2:0,0:0:0:0:
224,145,92171,2,0,L|162:155,1,49.4999999999999,2|2,2:0|2:0,0:0:0:0:
318,89,92615,6,0,L|328:28,3,58.4999999999999,2|2|2|2,3:2|2:0|2:0|2:0,0:0:0:0:
370,167,93504,2,0,L|373:186,4,14.625,10|2|2|2|2,1:2|2:0|2:0|2:0|2:0,0:0:0:0:
387,150,93948,2,0,L|379:215,1,58.4999999999999,2|2,2:0|2:0,0:0:0:0:
288,361,94393,6,0,L|280:292,3,58.4999999999999,2|2|2|2,3:2|2:0|2:0|2:0,0:0:0:0:
203,254,95282,2,0,L|211:185,1,58.4999999999999,10|2,2:0|2:0,0:0:0:0:
124,359,95726,2,0,L|117:300,1,58.4999999999999,2|2,2:0|2:0,0:0:0:0:
9,192,96171,6,0,L|67:198,1,58.4999999999999,2|2,3:2|2:0,0:0:0:0:
118,99,96615,2,0,L|176:92,1,58.4999999999999,2|2,2:0|2:0,0:0:0:0:
262,11,97059,2,0,L|289:15,4,14.625,10|2|2|2|2,2:0|2:0|2:0|2:0|2:0,0:0:0:0:
351,132,97504,1,2,2:0:0:0:
351,132,97726,1,2,2:0:0:0:
447,16,97948,6,0,P|447:61|465:141,1,117,2|2,3:2|2:0,0:0:0:0:
511,236,98615,1,2,2:0:0:0:
511,236,98837,6,0,L|446:247,1,58.4999999999999,10|2,2:1|2:0,0:0:0:0:
302,366,99282,2,0,L|237:377,1,58.4999999999999,10|2,2:1|2:0,0:0:0:0:
346,63,99726,5,12,1:3:0:0:
256,98,99948,1,0,0:0:0:0:
432,233,100171,5,2,1:0:0:0:
428,215,100282,2,0,L|418:157,1,45,2|8,2:0|2:0,0:0:0:0:
346,63,100615,5,10,1:0:0:0:
342,81,100726,2,0,L|332:139,1,45,2|2,0:0|2:0,0:0:0:0:
140,255,101059,6,0,P|195:191|310:249,1,202.5,2|0,1:0|0:0,0:0:0:0:
231,309,101504,5,2,1:0:0:0:
235,327,101615,2,0,L|245:385,1,45,2|2,2:0|2:0,0:0:0:0:
296,221,101948,6,0,P|207:187|140:255,1,202.5,10|0,1:0|0:0,0:0:0:0:
95,377,102393,6,0,L|91:317,1,45,10|0,2:0|0:0,0:0:0:0:
28,176,102615,2,0,L|9:271,1,67.5,12|0,1:3|0:0,0:0:0:0:
102,133,102837,2,0,L|96:107,4,16.875,10|2|2|2|2,2:0|2:0|2:0|2:0|3:0,0:0:0:0:
102,133,103282,6,0,P|134:105|178:104,1,67.5,12|0,1:3|0:0,0:0:0:0:
284,187,103504,2,0,P|261:182|242:172,1,45,2|0,2:0|2:0,0:0:0:0:
173,298,103726,1,2,1:0:0:0:
171,276,103837,2,0,L|167:215,1,45,2|8,2:0|2:0,0:0:0:0:
240,374,104171,6,0,P|290:317|411:350,1,202.5,10|0,1:0|2:0,0:0:0:0:
394,232,104615,5,2,1:0:0:0:
392,252,104726,2,0,L|386:307,1,45,2|2,0:0|2:0,0:0:0:0:
488,157,105059,5,2,1:0:0:0:
490,177,105171,2,0,L|496:232,1,45,2|2,2:0|2:0,0:0:0:0:
386,69,105504,5,10,1:0:0:0:
384,89,105615,2,0,L|378:144,1,45,2|2,2:0|2:0,0:0:0:0:
380,134,105948,6,0,L|322:125,1,33.7500000000001,2|0,2:1|2:0,0:0:0:0:
119,212,106171,2,0,L|60:202,1,33.7500000000001,2|0,2:1|2:0,0:0:0:0:
97,306,106393,6,0,L|155:296,1,33.7500000000001,2|0,2:1|2:0,0:0:0:0:
258,197,106615,2,0,L|316:206,1,33.7500000000001,2|0,2:1|2:0,0:0:0:0:
251,324,106837,6,0,P|242:243|178:59,1,270,12|2,2:3|2:0,0:0:0:0:
256,192,107393,12,0,108948,0:0:0:0:
199,247,109059,6,0,L|153:241,2,33.7500000000001,12|2|2,2:3|2:0|2:0,0:0:0:0:
199,246,110393,6,0,P|230:235|298:224,1,67.5,12|0,2:3|0:0,0:0:0:0:
339,150,110615,2,0,P|358:152|386:158,1,45,0|0,2:0|2:0,0:0:0:0:
470,222,110837,2,0,P|460:225|451:231,3,16.875,2|2|2|2,2:0|2:0|2:0|2:0,0:0:0:0:
454,228,111059,6,0,P|472:182|488:88,2,135,12|8|2,1:3|1:0|2:0,0:0:0:0:
454,228,111726,2,0,P|414:216|380:212,1,67.5,12|0,2:3|0:0,0:0:0:0:
324,294,111948,2,0,P|294:305|265:305,1,45,2|0,2:0|2:0,0:0:0:0:
180,142,112171,6,0,B|210:171|210:171|187:210|187:210|182:259,1,135,2|0,2:0|2:0,0:0:0:0:
73,368,112615,5,2,2:1:0:0:
76,352,112726,1,2,2:1:0:0:
61,329,112837,5,2,2:1:0:0:
64,313,112948,1,2,2:1:0:0:
54,286,113059,5,10,1:0:0:0:
87,200,121059,6,0,P|149:172|344:131,1,263.25,2|2,2:0|2:0,0:0:0:0:
447,286,122171,1,2,2:0:0:0:
472,278,122282,2,0,P|434:221|352:267,1,175.5,2|0,2:0|2:0,0:0:0:0:
324,371,123059,1,2,2:0:0:0:
306,354,123171,2,0,P|285:343|276:340,1,29.25,2|2,2:0|2:0,0:0:0:0:
196,348,123393,2,0,L|166:356,1,29.25,2|2,2:0|2:0,0:0:0:0:
90,287,123615,6,0,P|121:304|66:381,1,146.25,2|2,2:0|2:0,0:0:0:0:
6,229,124393,1,2,2:0:0:0:
120,141,124615,6,0,B|214:117|171:211|269:186|269:186|219:178|202:129,1,263.25,2|2,2:0|2:0,0:0:0:0:
341,125,125726,1,2,2:0:0:0:
339,96,125837,2,0,P|308:125|270:292,1,204.75,2|2,2:0|2:0,0:0:0:0:
392,325,126726,1,2,2:0:0:0:
381,313,126837,2,0,P|364:306|336:300,1,29.25,2|2,2:0|2:0,0:0:0:0:
248,365,127059,1,2,2:0:0:0:
233,376,127171,2,0,P|204:385|117:238,1,234,2|2,2:0|2:0,0:0:0:0:
188,182,128171,5,14,1:3:0:0:
188,182,129059,6,0,L|270:193,3,58.4999999999999,2|2|2|2,2:0|2:0|2:0|2:0,0:0:0:0:
309,270,129948,2,0,B|322:247|386:176|456:199|456:242|456:242|388:223|333:267,1,292.5,14|0,1:3|2:0,0:0:0:0:
352,263,131504,1,0,2:0:0:0:
270,375,131726,5,14,1:3:0:0:
270,375,132615,2,0,L|255:303,3,58.4999999999999,2|2|2|2,2:0|2:0|2:0|2:0,0:0:0:0:
90,140,133504,6,0,B|127:124|145:148|145:148|102:203|51:188|51:188|146:203|156:346,1,351,14|0,1:3|0:0,0:0:0:0:
221,206,135282,5,14,1:3:0:0:
221,206,136171,6,0,L|305:217,3,58.4999999999999,2|2|2|2,2:0|2:0|2:0|2:0,0:0:0:0:
357,70,137059,5,14,1:3:0:0:
391,164,137282,1,0,0:0:0:0:
446,71,137504,1,0,0:0:0:0:
291,134,137726,2,0,L|232:126,1,58.4999999999999,0|0,0:0|2:0,0:0:0:0:
221,117,138171,1,0,2:0:0:0:
108,191,138615,1,0,2:0:0:0:
43,120,138837,6,0,B|78:135|87:177|87:177|95:109|153:95,1,175.5,14|0,1:3|0:0,0:0:0:0:
190,250,139726,6,0,L|178:180,3,58.4999999999999,2|2|2|2,2:0|2:0|2:0|2:0,0:0:0:0:
390,344,140615,6,0,B|247:288|133:371|133:371|250:332|329:389,1,467.999999999999,14|14,1:3|1:3,0:0:0:0:
352,270,143948,6,0,B|337:238|319:229|301:249|282:248|256:234|246:203|246:203|229:226|206:227|190:201|212:182|162:178|133:160|76:192|97:247,1,350.999983932496,2|0,1:0|0:0,0:0:0:0:
102,255,145393,6,0,L|95:281,21,14.625,2|0|0|0|0|0|0|0|0|0|0|0|0|0|0|0|0|0|0|0|0|0,2:0|2:0|0:0|2:0|2:0|0:0|0:0|0:0|0:0|0:0|0:0|0:0|0:0|0:0|0:0|0:0|0:0|0:0|0:0|0:0|0:0|0:0,0:0:0:0:
256,192,146615,12,0,148282,2:1:0:0:
