osu file format v14

[General]
AudioFilename: audio.mp3
AudioLeadIn: 0
PreviewTime: 14282
Countdown: 0
SampleSet: Soft
StackLeniency: 0.2
Mode: 0
LetterboxInBreaks: 0
WidescreenStoryboard: 0

[Editor]
DistanceSpacing: 1.2
BeatDivisor: 8
GridSize: 16
TimelineZoom: 4.499998

[Metadata]
Title:claws
TitleUnicode:claws
Artist:Charli XCX
ArtistUnicode:Charli XCX
Creator:anfeargorm
Version:<3
Source:
Tags:Aphestra Skidooskei Skid HMF HatsuneMikuFEET Hatsune Miku FEET Nina Kosaka Nina_Kosaka ABSOLUTE EPIC 4 ABSOLUTE_EPIC_4 hyperpop electropop glitch pop english how i'm feeling now im i am
BeatmapID:3173785
BeatmapSetID:1458874

[Difficulty]
HPDrainRate:5.2
CircleSize:4.2
OverallDifficulty:8.5
ApproachRate:9.3
SliderMultiplier:1.8
SliderTickRate:1

[Events]
//Background and Video events
0,0,"hello UwU.jpg",0,0
//Break Periods
2,114147,120489
//Storyboard Layer 0 (Background)
//Storyboard Layer 1 (Fail)
//Storyboard Layer 2 (Pass)
//Storyboard Layer 3 (Foreground)
//Storyboard Layer 4 (Overlay)
//Storyboard Sound Samples

[TimingPoints]
171,444.444444444444,4,2,69,40,1,0
171,-333.333333333333,4,2,69,40,0,0
2393,-250,4,2,69,40,0,0
4171,-200,4,2,69,40,0,0
7282,-166.666666666667,4,2,69,40,0,0
14393,-66.6666666666667,4,2,69,60,0,0
15282,-100,4,2,69,60,0,0
15726,-66.6666666666667,4,2,69,60,0,0
17504,-100,4,2,69,60,0,0
17948,-66.6666666666667,4,2,69,60,0,0
18837,-100,4,2,69,60,0,0
19282,-66.6666666666667,4,2,69,60,0,0
19726,-100,4,2,69,60,0,0
20171,-66.6666666666667,4,2,69,60,0,0
21948,-100,4,2,69,60,0,0
22837,-66.6666666666667,4,2,69,60,0,0
23059,-50,4,2,69,60,0,0
23282,-100,4,2,69,60,0,0
23726,-66.6666666666667,4,2,69,60,0,0
24615,-100,4,2,69,60,0,0
25059,-50,4,2,69,60,0,0
25726,-66.6666666666667,4,2,69,60,0,0
25948,-100,4,2,69,60,0,0
26393,-66.6666666666667,4,2,69,60,0,0
26837,-100,4,2,69,60,0,0
27726,-66.6666666666667,4,2,69,60,0,0
28615,-28.5714285714286,4,2,71,70,0,1
29059,-58.8235294117647,4,2,69,80,0,0
29948,-76.9230769230769,4,2,69,80,0,0
31282,-45.4545454545455,4,2,69,80,0,0
31504,-58.8235294117647,4,2,69,80,0,0
32171,-45.4545454545455,4,2,69,80,0,0
32615,-71.4285714285714,4,2,69,80,0,0
33059,-90.9090909090909,4,2,69,80,0,0
33282,-125,4,2,69,80,0,0
33504,-166.666666666667,4,2,69,80,0,0
33726,-200,4,2,69,80,0,0
33948,-250,4,2,69,80,0,0
34171,-333.333333333333,4,2,69,80,0,0
35726,-45.4545454545455,4,2,69,80,0,0
36170,-58.8235294117647,4,2,69,80,0,0
37059,-76.9230769230769,4,2,69,80,0,0
38393,-45.4545454545455,4,2,69,80,0,0
38615,-58.8235294117647,4,2,69,80,0,0
39282,-45.4545454545455,4,2,69,80,0,0
39726,-71.4285714285714,4,2,69,80,0,0
40171,-90.9090909090909,4,2,69,80,0,0
40393,-125,4,2,69,80,0,0
40615,-166.666666666667,4,2,69,80,0,0
40837,-200,4,2,69,80,0,0
41059,-250,4,2,69,80,0,0
41282,-333.333333333333,4,2,69,80,0,0
42171,-100,4,2,69,80,0,0
42837,-333.333333333333,4,2,70,40,0,0
45504,-333.333333333333,4,2,70,50,0,0
53059,-285.714285714286,4,2,70,50,0,0
53504,-250,4,2,70,50,0,0
56171,-222.222222222222,4,2,70,50,0,0
56393,-200,4,2,70,50,0,0
56615,-166.666666666667,4,2,70,50,0,0
56837,-142.857142857143,4,2,70,50,0,0
57059,-40,4,2,70,60,0,0
57282,-40,4,2,69,60,0,0
57504,-83.3333333333333,4,2,69,60,0,0
57948,-50,4,2,69,60,0,0
58171,-66.6666666666667,4,2,69,60,0,0
58393,-40,4,2,69,60,0,0
59726,-50,4,2,71,60,0,0
59948,-40,4,2,69,60,0,0
60171,-100,4,2,69,60,0,0
60615,-40,4,2,69,60,0,0
60837,-66.6666666666667,4,2,69,60,0,0
61059,-83.3333333333333,4,2,69,60,0,0
61282,-40,4,2,69,60,0,0
61504,-50,4,2,69,60,0,0
61726,-66.6666666666667,4,2,69,60,0,0
61948,-40,4,2,69,60,0,0
63282,-142.857142857143,4,2,69,60,0,0
64171,-40,4,2,69,60,0,0
64615,-83.3333333333333,4,2,69,60,0,0
65059,-50,4,2,69,60,0,0
65282,-66.6666666666667,4,2,69,60,0,0
65504,-40,4,2,69,60,0,0
65948,-66.6666666666667,4,2,69,60,0,0
66837,-50,4,2,69,60,0,0
67059,-40,4,2,69,60,0,0
67282,-83.3333333333333,4,2,69,60,0,0
67726,-40,4,2,69,60,0,0
68171,-83.3333333333333,4,2,69,60,0,0
68393,-40,4,2,69,60,0,0
68615,-50,4,2,69,60,0,0
69059,-40,4,2,69,60,0,0
69282,-66.6666666666667,4,2,69,60,0,0
71282,-25,4,2,71,70,0,1
71726,-40,4,2,69,80,0,0
72615,-28.5714285714286,4,2,69,80,0,0
73059,-66.6666666666667,4,2,69,80,0,0
73504,-28.5714285714286,4,2,69,80,0,0
73948,-40,4,2,69,80,0,0
74171,-28.5714285714286,4,2,69,80,0,0
74393,-66.6666666666667,4,2,69,80,0,0
74837,-28.5714285714286,4,2,69,80,0,0
75059,-66.6666666666667,4,2,69,80,0,0
75282,-40,4,2,69,80,0,0
75504,-28.5714285714286,4,2,69,80,0,0
75726,-40,4,2,69,80,0,0
75948,-66.6666666666667,4,2,69,80,0,0
76171,-28.5714285714286,4,2,69,80,0,0
76393,-66.6666666666667,4,2,69,80,0,0
77059,-40,4,2,69,80,0,0
77282,-66.6666666666667,4,2,69,80,0,0
77504,-40,4,2,69,80,0,0
77726,-50,4,2,69,80,0,0
77948,-100,4,2,69,80,0,0
78393,-28.5714285714286,4,2,69,80,0,0
78837,-40,4,2,69,80,0,0
79726,-28.5714285714286,4,2,69,80,0,0
80171,-66.6666666666667,4,2,69,80,0,0
80615,-28.5714285714286,4,2,69,80,0,0
81059,-40,4,2,69,80,0,0
81282,-28.5714285714286,4,2,69,80,0,0
81504,-66.6666666666667,4,2,69,80,0,0
81948,-28.5714285714286,4,2,69,80,0,0
82171,-66.6666666666667,4,2,69,80,0,0
82615,-28.5714285714286,4,2,69,80,0,0
82837,-40,4,2,69,80,0,0
83059,-66.6666666666667,4,2,69,80,0,0
83282,-28.5714285714286,4,2,69,80,0,0
83504,-66.6666666666667,4,2,69,80,0,0
84171,-40,4,2,69,80,0,0
84393,-66.6666666666667,4,2,69,80,0,0
84615,-40,4,2,69,80,0,0
84837,-50,4,2,69,80,0,0
85059,-100,4,2,71,70,0,0
85282,-100,4,2,70,80,0,0
85504,-333.333333333333,4,2,70,40,0,0
88171,-333.333333333333,4,2,70,50,0,0
93504,-200,4,2,70,50,0,0
98837,-100,4,2,70,50,0,0
99282,-55.5555555555556,4,2,70,50,0,0
99726,-25,4,2,70,90,0,1
100170,-50,4,2,70,90,0,0
100282,-50,4,2,69,90,0,0
100615,-33.3333333333333,4,2,69,90,0,0
101059,-25,4,2,69,90,0,0
101504,-50,4,2,69,90,0,0
102393,-33.3333333333333,4,2,69,90,0,0
102615,-25,4,2,69,90,0,0
102837,-50,4,2,69,90,0,0
103282,-25,4,2,69,90,0,0
103504,-50,4,2,69,90,0,0
103948,-25,4,2,69,90,0,0
104171,-33.3333333333333,4,2,69,90,0,0
104393,-50,4,2,69,90,0,0
104615,-25,4,2,69,90,0,0
104837,-50,4,2,69,90,0,0
105504,-25,4,2,69,90,0,0
105948,-100,4,2,69,90,0,0
106837,-25,4,2,69,90,0,0
107059,-50,4,2,69,90,0,0
107282,-100,4,2,69,70,0,0
107726,-400,4,2,69,70,0,0
109059,-200,4,2,69,70,0,0
110393,-28.5714285714286,4,2,69,90,0,0
110615,-66.6666666666667,4,2,69,90,0,0
111059,-28.5714285714286,4,2,69,90,0,0
111726,-33.3333333333333,4,2,69,90,0,0
111948,-66.6666666666667,4,2,69,90,0,0
113059,-500,4,2,69,90,0,0
121059,-125,4,2,69,50,0,0
122837,-90.9090909090909,4,2,69,50,0,0
124615,-71.4285714285714,4,2,69,60,0,0
126393,-58.8235294117647,4,2,69,60,0,0
128171,-100,4,2,69,70,0,0
129059,-100,4,2,70,70,0,0
142392,-100,4,2,70,50,0,0
143948,-100,4,2,70,90,0,0
146615,-71.4285714285714,4,2,69,80,0,0
147282,-71.4285714285714,4,2,69,70,0,0
147726,-71.4285714285714,4,2,69,60,0,0

[Colours]
Combo1 : 170,255,255
Combo2 : 0,183,183
Combo3 : 0,234,234

[HitObjects]
47,152,171,6,0,P|72:153|271:179,1,216,2|2,3:2|3:2,2:0:0:0:
286,234,2393,2,0,P|268:224|266:169,2,72,2|2|2,2:1|2:1|2:1,2:0:0:0:
436,74,3726,5,2,3:2:0:0:
425,83,4171,2,0,P|416:115|367:351,1,270,2|2,2:1|3:2,2:0:0:0:
405,380,5948,2,0,P|396:346|380:336,1,45,2|0,2:1|2:0,2:0:0:0:
225,350,6393,1,2,3:1:0:0:
236,357,6504,1,2,3:2:0:0:
284,313,6615,6,0,P|255:315|237:325,2,45,10|2|2,3:2|3:1|3:2,2:0:0:0:
118,333,7282,6,0,P|128:304|132:277,1,53.9999999999999,2|2,3:1|2:1,2:0:0:0:
118,333,7726,2,0,P|128:304|132:277,1,53.9999999999999,2|2,2:1|2:1,2:0:0:0:
22,151,8171,2,0,P|41:177|117:177,1,108,2|2,2:0|2:1,2:0:0:0:
152,92,9059,5,2,3:2:0:0:
152,92,9504,2,0,B|205:98|236:81|236:81|265:107|265:107|321:99|360:126,1,216,2|2,2:0|2:0,2:0:0:0:
363,135,10615,1,2,2:0:0:0:
415,275,10837,5,2,2:0:0:0:
157,169,11282,6,0,P|174:134|201:112,1,53.9999999999999,2|0,2:1|2:0,2:0:0:0:
184,260,11726,2,0,P|216:238|250:232,1,53.9999999999999,2|2,2:1|2:0,2:0:0:0:
162,353,12171,2,0,P|201:351|233:362,1,53.9999999999999,2|2,2:1|2:0,2:0:0:0:
162,353,13282,2,0,P|201:351|233:362,1,53.9999999999999,2|0,2:1|2:0,2:0:0:0:
442,310,14393,6,0,P|415:288|312:276,1,135,12|2,1:3|2:0,2:0:0:0:
512,0,14837,2,0,P|462:69|413:211,1,202.5,2|0,2:0|2:0,2:0:0:0:
370,120,15282,6,0,P|403:108|442:109,1,45,8|0,1:0|2:0,2:0:0:0:
279,128,15504,2,0,P|245:116|206:117,1,45,2|0,2:0|2:0,2:0:0:0:
149,360,15726,6,0,B|211:271|326:299|326:299|290:313|276:347,1,270,12|2,1:3|2:0,2:0:0:0:
363,380,16393,1,2,2:0:0:0:
279,128,16615,6,0,P|190:153|19:262,1,270,12|8,1:3|1:0,2:0:0:0:
209,8,17282,2,0,P|242:11|275:20,1,67.5,12|0,1:3|2:0,2:0:0:0:
405,184,17504,2,0,P|348:219|306:272,1,135,2|0,2:0|2:0,2:0:0:0:
363,380,17948,6,0,P|363:305|300:296,1,135,12|2,1:3|2:0,2:0:0:0:
164,365,18393,1,2,2:0:0:0:
182,384,18615,2,0,P|196:349|190:310,1,67.5,12|0,1:3|2:0,2:0:0:0:
60,66,18837,2,0,P|68:110|73:154,1,90,8|2,1:0|2:0,2:0:0:0:
7,366,19282,6,0,P|43:300|177:237,1,202.5,12|0,1:3|2:0,2:0:0:0:
182,269,19726,6,0,P|154:246|148:224,1,45,2|0,2:0|2:0,2:0:0:0:
172,124,19948,2,0,P|205:111|227:117,1,45,2|0,2:0|2:0,2:0:0:0:
480,93,20171,6,0,B|395:76|352:143|387:148|353:218|256:203,1,270,12|2,1:3|2:0,2:0:0:0:
258,204,21504,6,0,P|308:257|325:326,1,135,12|2,1:3|2:0,2:0:0:0:
25,366,21948,2,0,P|109:322|201:304,1,180,2|8,2:0|1:0,2:0:0:0:
204,318,22615,1,2,2:0:0:0:
80,58,22837,2,0,P|54:73|33:110,1,67.5,12|0,1:3|2:0,2:0:0:0:
191,304,23059,2,0,P|199:261|182:215,1,90,2|0,2:3|2:0,2:0:0:0:
31,324,23282,6,0,P|86:294|146:282,1,90,2|2,2:0|2:0,2:0:0:0:
282,61,23726,6,0,P|245:143|202:337,1,270,12|8,1:3|1:0,2:0:0:0:
451,192,24393,2,0,P|419:210|392:236,1,67.5,12|0,1:3|2:0,2:0:0:0:
340,384,24615,6,0,P|332:324|309:281,1,90,2|2,2:0|2:0,2:0:0:0:
6,192,25059,6,0,B|89:209|143:146|143:146|217:175|236:239|236:239|265:207|305:204,1,360,12|2,1:3|2:0,2:0:0:0:
119,327,25726,2,0,P|139:300|153:269,1,67.5,12|0,1:3|2:0,2:0:0:0:
38,16,25948,6,0,L|66:182,1,135,8|0,1:0|2:0,2:0:0:0:
122,166,26393,6,0,P|84:164|58:146,1,67.5,12|0,1:3|2:0,2:0:0:0:
190,63,26615,2,0,P|218:45|251:45,1,67.5,2|0,2:0|2:0,2:0:0:0:
176,340,26837,6,0,P|188:267|264:148,1,180,2|12,2:0|1:3,2:0:0:0:
238,174,27726,2,0,B|295:135|295:135|383:148|383:148|400:112|400:112|480:106,1,270,2|2,2:0|2:0,2:0:0:0:
472,107,28615,6,0,B|401:91|361:89|311:126|396:172|308:177|238:161|227:161|222:87|281:111|291:-54|145:-34|134:48,1,472.499999999999,14|0,1:3|2:0,2:0:0:0:
135,44,29059,6,0,L|146:107,2,38.25,8|2|2,2:0|2:0|2:0,2:0:0:0:
0,365,29282,2,0,L|16:253,1,76.5,8|0,2:0|2:0,2:0:0:0:
147,119,29504,6,0,L|135:44,1,76.5,8|0,1:0|2:0,2:0:0:0:
0,365,29726,2,0,L|13:285,1,76.5,8|0,2:0|2:0,2:0:0:0:
220,222,29948,6,0,L|210:296,1,58.5,12|0,1:3|2:0,2:0:0:0:
370,384,30171,2,0,L|360:308,1,58.5,8|0,2:0|2:0,2:0:0:0:
220,222,30393,2,0,L|210:296,1,58.5,8|0,2:0|2:0,2:0:0:0:
370,384,30615,2,0,L|360:308,1,58.5,8|0,2:0|2:0,2:0:0:0:
410,60,30837,5,12,1:3:0:0:
372,150,30948,1,2,2:0:0:0:
410,60,31059,1,8,2:0:0:0:
491,329,31282,6,0,P|463:285|407:257,1,98.9999999999999,8|0,1:0|2:0,2:0:0:0:
183,335,31504,2,0,P|233:313|251:294,1,76.5,12|0,1:3|2:0,2:0:0:0:
278,89,31726,2,0,P|280:114|296:135,3,38.25,2|2|2|2,2:0|2:0|2:0|2:0,2:0:0:0:
278,89,31948,2,0,P|298:142|321:159,1,76.5,2|0,2:0|2:0,2:0:0:0:
29,310,32171,6,0,B|102:214|214:256|214:256|181:294|184:336,1,297,12|0,2:3|2:0,2:0:0:0:
359,358,32615,6,0,L|365:325,2,31.5,8|2|2,2:0|2:0|2:0,2:0:0:0:
235,79,32837,2,0,L|245:166,1,63,12|0,1:3|2:0,2:0:0:0:
366,309,33059,6,0,L|359:358,1,49.5,8|0,1:0|2:0,2:0:0:0:
235,79,33282,2,0,L|240:128,1,36,8|0,2:0|2:0,2:0:0:0:
18,353,33504,6,0,L|23:327,1,26.9999999999999,12|0,1:3|2:0,2:0:0:0:
141,207,33726,2,0,L|146:234,1,22.5,8|0,2:0|2:0,2:0:0:0:
24,327,33948,2,0,L|29:306,1,18,8|0,2:0|2:0,2:0:0:0:
146,230,34171,2,0,L|150:247,1,13.5,8|0,2:0|2:0,2:0:0:0:
131,109,34393,5,12,1:3:0:0:
131,109,34504,1,2,2:0:0:0:
131,109,34615,1,8,2:0:0:0:
131,109,34837,2,0,L|161:104,3,27,2|2|2|2,2:0|2:0|2:0|2:0,2:0:0:0:
262,142,35726,6,0,B|283:105|265:61|265:61|373:4|470:117,1,297,12|0,1:3|2:0,2:0:0:0:
320,341,36170,6,0,L|314:379,2,38.2500007295609,8|2|2,2:0|2:0|2:0,2:0:0:0:
163,61,36393,2,0,L|180:165,1,76.5,8|0,2:0|2:0,2:0:0:0:
327,303,36615,6,0,L|314:379,1,76.5,8|0,1:0|2:0,2:0:0:0:
163,61,36837,2,0,L|180:165,1,76.5,8|0,2:0|2:0,2:0:0:0:
27,373,37059,6,0,L|18:314,1,58.5,12|0,1:3|2:0,2:0:0:0:
177,231,37282,2,0,L|168:288,1,58.5,8|0,2:0|2:0,2:0:0:0:
27,373,37504,2,0,L|18:314,1,58.5,8|0,2:0|2:0,2:0:0:0:
177,231,37726,2,0,L|168:288,1,58.5,8|0,2:0|2:0,2:0:0:0:
465,344,37948,5,12,1:3:0:0:
436,239,38059,1,2,2:0:0:0:
465,344,38171,1,8,2:0:0:0:
188,44,38393,6,0,P|244:93|290:103,1,98.9999999999999,8|0,1:0|2:0,2:0:0:0:
421,17,38615,2,0,P|373:23|345:39,1,76.5,12|0,1:3|2:0,2:0:0:0:
247,355,38837,2,0,P|248:331|239:296,3,38.25,2|2|2|2,2:0|2:0|2:0|2:0,2:0:0:0:
247,355,39059,2,0,P|247:321|236:276,1,76.5,2|0,2:0|2:0,2:0:0:0:
0,238,39282,6,0,B|68:170|190:187|190:187|141:215|131:276,1,297,12|0,2:3|2:0,2:0:0:0:
428,356,39726,6,0,L|419:308,2,31.5,8|2|2,2:0|2:0|2:0,2:0:0:0:
360,119,39948,2,0,L|349:180,1,63,12|0,1:3|2:0,2:0:0:0:
419,307,40171,6,0,L|428:356,1,49.5,8|0,1:0|2:0,2:0:0:0:
360,119,40393,2,0,L|354:154,1,36,8|0,2:0|2:0,2:0:0:0:
158,384,40615,6,0,L|154:357,1,26.9999999999999,12|0,1:3|2:0,2:0:0:0:
280,252,40837,2,0,L|276:274,1,22.5,8|0,2:0|2:0,2:0:0:0:
154,357,41059,2,0,L|151:335,1,18,8|0,2:0|2:0,2:0:0:0:
276,274,41282,2,0,L|273:291,1,13.5,8|0,2:0|2:0,2:0:0:0:
45,313,41504,5,12,1:3:0:0:
45,313,41615,1,2,2:0:0:0:
45,313,41726,1,8,2:0:0:0:
45,313,41948,6,0,L|42:297,1,13.5,2|0,2:0|2:0,2:0:0:0:
54,44,42171,2,0,B|16:125|16:125|95:63,1,180,8|2,2:0|2:0,2:0:0:0:
190,9,42837,6,0,B|262:-23|346:21|346:21|290:41|290:41,1,216,10|0,2:0|3:0,2:0:0:0:
296,39,45504,6,0,P|288:54|287:69,1,27,10|2,2:0|2:0,2:0:0:0:
355,126,45948,2,0,P|363:141|364:156,1,27,2|2,2:0|2:0,2:0:0:0:
290,234,46393,6,0,P|257:225|229:222,1,54.0000000000001,2|2,3:2|2:0,2:0:0:0:
151,281,47059,1,2,2:0:0:0:
135,272,47282,2,0,L|144:210,1,54.0000000000001,10|2,2:0|2:0,2:0:0:0:
80,138,47948,1,2,2:0:0:0:
67,123,48171,6,0,P|44:113|8:110,1,54.0000000000001,2|2,3:2|2:0,2:0:0:0:
145,67,48837,1,2,2:0:0:0:
158,52,49059,2,0,P|178:46|193:45,3,27,10|2|2|2,2:0|2:0|2:0|2:0,2:0:0:0:
275,217,49948,6,0,B|237:130|298:70|298:70|291:102|303:127,1,216,2|2,3:2|3:2,2:0:0:0:
405,102,52615,6,0,P|384:94|375:92,1,27,10|2,2:0|2:0,2:0:0:0:
459,180,53059,2,0,P|480:172|493:169,1,31.5,2|2,2:0|2:0,2:0:0:0:
397,323,53504,6,0,P|395:300|361:266,1,72,2|2,3:2|2:0,2:0:0:0:
264,344,54171,1,2,2:0:0:0:
193,303,54393,2,0,P|218:308|261:338,1,72,10|2,2:0|2:0,2:0:0:0:
89,362,55059,1,2,2:0:0:0:
53,273,55282,6,0,B|68:213|16:230|33:167,1,108,2|2,3:2|2:0,2:0:0:0:
212,115,56171,6,0,P|200:125|190:127,1,20.25,10|0,2:0|2:0,2:0:0:0:
151,98,56393,6,0,P|166:103|175:113,1,22.5,10|0,2:0|2:0,2:0:0:0:
145,207,56615,6,0,P|136:191|133:179,1,26.9999999999999,10|0,2:0|2:0,2:0:0:0:
295,47,56837,6,0,P|289:65|276:83,1,31.5,10|0,2:0|2:0,2:0:0:0:
216,41,57059,6,0,P|322:5|392:1,1,168.75,12|0,1:3|2:0,2:0:0:0:
388,17,57282,1,2,2:0:0:0:
475,170,57504,2,0,P|470:187|468:212,4,27,2|2|2|2|2,2:0|2:0|2:0|2:0|2:0,2:0:0:0:
469,41,57948,6,0,P|427:15|384:18,1,90,8|0,1:0|2:0,2:0:0:0:
371,133,58171,2,0,P|329:159|294:156,1,67.5,2|0,2:0|2:0,2:0:0:0:
105,87,58393,6,0,B|77:8|176:-35|281:10|187:204,1,337.5,12|0,1:3|2:0,2:0:0:0:
153,261,58837,5,2,2:0:0:0:
153,261,59059,1,2,2:0:0:0:
2,100,59282,5,12,1:3:0:0:
50,168,59393,1,2,2:0:0:0:
14,83,59504,1,2,2:0:0:0:
10,345,59726,6,0,P|52:328|97:327,1,90,8|0,1:0|2:0,2:0:0:0:
409,315,59948,2,0,P|377:276|256:266,1,168.75,12|0,1:3|2:0,2:0:0:0:
256,284,60171,2,0,L|253:310,3,22.5,2|2|2|2,2:0|2:0|2:0|2:0,2:0:0:0:
358,127,60615,6,0,P|300:103|163:91,1,168.75,12|0,1:3|2:0,2:0:0:0:
204,169,60837,2,0,P|228:133|219:104,1,67.5,2|0,2:0|2:0,2:0:0:0:
14,83,61059,2,0,P|22:98|28:110,3,27,2|2|2|2,2:0|2:0|2:0|2:0,2:0:0:0:
14,83,61282,6,0,P|42:141|67:289,1,168.75,14|0,1:3|2:0,2:0:0:0:
10,300,61504,2,0,P|17:252|55:218,1,90,8|0,1:0|2:0,2:0:0:0:
151,193,61726,2,0,P|198:196|221:213,1,67.5,2|0,2:0|2:0,2:0:0:0:
92,378,61948,6,0,B|138:290|226:298|226:298|211:338|231:372,1,225,12|0,1:3|2:0,2:0:0:0:
316,332,62393,5,2,2:0:0:0:
316,332,62615,1,2,2:0:0:0:
414,170,62837,5,12,1:3:0:0:
407,268,62948,1,2,2:0:0:0:
436,186,63059,1,2,2:0:0:0:
436,186,63282,6,0,P|441:151|465:122,2,62.9999999999999,2|2|2,2:0|2:0|2:0,2:0:0:0:
276,40,64171,6,0,P|308:109|326:223,1,168.75,12|0,1:3|2:0,2:0:0:0:
313,212,64393,1,2,2:0:0:0:
143,117,64615,2,0,P|156:113|175:111,4,27,2|2|2|2|2,2:0|2:0|2:0|2:0|2:0,2:0:0:0:
285,328,65059,6,0,P|268:277|250:236,1,90,8|0,1:0|2:0,2:0:0:0:
133,380,65282,2,0,P|153:333|165:298,1,67.5,2|0,2:0|2:0,2:0:0:0:
358,39,65504,6,0,B|430:23|474:81|474:81|360:55|275:105,1,337.5,12|0,1:3|2:0,2:0:0:0:
463,201,65948,6,0,P|425:176|402:168,1,67.5,2|0,2:0|2:0,2:0:0:0:
254,244,66171,2,0,P|292:219|315:211,1,67.5,2|0,2:0|2:0,2:0:0:0:
467,349,66393,5,12,1:3:0:0:
401,263,66504,1,2,2:0:0:0:
442,344,66615,1,2,2:0:0:0:
358,39,66837,6,0,P|296:19|254:15,1,90,8|0,1:0|2:0,2:0:0:0:
225,84,67059,2,0,P|293:67|373:58,1,112.5,12|0,1:3|2:0,2:0:0:0:
254,244,67282,2,0,P|226:235|212:233,3,27,2|2|2|2,2:0|2:0|2:0|2:0,2:0:0:0:
254,244,67504,2,0,P|226:235|178:233,1,54,2|0,2:0|2:0,2:0:0:0:
3,373,67726,6,0,B|14:223|116:187|116:187|81:241|117:304,1,337.5,12|0,1:3|2:0,2:0:0:0:
377,68,68171,2,0,P|348:74|335:79,3,27,2|2|2|2,2:0|2:0|2:0|2:0,2:0:0:0:
377,68,68393,2,0,P|348:74|266:127,1,112.5,12|0,3:0|2:0,2:0:0:0:
93,31,68615,2,0,P|139:42|182:68,1,90,8|0,1:0|2:0,2:0:0:0:
188,81,68837,1,0,2:0:0:0:
109,288,69059,6,0,P|140:215|243:225,1,168.75,12|0,1:3|2:0,2:0:0:0:
252,259,69282,2,0,P|219:227|196:218,1,67.5,2|0,2:0|2:0,2:0:0:0:
326,342,69504,6,0,B|403:314|378:386|475:362,1,135,2|0,2:0|2:0,2:0:0:0:
457,108,69948,5,12,1:3:0:0:
428,207,70059,1,2,2:0:0:0:
465,132,70171,1,2,2:0:0:0:
465,132,70393,6,0,B|391:112|391:112|368:127|368:127|302:71|302:71|208:79,1,270,2|2,2:0|2:0,2:0:0:0:
222,77,71282,6,0,B|283:341|146:293|139:351|151:414|201:401|294:399|167:258|372:206|398:304|397:392|300:425|297:341,1,540,14|0,2:3|2:0,2:0:0:0:
340,371,71726,6,0,P|327:348|338:310,3,56.25,8|2|2|2,2:0|2:0|2:0|2:0,2:0:0:0:
417,239,71948,1,8,2:0:0:0:
417,239,72171,6,0,L|294:224,1,112.5,8|0,1:0|2:0,2:0:0:0:
17,193,72393,1,8,2:0:0:0:
17,193,72615,6,0,L|273:161,1,236.25,12|0,1:3|2:0,2:0:0:0:
333,151,72837,1,8,2:0:0:0:
333,151,73059,6,0,L|254:144,1,67.5,8|0,2:0|2:0,2:0:0:0:
112,133,73282,1,8,2:0:0:0:
112,133,73504,6,0,L|268:113,1,157.5,12|2,1:3|2:0,2:0:0:0:
428,89,73726,1,8,2:0:0:0:
428,89,73948,6,0,P|470:124|482:178,1,112.5,8|0,1:0|2:0,2:0:0:0:
317,358,74171,6,0,P|330:280|388:228,1,157.5,12|0,1:3|2:0,2:0:0:0:
504,273,74393,6,0,P|488:278|472:273,3,33.75,2|2|2|2,2:0|2:0|2:0|2:0,2:0:0:0:
466,226,74615,2,0,P|499:246|501:280,1,67.5,2|0,2:0|2:0,2:0:0:0:
389,313,74837,6,0,P|288:247|159:216,1,236.25,12|0,2:3|2:0,2:0:0:0:
134,254,75059,2,0,P|185:240|217:242,1,67.5,2|0,2:0|2:0,2:0:0:0:
63,382,75282,6,0,P|86:354|81:324,3,56.25,8|2|2|2,2:0|2:0|2:0|2:0,2:0:0:0:
10,326,75504,2,0,L|272:293,1,236.25,12|0,1:3|2:0,2:0:0:0:
308,380,75726,6,0,P|261:366|222:313,1,112.5,8|0,1:0|2:0,2:0:0:0:
177,217,75948,2,0,P|198:175|223:163,1,67.5,8|0,2:0|2:0,2:0:0:0:
491,267,76171,2,0,L|241:225,1,236.25,12|0,1:3|2:0,2:0:0:0:
244,296,76393,2,0,P|287:283|302:263,1,67.5,8|0,2:0|2:0,2:0:0:0:
340,87,76615,6,0,L|356:159,1,67.5,8|0,2:0|2:0,2:0:0:0:
436,105,76837,2,0,L|452:177,1,67.5,8|0,2:0|2:0,2:0:0:0:
131,56,77059,6,0,P|220:72|271:120,1,112.5,12|2,1:3|2:0,2:0:0:0:
214,165,77282,2,0,P|225:111|217:82,1,67.5,8|0,2:0|2:0,2:0:0:0:
46,292,77504,2,0,P|108:261|214:278,1,168.75,10|0,2:1|2:0,2:0:0:0:
382,384,77726,6,0,P|352:339|358:290,1,90,2|0,2:1|2:0,2:0:0:0:
474,244,77948,2,0,P|460:252|453:253,2,22.5,2|2|2,2:1|2:0|2:0,2:0:0:0:
282,247,78170,1,2,2:1:0:0:
220,194,78393,6,0,B|248:163|286:167|286:167|233:105|138:115,1,236.25,14|0,2:3|2:0,2:0:0:0:
129,126,78615,1,2,2:0:0:0:
17,40,78837,6,0,P|49:47|80:90,3,56.25,8|2|2|2,2:0|2:0|2:0|2:0,2:0:0:0:
0,177,79059,1,8,2:0:0:0:
0,177,79282,6,0,L|145:205,1,112.5,8|0,1:0|2:0,2:0:0:0:
399,241,79504,1,8,2:0:0:0:
399,241,79726,6,0,L|126:277,1,236.25,12|0,1:3|2:0,2:0:0:0:
68,287,79948,1,8,2:0:0:0:
68,287,80171,6,0,L|148:299,1,67.5,8|0,2:0|2:0,2:0:0:0:
315,323,80393,1,8,2:0:0:0:
315,323,80615,6,0,L|158:346,1,157.5,12|2,1:3|2:0,2:0:0:0:
4,371,80837,1,8,2:0:0:0:
4,371,81059,6,0,P|56:331|66:264,1,112.5,8|0,1:0|2:0,2:0:0:0:
45,36,81282,6,0,P|57:133|137:196,1,157.5,12|0,1:3|2:0,2:0:0:0:
200,263,81504,6,0,P|177:253|153:262,3,33.75,2|2|2|2,2:0|2:0|2:0|2:0,2:0:0:0:
148,302,81726,2,0,P|187:282|203:248,1,67.5,2|0,2:0|2:0,2:0:0:0:
383,381,81948,6,0,P|331:310|289:136,1,236.25,12|0,2:3|2:0,2:0:0:0:
326,126,82171,2,0,P|318:173|302:195,1,67.5,2|0,2:0|2:0,2:0:0:0:
177,43,82393,6,0,P|203:29|215:29,3,33.75,8|2|2|2,2:0|2:0|2:0|2:0,2:0:0:0:
226,100,82615,2,0,P|157:48|2:33,1,236.25,12|0,1:3|2:0,2:0:0:0:
0,195,82837,6,0,P|36:152|86:128,1,112.5,8|0,1:0|2:0,2:0:0:0:
94,306,83059,2,0,P|86:273|93:241,1,67.5,8|0,2:0|2:0,2:0:0:0:
421,183,83282,2,0,P|329:228|168:266,1,236.25,12|0,1:3|2:0,2:0:0:0:
169,198,83504,2,0,P|227:210|239:226,1,67.5,8|0,2:0|2:0,2:0:0:0:
365,373,83726,6,0,L|380:287,1,67.5,8|0,2:0|2:0,2:0:0:0:
467,345,83948,2,0,L|482:259,1,67.5,8|0,2:0|2:0,2:0:0:0:
486,95,84171,6,0,P|448:161|407:190,1,112.5,12|2,1:3|2:0,2:0:0:0:
363,136,84393,2,0,P|406:141|436:173,1,67.5,8|0,2:0|2:0,2:0:0:0:
181,368,84615,6,0,P|202:300|203:175,1,168.75,2|0,2:0|2:0,2:0:0:0:
35,152,84837,2,0,P|67:190|108:205,1,90,8|0,2:0|2:0,2:0:0:0:
224,32,85059,2,0,P|197:35|175:46,1,45,10|0,2:0|2:0,2:0:0:0:
92,13,85282,2,0,P|81:37|79:62,1,45,2|0,2:0|2:0,2:0:0:0:
135,129,85504,6,0,B|202:112|238:163|211:174|242:238|316:214,1,216,10|0,2:0|3:0,2:0:0:0:
310,215,88171,6,0,P|315:200|317:184,1,27,10|2,2:0|2:0,2:0:0:0:
385,125,88615,2,0,P|380:110|378:94,1,27,2|2,2:0|2:0,2:0:0:0:
512,9,89059,6,0,P|501:24|460:34,1,54.0000000000001,2|2,3:2|2:0,2:0:0:0:
338,13,89726,1,2,2:0:0:0:
327,1,89948,2,0,L|269:8,1,54.0000000000001,10|2,2:0|2:0,2:0:0:0:
216,90,90615,1,2,2:0:0:0:
228,105,90837,6,0,P|233:130|218:152,1,54.0000000000001,2|2,3:2|2:0,2:0:0:0:
92,135,91504,1,2,2:0:0:0:
101,123,91726,2,0,P|118:114|126:113,3,27,10|2|2|2,2:0|2:0|2:0|2:0,2:0:0:0:
98,327,92615,5,2,3:2:0:0:
65,248,92837,1,2,2:0:0:0:
98,327,93059,5,2,2:0:0:0:
165,196,93282,1,2,2:0:0:0:
98,327,93504,2,0,L|91:313,4,11.25,10|2|2|2|2,1:2|2:0|2:0|2:0|2:0,2:0:0:0:
251,310,93948,2,0,L|207:299,1,45,2|2,2:0|2:0,2:0:0:0:
313,232,94393,5,2,3:2:0:0:
348,319,94615,1,2,2:0:0:0:
313,232,94837,5,2,2:0:0:0:
469,261,95059,1,2,2:0:0:0:
313,232,95282,5,10,2:0:0:0:
457,142,95504,1,2,2:0:0:0:
363,90,95726,1,2,2:0:0:0:
385,185,95948,1,2,2:0:0:0:
260,58,96171,6,0,L|207:50,1,45,2|2,3:2|2:0,2:0:0:0:
121,102,96615,1,2,2:0:0:0:
121,102,96837,1,2,2:0:0:0:
177,182,97059,2,0,L|173:199,4,11.25,10|2|2|2|2,2:0|2:0|2:0|2:0|2:0,2:0:0:0:
94,316,97504,5,2,2:0:0:0:
224,285,97726,1,2,2:0:0:0:
400,365,97948,6,0,L|304:355,1,90,2|2,3:2|2:0,2:0:0:0:
224,285,98615,1,2,2:0:0:0:
412,156,98837,6,0,P|433:196|448:239,1,90,10|2,2:1|2:0,2:0:0:0:
284,189,99282,2,0,P|254:264|238:343,1,162,10|2,2:1|2:0,2:0:0:0:
27,113,99726,6,0,B|101:190|205:126|245:73|125:10|370:-42|466:46|411:107|258:63|198:119|342:266,1,540,12|0,1:3|2:0,2:0:0:0:
373,174,100171,6,0,L|242:196,1,90,2|2,1:0|2:0,2:0:0:0:
425,260,100393,2,0,L|294:282,1,90,8|0,2:0|2:0,2:0:0:0:
21,236,100615,6,0,L|228:261,1,202.5,10|0,1:0|2:0,2:0:0:0:
270,338,100837,1,2,2:0:0:0:
484,41,101059,6,0,L|182:87,1,270,2|0,1:0|2:0,2:0:0:0:
159,166,101282,1,2,2:0:0:0:
159,166,101504,6,0,L|265:176,1,90,2|2,1:0|2:0,2:0:0:0:
127,73,101726,2,0,L|233:83,1,90,2|0,2:0|2:0,2:0:0:0:
379,49,101948,5,10,1:0:0:0:
287,62,102059,1,2,2:0:0:0:
385,73,102171,1,2,2:0:0:0:
385,73,102393,6,0,P|450:129|472:249,1,202.5,10|0,2:0|2:0,2:0:0:0:
392,304,102615,2,0,P|449:251|439:367,1,270,12|0,1:3|2:0,2:0:0:0:
366,377,102837,6,0,P|331:363|309:358,3,45,10|2|2|2,2:0|2:0|2:0|2:0,2:0:0:0:
300,377,103059,1,2,3:0:0:0:
300,377,103282,6,0,P|232:282|254:115,1,270,12|0,1:3|2:0,2:0:0:0:
331,145,103504,2,0,P|291:184|252:191,1,90,2|0,2:0|2:0,2:0:0:0:
57,86,103726,2,0,P|34:73|16:69,3,45,2|2|2|2,1:0|2:0|2:0|2:0,2:0:0:0:
29,45,103948,6,0,P|143:44|236:182,1,270,8|0,2:0|2:0,2:0:0:0:
121,206,104171,2,0,P|137:125|185:82,1,135,10|2,1:0|2:0,2:0:0:0:
416,137,104393,2,0,P|363:154|323:141,1,90,2|0,2:0|2:0,2:0:0:0:
477,37,104615,6,0,P|441:128|403:338,1,270,2|0,1:0|2:0,2:0:0:0:
450,367,104837,2,0,P|429:304|409:273,1,90,2|0,2:0|2:0,2:0:0:0:
253,364,105059,6,0,L|363:381,1,90,2|2,1:0|2:0,2:0:0:0:
232,245,105282,2,0,L|342:262,1,90,2|0,2:0|2:0,2:0:0:0:
148,377,105504,6,0,P|153:282|102:182,1,180,10|2,1:0|2:0,2:0:0:0:
0,58,105726,1,2,2:0:0:0:
0,58,105948,6,0,L|51:51,1,45,2|0,2:1|2:0,2:0:0:0:
145,108,106171,2,0,L|196:101,1,45,2|0,2:1|2:0,2:0:0:0:
498,103,106393,6,0,L|447:96,1,45,2|0,2:1|2:0,2:0:0:0:
256,237,106615,2,0,L|205:230,1,45,2|0,2:1|2:0,2:0:0:0:
381,13,106837,6,0,P|326:96|287:291,1,270,12|0,2:3|2:0,2:0:0:0:
372,341,107059,2,0,P|343:293|292:267,1,90,2|0,2:0|2:0,2:0:0:0:
42,337,107282,6,0,L|11:346,4,22.5,2|2|2|2|2,2:0|2:0|2:0|2:0|2:0,2:0:0:0:
42,337,107726,2,0,L|11:346,1,22.5,0|0,2:0|2:0,2:0:0:0:
470,337,108170,6,0,L|491:343,1,22.5,12|0,2:3|2:0,2:0:0:0:
470,337,108615,2,0,L|491:343,1,22.5,0|0,2:0|2:0,2:0:0:0:
42,337,109059,6,0,L|20:343,2,22.5,12|2|2,2:3|2:0|2:0,2:0:0:0:
446,32,110393,6,0,P|317:56|217:112,1,236.25,12|0,2:3|2:0,2:0:0:0:
218,187,110615,2,0,P|241:146|235:106,1,67.5,0|0,2:0|2:0,2:0:0:0:
395,167,110837,2,0,P|368:156|358:155,2,33.75,2|2|2,2:0|2:0|2:0,2:0:0:0:
277,262,111059,2,0,P|328:217|499:201,1,236.25,12|0,1:3|2:0,2:0:0:0:
502,217,111282,1,8,1:0:0:0:
502,217,111504,1,2,2:0:0:0:
312,374,111726,6,0,P|287:300|137:288,1,202.5,12|0,2:3|2:0,2:0:0:0:
145,340,111948,2,0,P|178:304|186:276,1,67.5,2|0,2:0|2:0,2:0:0:0:
37,79,112171,6,0,L|52:160,1,67.5,2|0,2:0|2:0,2:0:0:0:
0,350,112393,2,0,L|12:283,1,67.5,2|0,2:0|2:0,2:0:0:0:
139,43,112615,5,2,2:1:0:0:
178,131,112726,1,2,2:1:0:0:
151,45,112837,5,2,2:1:0:0:
190,133,112948,1,2,2:1:0:0:
240,76,113059,6,0,P|273:91|293:120,1,72,10|0,1:0|1:0,2:0:0:0:
6,306,121059,6,0,P|35:286|116:273,1,108,2|2,2:0|2:0,2:0:0:0:
165,335,121504,2,0,P|235:365|297:369,1,108,0|0,2:0|2:0,2:0:0:0:
267,370,121948,2,0,P|283:348|303:340,1,36,0|2,2:0|2:0,2:0:0:0:
373,345,122171,2,0,P|387:355|396:370,1,36,2|2,2:0|2:0,2:0:0:0:
449,327,122393,2,0,P|434:331|393:387,1,72,2|0,2:0|2:0,2:0:0:0:
512,244,122837,6,0,P|484:223|444:210,2,49.5,2|0|2,2:0|2:0|2:0,2:0:0:0:
378,217,123171,1,2,2:0:0:0:
378,217,123282,6,0,P|356:229|337:245,1,49.5,2|2,2:0|2:0,2:0:0:0:
262,203,123504,1,2,2:0:0:0:
262,203,123615,2,0,P|206:241|85:265,1,148.5,2|2,2:0|2:0,2:0:0:0:
23,225,124059,1,0,2:0:0:0:
23,225,124171,2,0,P|39:252|46:285,1,49.5,2|0,2:0|2:0,2:0:0:0:
160,191,124393,2,0,P|144:218|137:251,1,49.5,2|0,2:0|2:0,2:0:0:0:
16,97,124615,6,0,B|72:78|110:120|94:130|112:193|200:162,1,189,2|2,2:0|2:0,2:0:0:0:
257,98,125059,1,0,2:0:0:0:
243,81,125171,2,0,P|204:78|169:99,2,63,0|2|0,2:0|2:0|2:0,2:0:0:0:
298,171,125504,2,0,P|327:181|358:177,1,63,0|2,2:0|2:0,2:0:0:0:
401,90,125726,1,2,2:0:0:0:
512,114,125837,1,2,2:0:0:0:
512,114,125948,2,0,P|488:138|477:182,1,63,2|0,2:0|2:0,2:0:0:0:
412,237,126171,2,0,P|400:207|377:186,1,63,0|2,2:0|2:0,2:0:0:0:
404,76,126393,6,0,P|427:46|459:24,2,76.5,2|0|2,2:0|2:0|2:0,2:0:0:0:
358,176,126726,1,2,2:0:0:0:
308,78,126837,6,0,P|284:47|253:25,1,76.5,2|2,2:0|2:0,2:0:0:0:
183,97,127059,1,2,2:0:0:0:
136,30,127171,2,0,P|52:40|30:135,1,153,2|2,2:0|2:0,2:0:0:0:
133,197,127504,2,0,P|125:161|98:131,1,76.5,0|0,2:0|2:0,2:0:0:0:
258,139,127726,2,0,P|269:103|260:64,1,76.5,2|0,2:0|2:0,2:0:0:0:
395,151,127948,2,0,P|422:126|434:87,1,76.5,0|2,2:0|2:0,2:0:0:0:
244,378,128171,6,0,B|267:303|386:270|441:307|441:307|395:299|352:348,1,315,14|0,1:3|2:0,2:0:0:0:
432,382,129059,6,0,P|393:337|401:296,1,90,2|2,2:0|2:0,2:0:0:0:
453,220,129504,2,0,P|492:175|484:134,1,90,2|2,2:0|2:0,2:0:0:0:
115,111,129948,6,0,B|226:46|286:115|282:135|343:152|367:96|367:96|326:117|285:99,1,360,14|0,1:3|2:0,2:0:0:0:
315,26,131059,6,0,B|338:79|293:109|282:100|227:128|263:208,1,180,0|0,2:0|2:0,2:0:0:0:
33,382,131726,6,0,B|19:350|-20:333|-20:333|46:297|100:324|99:337|151:378|224:313,1,315,14|0,1:3|2:0,2:0:0:0:
200,188,132615,6,0,P|150:247|149:270,1,90,2|2,2:0|2:0,2:0:0:0:
0,171,133059,2,0,P|41:189|52:236,1,90,2|2,2:0|2:0,2:0:0:0:
305,54,133504,6,0,B|347:46|386:23|386:23|355:84|270:95|270:95|401:202|329:359|329:359|335:307|276:236,1,630,14|0,1:3|2:0,2:0:0:0:
125,323,135282,6,0,B|79:335|42:318|42:318|111:395|181:386|181:386|223:376|229:335,1,315,14|0,1:3|2:0,2:0:0:0:
3,150,136171,6,0,P|33:206|33:243,1,90,2|2,2:0|2:0,2:0:0:0:
182,162,136615,2,0,P|148:216|116:235,1,90,2|2,2:0|2:0,2:0:0:0:
224,2,137059,6,0,B|254:50|313:43|313:43|341:111|303:145|283:126|244:151|279:219|279:219|274:172|318:134,1,360,14|0,1:3|2:0,2:0:0:0:
358,208,138171,2,0,B|422:188|455:233|426:245|466:292|530:264,1,180,0|0,2:0|2:0,2:0:0:0:
3,286,138837,6,0,B|75:250|104:294|93:304|125:380|202:336|202:336|161:292|187:224,1,315,14|0,1:3|2:0,2:0:0:0:
338,213,139726,6,0,P|308:256|257:268,1,90,2|2,2:0|2:0,2:0:0:0:
373,384,140171,2,0,P|320:379|284:341,1,90,2|2,2:0|2:0,2:0:0:0:
492,78,140615,6,0,B|458:59|425:70|425:70|551:144|522:225|522:225|503:275|442:275|442:275|439:206|404:136|304:154|260:223|260:223|304:190|361:224,1,720,14|14,1:3|1:3,2:0:0:0:
256,192,142448,12,0,143893,2:0:0:0:
322,266,143948,6,0,B|278:250|259:266|259:266|214:256|214:256|196:236|196:236|186:233|170:212|170:212|157:209|141:211|141:211|124:227|108:237|108:237|116:251|115:260|115:260|112:271|110:290|110:290|128:321|128:321|151:315|151:315|174:320|186:321|186:321|202:328|202:328|230:327|250:334|250:334|272:340|272:340|282:336|282:336|290:338|300:337|300:337|329:341,1,540,2|0,1:0|2:0,2:0:0:0:
338,304,145393,6,0,B|350:314|350:314|364:321|364:321|385:323|385:323|398:322|405:315|405:315|411:307|419:304|419:304|427:286|427:286|436:280|447:265|447:265|450:237|450:237|438:230|431:212|431:212|381:178|381:178|364:188|356:185|356:185|341:186|341:186|357:194|357:194|362:203|362:203|380:204|380:204|390:201|421:169|421:169|427:143|427:143|427:122|427:122|415:152|399:163,1,495,2|2,2:0|2:1,2:0:0:0:
256,192,146726,12,0,148282,2:1:0:0:
