osu file format v14

[General]
AudioFilename: audio.ogg
AudioLeadIn: 0
PreviewTime: 68625
Countdown: 0
SampleSet: Soft
StackLeniency: 0.7
Mode: 0
LetterboxInBreaks: 0
WidescreenStoryboard: 1

[Editor]
Bookmarks: 1402,24259,47116,58544,69973,95687,118544,129973,152830,175687
DistanceSpacing: 1.4
BeatDivisor: 4
GridSize: 32
TimelineZoom: 2.300005

[Metadata]
Title:Paradise (feat. Hannah Diamond)
TitleUnicode:Paradise (feat. Hannah Diamond)
Artist:Charli XCX
ArtistUnicode:Charli XCX
Creator:posydomojka
Version:Hifumi's HARD
Source:
Tags:kuyusu plsleaf Mint appleeaterx rHO smh hamster we vibing Ajitani Hifumi english electronic edm electropop electro pop pc music vroom ep sophie xeon ag cook A. G. Cook
BeatmapID:3613544
BeatmapSetID:1687402

[Difficulty]
HPDrainRate:5
CircleSize:3.5
OverallDifficulty:6
ApproachRate:7.6
SliderMultiplier:1.4
SliderTickRate:1

[Events]
//Background and Video events
0,0,"1500x500_waifu2x_art_noise3_scale_tta_1.png",0,0
//Break Periods
//Storyboard Layer 0 (Background)
//Storyboard Layer 1 (Fail)
//Storyboard Layer 2 (Pass)
//Storyboard Layer 3 (Foreground)
//Storyboard Layer 4 (Overlay)
//Storyboard Sound Samples

[TimingPoints]
24,357.142857142858,4,2,2,55,1,0
1094,-166.666666666667,4,2,2,55,0,0
1274,-166.666666666667,4,2,2,55,0,0
2524,-333.333333333333,4,2,2,55,0,0
2613,-333.333333333333,4,2,2,55,0,0
5381,-333.333333333333,4,2,2,55,0,0
5470,-333.333333333333,4,2,2,55,0,0
8238,-333.333333333333,4,2,2,55,0,0
8327,-333.333333333333,4,2,2,55,0,0
12702,-200,4,2,2,55,0,0
12880,-200,4,2,2,55,0,0
22881,-200,4,2,2,55,0,0
22970,-200,4,2,2,55,0,0
24131,-333.333333333333,4,2,2,55,0,0
24309,-333.333333333333,4,2,2,45,0,0
32524,-333.333333333333,4,2,2,45,0,0
32613,-333.333333333333,4,2,2,45,0,0
33952,-333.333333333333,4,2,2,45,0,0
34041,-333.333333333333,4,2,2,45,0,0
34309,-333.333333333333,4,2,2,45,0,0
35381,-333.333333333333,4,2,2,45,0,0
35559,-200,4,2,2,45,0,0
35737,-200,4,2,2,45,0,0
37166,-200,4,2,2,45,0,0
37256,-200,4,2,2,45,0,0
42881,-200,4,2,2,45,0,0
42970,-200,4,2,2,45,0,0
45737,-200,4,2,2,45,0,0
46809,-153.846153846154,4,2,2,45,0,0
47166,-153.846153846154,4,2,2,50,0,0
52524,-142.857142857143,4,2,2,50,0,0
57345,-125,4,2,2,50,0,0
58059,-125,4,2,2,50,0,0
58416,-111.111111111111,4,2,2,50,0,0
58595,-111.111111111111,4,2,2,60,0,0
64131,-100,4,2,2,60,0,0
64309,-100,4,2,2,60,0,0
67701,-100,4,2,2,60,0,0
68059,-100,4,2,2,60,0,0
68773,-100,4,2,2,60,0,0
69845,-83.3333333333333,4,2,2,60,0,0
70023,-83.3333333333333,4,2,1,75,0,0
78594,-83.3333333333333,4,2,1,75,0,0
78684,-83.3333333333333,4,2,1,75,0,0
79129,-83.3333333333333,4,2,1,75,0,0
79666,-83.3333333333333,4,2,1,75,0,0
79755,-83.3333333333333,4,2,1,75,0,0
80737,-83.3333333333333,4,2,1,75,0,0
90023,-83.3333333333333,4,2,1,75,0,0
90291,-83.3333333333333,4,2,1,75,0,0
90559,-83.3333333333333,4,2,1,75,0,0
90737,-83.3333333333333,4,2,1,75,0,0
90826,-83.3333333333333,4,2,1,75,0,0
91362,-83.3333333333333,4,2,1,75,0,0
92612,-83.3333333333333,4,2,1,75,0,0
95738,-333.333333333333,4,2,2,45,0,0
103952,-333.333333333333,4,2,2,45,0,0
104041,-333.333333333333,4,2,2,45,0,0
105381,-333.333333333333,4,2,2,45,0,0
105470,-333.333333333333,4,2,2,45,0,0
105737,-333.333333333333,4,2,2,45,0,0
106809,-333.333333333333,4,2,2,45,0,0
106899,-333.333333333333,4,2,2,45,0,0
107166,-200,4,2,2,45,0,0
114309,-200,4,2,2,45,0,0
114399,-200,4,2,2,45,0,0
117166,-200,4,2,2,45,0,0
118416,-153.846153846154,4,2,2,45,0,0
118594,-153.846153846154,4,2,2,60,0,0
120023,-153.846153846154,4,2,2,60,0,0
122702,-142.857142857143,4,2,2,60,0,0
124309,-111.111111111111,4,2,2,60,0,0
127166,-100,4,2,2,60,0,0
127701,-100,4,2,2,60,0,0
128059,-100,4,2,2,60,0,0
129488,-83.3333333333333,4,2,2,60,0,0
129666,-83.3333333333333,4,2,2,60,0,0
130023,-83.3333333333333,4,2,1,85,0,0
138594,-83.3333333333333,4,2,1,85,0,0
138862,-83.3333333333333,4,2,1,85,0,0
139130,-83.3333333333333,4,2,1,85,0,0
139308,-83.3333333333333,4,2,1,85,0,0
139398,-83.3333333333333,4,2,1,85,0,0
139934,-83.3333333333333,4,2,1,85,0,0
140023,-83.3333333333333,4,2,1,85,0,0
141809,-83.3333333333333,4,2,1,85,0,0
150023,-83.3333333333333,4,2,1,85,0,0
150291,-83.3333333333333,4,2,1,85,0,0
150559,-83.3333333333333,4,2,1,85,0,0
150737,-83.3333333333333,4,2,1,85,0,0
150827,-83.3333333333333,4,2,1,85,0,0
151362,-83.3333333333333,4,2,1,85,0,0
151451,-83.3333333333333,4,2,1,85,0,0
152881,-83.3333333333333,4,2,1,90,0,0
154309,-83.3333333333333,4,2,1,90,0,0
161451,-83.3333333333333,4,2,1,90,0,0
161719,-83.3333333333333,4,2,1,90,0,0
161987,-83.3333333333333,4,2,1,90,0,0
162165,-83.3333333333333,4,2,1,90,0,0
162255,-83.3333333333333,4,2,1,90,0,0
162791,-83.3333333333333,4,2,1,90,0,0
163059,-83.3333333333333,4,2,1,90,0,0
163416,-83.3333333333333,4,2,1,90,0,0
172880,-83.3333333333333,4,2,1,90,0,0
173148,-83.3333333333333,4,2,1,90,0,0
173416,-83.3333333333333,4,2,1,90,0,0
173594,-83.3333333333333,4,2,1,90,0,0
173684,-83.3333333333333,4,2,1,90,0,0
174219,-83.3333333333333,4,2,1,90,0,0
174309,-83.3333333333333,4,2,1,90,0,0
175201,-83.3333333333333,4,2,1,90,0,0
175737,-83.3333333333333,4,2,1,90,0,0
176987,-83.3333333333333,4,2,1,90,0,0

[Colours]
Combo1 : 255,255,128
Combo2 : 128,255,128

[HitObjects]
62,66,1095,5,2,0:0:0:0:
62,66,1274,2,0,B|131:19|230:99|143:123|247:202|317:134,1,293.999991027832,2|0,0:0|0:0,0:0:0:0:
389,165,2703,2,0,L|436:176,1,41.9999987182617,2|2,0:0|0:0,0:0:0:0:
307,60,3417,2,0,L|259:71,1,41.9999987182617,2|2,0:0|0:0,0:0:0:0:
107,124,4131,6,0,P|136:176|145:267,1,146.999995513916,2|0,0:0|0:0,0:0:0:0:
112,339,5560,2,0,L|159:350,1,41.9999987182617,2|2,0:0|0:0,0:0:0:0:
285,245,6274,2,0,L|332:233,1,41.9999987182617,2|2,0:0|0:0,0:0:0:0:
451,346,6988,6,0,B|434:279|434:279|438:273|438:273|420:199,1,146.999995513916,2|0,0:0|0:0,0:0:0:0:
368,139,8417,2,0,L|379:91,1,41.9999987182617,2|2,0:0|0:0,0:0:0:0:
251,208,9131,2,0,L|262:255,1,41.9999987182617,2|2,0:0|0:0,0:0:0:0:
115,165,9845,6,0,P|75:108|165:90,1,188.999994232178,2|0,0:0|0:0,0:0:0:0:
230,133,11631,1,2,0:0:0:0:
230,133,11810,2,0,L|253:127,1,20.9999993591309,2|2,0:0|0:0,0:0:0:0:
316,179,12167,2,0,L|339:184,1,20.9999993591309,2|2,0:0|0:0,0:0:0:0:
396,124,12524,2,0,L|419:118,1,20.9999993591309,2|2,0:0|0:0,0:0:0:0:
487,62,12881,6,0,B|471:100|440:123|440:123|501:254,1,210,2|0,0:0|0:0,0:0:0:0:
451,322,14131,2,0,P|399:330|375:317,1,70,2|2,0:0|0:0,0:0:0:0:
296,164,14845,2,0,P|320:188|327:222,1,70,2|2,0:0|0:0,0:0:0:0:
195,347,15560,6,0,P|108:302|199:256,1,245,2|0,0:0|0:0,0:0:0:0:
280,232,16988,2,0,L|295:164,1,70,2|2,0:0|0:0,0:0:0:0:
164,37,17703,2,0,L|179:104,1,70,2|2,0:0|0:0,0:0:0:0:
7,163,18417,6,0,B|66:126|141:181|82:196|158:254|235:200,1,245,2|0,0:0|0:0,0:0:0:0:
304,163,19845,2,0,P|337:154|370:164,1,70,2|2,0:0|0:0,0:0:0:0:
373,347,20560,2,0,P|340:357|306:348,1,70,2|2,0:0|0:0,0:0:0:0:
197,203,21274,6,0,B|292:214|339:279|339:279|384:223|466:196,1,315,2|0,0:0|0:0,0:0:0:0:
72,340,24310,6,0,P|65:182|36:41,1,293.999991027832,2|2,0:1|0:0,0:0:0:0:
91,144,27167,2,0,P|197:217|281:107,1,293.999991027832,2|2,0:1|0:0,0:0:0:0:
341,16,30024,6,0,P|312:160|307:306,1,293.999991027832,2|0,0:1|0:0,0:0:0:0:
401,362,32881,2,0,P|344:335|277:334,1,125.999996154785,2|0,0:1|0:0,0:0:0:0:
207,252,34310,2,0,P|269:249|326:223,1,125.999996154785,2|0,0:1|0:0,0:0:0:0:
477,149,35738,6,0,P|415:193|355:53,1,280,2|0,0:1|0:0,0:0:0:0:
352,55,37524,2,0,L|314:64,1,35,2|2,0:0|0:0,0:0:0:0:
249,112,37881,2,0,L|176:93,1,70,2|2,0:0|0:0,0:0:0:0:
116,49,38417,1,2,0:0:0:0:
116,49,38595,6,0,P|255:48|392:19,1,280,2|0,0:1|0:0,0:0:0:0:
460,69,40203,1,2,0:0:0:0:
460,69,40381,2,0,L|451:107,1,35,2|2,0:0|0:0,0:0:0:0:
395,165,40738,2,0,L|414:238,1,70,2|2,0:0|0:0,0:0:0:0:
486,282,41274,1,2,0:0:0:0:
486,282,41452,6,0,P|346:282|209:311,1,280,2|0,0:1|0:0,0:0:0:0:
29,351,44131,5,2,0:0:0:0:
29,351,44310,2,0,L|11:283,1,70,2|2,0:1|0:0,0:0:0:0:
71,224,44845,2,0,L|99:115,1,105,2|0,0:0|0:0,0:0:0:0:
56,54,45560,1,2,0:0:0:0:
56,54,45738,2,0,P|90:68|132:64,1,70,2|2,0:1|0:0,0:0:0:0:
189,118,46274,2,0,P|226:107|300:119,1,105,2|2,0:0|0:0,0:0:0:0:
380,193,46988,6,0,L|356:281,1,90.9999958343508,2|0,0:0|0:0,0:0:0:0:
348,307,47435,2,0,B|254:264|254:264|147:314,1,204.749990627289
74,325,48417,2,0,L|86:281,1,45.4999979171754,2|2,0:0|0:1,0:0:0:0:
147,213,48774,2,0,L|135:169,1,45.4999979171754,2|0,0:0|0:0,0:0:0:0:
116,79,49131,2,0,L|160:91,1,45.4999979171754,2|0,0:0|0:0,0:0:0:0:
232,35,49488,2,0,L|276:23,1,45.4999979171754,2|0,0:0|0:0,0:0:0:0:
367,25,49845,6,0,P|318:104|319:330,1,318.499985420228,2|0,0:0|0:0,0:0:0:0:
237,369,51274,2,0,L|193:357,1,45.4999979171754,2|2,0:0|0:1,0:0:0:0:
104,334,51631,2,0,L|116:290,1,45.4999979171754,2|0,0:0|0:0,0:0:0:0:
149,205,51988,2,0,L|105:193,1,45.4999979171754,2|0,0:0|0:0,0:0:0:0:
18,163,52345,2,0,L|30:119,1,45.4999979171754,2|0,0:0|0:0,0:0:0:0:
68,28,52703,6,0,B|146:-21|246:52|168:72|269:149|372:77,1,342.999989532471,2|0,0:0|0:0,0:0:0:0:
461,35,54131,2,0,L|474:84,1,48.9999985046387,2|2,0:0|0:1,0:0:0:0:
413,159,54488,2,0,L|400:206,1,48.9999985046387,2|0,0:0|0:0,0:0:0:0:
410,303,54845,2,0,L|360:289,1,48.9999985046387,2|0,0:1|0:0,0:0:0:0:
277,240,55202,2,0,L|229:252,1,48.9999985046387,2|0,0:1|0:0,0:0:0:0:
151,312,55560,1,2,0:0:0:0:
151,312,55738,6,0,P|72:284|75:222,1,146.999995513916,2|2,0:1|0:1,0:0:0:0:
160,56,56631,2,0,L|89:75,2,73.4999977569581,2|2|2,0:1|0:1|0:1,0:0:0:0:
247,11,57345,1,2,0:0:0:0:
325,74,57524,2,0,L|308:133,1,56,2|2,0:0|0:1,0:0:0:0:
244,204,57881,2,0,L|260:263,1,56,2|2,0:0|0:1,0:0:0:0:
265,279,58149,1,0,1:0:0:0:
270,300,58238,1,2,1:2:0:0:
184,354,58417,1,0,1:0:0:0:
94,308,58595,6,0,B|108:250|108:250|105:245|105:245|120:182,1,125.999996154785,2|0,1:0|1:0,0:0:0:0:
46,116,59131,1,2,0:1:0:0:
134,63,59310,1,0,1:0:0:0:
134,63,59399,1,0,0:0:0:0:
134,63,59488,1,2,0:1:0:0:
211,135,59667,1,0,1:0:0:0:
211,135,59845,6,0,P|256:145|289:126,1,62.9999980773926,2|2,0:0|1:0,0:0:0:0:
333,60,60203,2,0,P|378:50|411:69,1,62.9999980773926,2|0,0:0|1:0,0:0:0:0:
477,110,60560,2,0,L|460:169,1,62.9999980773926,2|0,0:1|1:0,0:0:0:0:
374,223,60917,2,0,L|390:282,1,62.9999980773926,2|0,0:1|1:0,0:0:0:0:
394,302,61185,1,2,1:0:0:0:
399,319,61274,1,2,1:2:0:0:
309,364,61453,6,0,P|234:355|216:291,1,125.999996154785,2|0,1:0|1:0,0:0:0:0:
248,223,61988,1,2,0:1:0:0:
153,186,62167,2,0,L|90:201,1,62.9999980773926,0|2,1:0|0:1,0:0:0:0:
25,124,62524,1,0,1:0:0:0:
25,124,62703,6,0,L|40:61,1,62.9999980773926,2|2,0:0|1:0,0:0:0:0:
120,2,63060,2,0,L|134:63,1,62.9999980773926,2|0,0:0|1:0,0:0:0:0:
212,127,63417,1,2,0:1:0:0:
287,61,63595,2,0,P|325:57|352:68,1,62.9999980773926,0|2,1:0|0:1,0:0:0:0:
363,75,63863,1,0,1:0:0:0:
377,87,63953,1,0,1:0:0:0:
445,160,64131,1,2,1:2:0:0:
370,233,64310,6,0,B|308:248|308:248|303:244|303:244|235:261,1,140,2|2,1:0|1:2,0:0:0:0:
151,323,64845,1,2,0:1:0:0:
71,254,65024,2,0,L|86:185,1,70,0|2,1:0|0:1,0:0:0:0:
65,91,65381,1,0,1:0:0:0:
65,91,65470,1,2,0:1:0:0:
65,91,65560,6,0,L|135:106,1,70,2|2,0:0|1:0,0:0:0:0:
223,50,65917,2,0,L|293:35,1,70,2|0,0:0|1:0,0:0:0:0:
394,14,66274,2,0,P|447:30|482:58,1,70,2|0,0:1|1:0,0:0:0:0:
502,133,66631,2,0,P|486:186|458:221,1,70,2|0,0:1|1:0,0:0:0:0:
465,215,66899,1,2,1:0:0:0:
446,224,66988,1,2,1:2:0:0:
376,303,67167,6,0,P|319:294|270:320,1,105,2|0,1:0|1:0,0:0:0:0:
266,331,67524,2,0,P|209:340|160:314,1,105,0|0,1:0|1:0,0:0:0:0:
153,304,67881,2,0,B|131:245|131:245|151:178,1,105,0|0,1:0|1:0,0:0:0:0:
152,185,68238,2,0,B|174:126|174:126|154:59,1,105,0|0,1:0|1:0,0:0:0:0:
157,65,68595,5,0,1:0:0:0:
34,346,70024,6,0,B|71:371|126:327|90:318|146:284|185:311,1,167.999994873047,4|2,1:2|0:1,0:0:0:0:
285,367,70559,1,2,0:3:0:0:
285,367,70738,2,0,P|352:337|374:344,1,83.9999974365235,10|2,0:1|0:3,0:0:0:0:
448,261,71095,2,0,P|406:258|374:232,1,83.9999974365235,2|8,0:0|0:0,0:0:0:0:
320,127,71452,1,2,0:3:0:0:
320,127,71809,6,0,B|279:112|279:112|212:133,1,83.9999974365235,2|2,1:2|0:3,0:0:0:0:
124,146,72166,2,0,B|157:117|157:117|172:49,1,83.9999974365235,10|2,0:0|0:3,0:0:0:0:
63,19,72524,2,0,B|29:47|29:47|14:115,1,83.9999974365235,2|0,0:0|0:0,0:0:0:0:
22,204,72881,6,0,P|140:184|211:228,1,167.999994873047,2|2,1:3|0:1,0:0:0:0:
98,285,73416,1,2,0:3:0:0:
98,285,73595,2,0,P|31:315|9:308,1,83.9999974365235,10|2,0:1|0:3,0:0:0:0:
180,201,73952,2,0,P|239:244|244:266,1,83.9999974365235,2|8,1:2|0:0,0:0:0:0:
72,178,74309,2,0,P|79:104|96:89,1,83.9999974365235,2|0,0:3|0:0,0:0:0:0:
176,27,74666,1,2,1:2:0:0:
176,27,75024,6,0,B|214:14|214:14|255:29,1,83.9999974365235,10|2,0:0|0:3,0:0:0:0:
316,130,75381,2,0,B|354:142|354:142|395:127,1,83.9999974365235,2|0,0:0|1:0,0:0:0:0:
418,116,75649,1,0,1:0:0:0:
441,106,75738,6,0,B|388:91|388:91|437:235,1,167.999994873047,2|2,1:3|0:1,0:0:0:0:
477,303,76274,1,2,0:3:0:0:
477,303,76452,2,0,P|417:279|372:288,1,83.9999974365235,10|2,0:1|0:3,0:0:0:0:
281,278,76809,2,0,P|331:238|346:194,1,83.9999974365235,2|8,1:2|0:0,0:0:0:0:
383,112,77166,1,2,0:3:0:0:
383,112,77524,6,0,B|342:97|342:97|275:118,1,83.9999974365235,2|2,1:2|0:3,0:0:0:0:
198,162,77881,2,0,B|157:177|157:177|90:156,1,83.9999974365235,10|2,0:0|0:3,0:0:0:0:
116,47,78238,2,0,B|154:34|154:34|195:49,1,83.9999974365235,2|0,0:0|0:0,0:0:0:0:
30,116,78595,6,0,P|21:219|146:266,1,251.999992309571,10|2,3:0|0:3,0:0:0:0:
244,207,79309,2,0,L|263:297,1,83.9999974365235,10|2,0:1|0:3,0:0:0:0:
356,359,79666,1,8,0:3:0:0:
356,359,79756,1,2,0:3:0:0:
356,359,79845,1,8,0:0:0:0:
436,272,80024,6,0,P|386:247|335:244,1,83.9999974365235,2|0,0:3|0:0,0:0:0:0:
182,171,80381,2,0,P|222:162|259:141,1,83.9999974365235,8|2,0:3|0:3,0:0:0:0:
358,78,80738,2,0,L|338:168,1,83.9999974365235,10|2,0:0|0:3,0:0:0:0:
255,242,81095,2,0,L|274:332,1,83.9999974365235,2|8,0:0|0:3,0:0:0:0:
279,348,81363,1,8,0:3:0:0:
282,372,81452,6,0,B|245:397|190:353|226:344|170:310|131:337,1,167.999994873047,2|2,1:3|0:1,0:0:0:0:
31,260,81988,1,2,0:3:0:0:
31,260,82166,2,0,P|71:251|108:230,1,83.9999974365235,10|2,0:1|0:3,0:0:0:0:
215,162,82524,2,0,P|174:153|137:132,1,83.9999974365235,2|8,1:2|0:0,0:0:0:0:
48,43,82881,1,2,0:3:0:0:
48,43,83238,6,0,B|86:55|86:55|127:40,1,83.9999974365235,2|2,1:2|0:3,0:0:0:0:
251,14,83595,2,0,B|221:41|221:41|213:84,1,83.9999974365235,10|2,0:0|0:3,0:0:0:0:
177,201,83952,2,0,B|168:161|168:161|134:133,1,83.9999974365235,2|0,0:0|0:0,0:0:0:0:
48,43,84309,6,0,B|28:123|28:123|33:130|33:130|13:208,1,167.999994873047,2|2,1:3|0:1,0:0:0:0:
89,305,84845,1,2,0:3:0:0:
89,305,85024,2,0,P|121:330|162:333,1,83.9999974365235,10|2,0:1|0:3,0:0:0:0:
266,262,85381,2,0,P|298:236|339:233,1,83.9999974365235,2|8,1:2|0:0,0:0:0:0:
437,312,85738,6,0,L|455:230,1,83.9999974365235,2|0,0:3|0:0,0:0:0:0:
382,126,86095,2,0,L|363:44,1,83.9999974365235,2|2,1:2|0:3,0:0:0:0:
239,64,86452,2,0,L|257:145,1,83.9999974365235,10|2,0:0|0:3,0:0:0:0:
333,246,86809,2,0,L|314:327,1,83.9999974365235,2|0,0:0|1:0,0:0:0:0:
308,352,87077,1,0,1:0:0:0:
302,376,87166,6,0,P|268:333|142:324,1,167.999994873047,2|2,1:3|0:1,0:0:0:0:
59,372,87702,1,2,0:3:0:0:
59,372,87881,2,0,P|52:315|29:280,1,83.9999974365235,10|2,0:1|0:3,0:0:0:0:
134,222,88238,2,0,P|141:165|164:130,1,83.9999974365235,2|8,1:2|0:0,0:0:0:0:
82,55,88595,1,2,0:3:0:0:
82,55,88952,6,0,B|127:70|127:70|179:54,1,83.9999974365235,2|2,1:2|0:3,0:0:0:0:
275,26,89309,2,0,B|320:11|320:11|372:27,1,83.9999974365235,10|2,0:0|0:3,0:0:0:0:
443,99,89666,2,0,B|458:144|458:144|442:196,1,83.9999974365235,2|0,0:0|0:0,0:0:0:0:
334,215,90024,6,0,P|268:170|234:164,1,83.9999974365235,10|0,3:0|0:0,0:0:0:0:
280,150,90291,2,0,P|202:164|174:184,1,83.9999974365235,8|0,0:3|0:0,0:0:0:0:
202,141,90559,2,0,P|157:206|151:240,1,83.9999974365235,10|10,3:0|0:1,0:0:0:0:
132,201,90827,2,0,P|146:278|166:306,1,83.9999974365235,8|0,0:3|0:0,0:0:0:0:
123,278,91095,2,0,P|188:322|222:328,1,83.9999974365235,8|0,0:3|0:0,0:0:0:0:
217,325,91363,1,8,0:3:0:0:
241,319,91452,1,2,0:0:0:0:
30,34,92345,6,0,B|15:77|15:77|35:147,1,83.9999974365235,2|0,1:3|1:0,0:0:0:0:
35,137,92613,2,0,B|50:180|50:180|30:250,1,83.9999974365235,2|0,0:3|0:0,0:0:0:0:
29,240,92881,5,4,1:2:0:0:
112,78,95738,6,0,B|95:53|46:35|46:35|-5:152|81:230,1,293.999991027832,2|2,0:1|0:0,0:0:0:0:
13,310,98595,2,0,P|93:275|297:277,1,293.999991027832,2|2,0:1|0:0,0:0:0:0:
382,216,101452,6,0,B|314:259|229:213|274:173|193:117|122:176,1,293.999991027832,2|0,0:1|0:0,0:0:0:0:
39,242,104309,2,0,P|66:185|67:118,1,125.999996154785,2|0,0:1|0:0,0:0:0:0:
38,21,105738,2,0,P|95:48|162:49,1,125.999996154785,2|0,0:1|0:0,0:0:0:0:
263,179,107166,6,0,P|352:184|285:64,1,280,2|0,0:1|0:0,0:0:0:0:
227,28,108774,1,2,0:0:0:0:
227,28,108952,2,0,L|189:37,1,35,2|2,0:0|0:0,0:0:0:0:
109,44,109309,2,0,L|128:117,1,70,2|2,0:0|0:0,0:0:0:0:
66,170,109845,1,2,0:0:0:0:
66,170,110024,6,0,P|189:153|339:209,1,280,2|0,0:1|0:0,0:0:0:0:
394,270,111631,1,2,0:0:0:0:
394,270,111809,2,0,L|385:308,1,35,2|2,0:0|0:0,0:0:0:0:
321,357,112166,2,0,L|248:338,1,70,2|2,0:0|0:0,0:0:0:0:
200,274,112702,1,2,0:0:0:0:
200,274,112881,6,0,P|93:234|81:370,1,280,2|0,0:1|0:0,0:0:0:0:
40,70,115559,5,2,0:0:0:0:
40,70,115738,2,0,L|108:52,1,70,2|2,0:1|0:0,0:0:0:0:
183,15,116274,2,0,L|292:43,1,105,2|0,0:0|0:0,0:0:0:0:
372,35,116988,1,2,0:0:0:0:
372,35,117166,2,0,P|358:69|362:111,1,70,2|2,0:1|0:0,0:0:0:0:
410,168,117702,2,0,P|421:205|409:279,1,105,2|2,0:0|0:0,0:0:0:0:
346,338,118416,6,0,P|299:312|258:318,1,90.9999958343508,2|8,0:0|0:0,0:0:0:0:
236,321,118863,2,0,P|308:275|233:229,1,204.749990627289,0|8,0:0|0:0,0:0:0:0:
145,193,119845,6,0,L|133:149,1,45.4999979171754,10|10,0:0|0:1,0:0:0:0:
66,79,120202,2,0,L|110:67,1,45.4999979171754,10|8,0:0|0:0,0:0:0:0:
195,25,120559,2,0,L|239:37,1,45.4999979171754,10|8,0:1|0:0,0:0:0:0:
312,98,120916,2,0,L|356:86,1,45.4999979171754,10|8,0:1|0:0,0:0:0:0:
417,12,121274,6,0,P|320:57|434:172,1,318.499985420228,10|8,0:0|0:0,0:0:0:0:
476,104,122702,2,0,L|424:89,1,48.9999985046387,10|10,0:0|0:1,0:0:0:0:
355,42,123059,2,0,L|340:93,1,48.9999985046387,10|8,0:0|0:0,0:0:0:0:
285,157,123416,2,0,L|297:204,1,48.9999985046387,10|8,0:1|0:0,0:0:0:0:
356,284,123774,1,10,0:1:0:0:
356,284,123863,1,0,1:0:0:0:
356,284,123952,1,8,1:2:0:0:
284,336,124131,1,10,1:2:0:0:
199,281,124309,6,0,B|141:267|141:267|136:270|136:270|73:255,1,125.999996154785,10|10,1:0|1:2,0:0:0:0:
19,173,124845,1,10,0:1:0:0:
93,104,125024,1,8,1:2:0:0:
93,104,125113,1,8,0:0:0:0:
93,104,125202,1,10,0:1:0:0:
157,181,125381,1,8,1:2:0:0:
157,181,125559,6,0,P|202:191|235:172,1,62.9999980773926,10|10,0:0|1:0,0:0:0:0:
301,130,125916,2,0,P|306:99|295:70,1,62.9999980773926,10|8,0:0|1:2,0:0:0:0:
219,3,126274,2,0,L|160:20,1,62.9999980773926,10|8,0:1|1:2,0:0:0:0:
57,24,126631,2,0,L|74:83,1,62.9999980773926,10|8,0:1|1:2,0:0:0:0:
79,102,126899,1,10,1:0:0:0:
85,119,126988,1,10,1:2:0:0:
32,209,127166,6,0,P|121:229|147:206,1,105,10|0,1:0|1:0,0:0:0:0:
145,215,127524,2,0,P|234:195|260:218,1,105,8|0,1:2|1:0,0:0:0:0:
256,210,127881,2,0,P|345:230|371:207,1,105,8|0,1:2|1:0,0:0:0:0:
369,216,128239,2,0,P|458:196|484:219,1,105,8|0,1:2|1:0,0:0:0:0:
479,212,128595,5,2,1:0:0:0:
159,344,129488,5,2,1:2:0:0:
76,276,129666,1,2,1:2:0:0:
76,276,129756,1,0,1:0:0:0:
76,276,129845,2,0,L|65:232,1,41.9999987182618,2|0,1:2|1:0,0:0:0:0:
62,210,130024,6,0,P|114:172|175:265,1,167.999994873047,4|2,1:2|0:1,0:0:0:0:
294,279,130559,1,2,0:3:0:0:
294,279,130738,2,0,P|342:249|363:213,1,83.9999974365235,10|2,0:1|0:3,0:0:0:0:
397,116,131095,1,2,0:0:0:0:
313,32,131274,6,0,L|218:59,1,83.9999974365235,8|2,0:0|0:3,0:0:0:0:
118,23,131631,2,0,L|145:117,1,83.9999974365235,0|2,0:0|1:2,0:0:0:0:
100,214,131988,2,0,L|194:186,1,83.9999974365235,2|10,0:3|0:0,0:0:0:0:
291,230,132345,2,0,L|263:135,1,83.9999974365235,2|2,0:3|0:0,0:0:0:0:
380,183,132702,1,0,0:0:0:0:
367,300,132881,6,0,P|280:336|215:281,1,167.999994873047,2|2,1:3|0:1,0:0:0:0:
117,348,133416,1,2,0:3:0:0:
117,348,133595,2,0,P|110:294|98:252,1,83.9999974365235,10|2,0:1|0:3,0:0:0:0:
26,175,133952,1,2,1:2:0:0:
142,193,134131,6,0,L|236:165,1,83.9999974365235,8|2,0:0|0:3,0:0:0:0:
340,164,134488,2,0,L|269:95,1,83.9999974365235,0|2,0:0|1:2,0:0:0:0:
212,8,134845,2,0,L|188:103,1,83.9999974365235,2|10,0:3|0:0,0:0:0:0:
142,193,135202,2,0,L|236:165,1,83.9999974365235,2|2,0:3|0:0,0:0:0:0:
63,111,135559,1,0,1:0:0:0:
63,111,135649,1,0,1:0:0:0:
63,111,135738,6,0,P|33:163|63:270,1,167.999994873047,2|2,1:3|0:1,0:0:0:0:
141,352,136274,1,2,0:3:0:0:
141,352,136452,2,0,P|196:329|236:331,1,83.9999974365235,10|2,0:1|0:3,0:0:0:0:
336,342,136809,1,2,1:2:0:0:
287,234,136988,6,0,L|314:139,1,83.9999974365235,8|2,0:0|0:3,0:0:0:0:
402,79,137345,2,0,L|425:159,1,83.9999974365235,0|2,0:0|1:2,0:0:0:0:
467,269,137702,2,0,L|386:245,1,83.9999974365235,2|10,0:3|0:0,0:0:0:0:
310,153,138059,2,0,L|229:176,1,83.9999974365235,2|2,0:3|0:0,0:0:0:0:
150,263,138416,1,0,0:0:0:0:
77,170,138595,6,0,P|143:125|177:119,1,83.9999974365235,10|0,3:0|0:0,0:0:0:0:
131,105,138862,2,0,P|209:119|237:139,1,83.9999974365235,8|0,0:3|0:0,0:0:0:0:
209,96,139130,2,0,P|254:161|260:195,1,83.9999974365235,10|10,3:0|0:1,0:0:0:0:
279,156,139398,2,0,P|265:233|245:261,1,83.9999974365235,8|0,0:3|0:0,0:0:0:0:
288,233,139666,2,0,P|223:277|189:283,1,83.9999974365235,8|0,0:3|0:0,0:0:0:0:
194,280,139934,1,8,0:3:0:0:
170,274,140023,5,2,0:3:0:0:
22,50,141095,5,0,1:0:0:0:
22,50,141185,1,2,0:3:0:0:
22,50,141274,2,0,L|66:39,1,41.9999987182618,0|0,1:0|1:0,0:0:0:0:
87,36,141452,6,0,B|124:11|179:55|143:64|199:98|238:71,1,167.999994873047,2|2,1:3|0:1,0:0:0:0:
345,27,141988,1,2,0:3:0:0:
345,27,142166,2,0,P|390:35|435:68,1,83.9999974365235,10|2,0:1|0:3,0:0:0:0:
467,164,142524,1,2,1:2:0:0:
380,243,142702,6,0,L|285:215,1,83.9999974365235,8|2,0:0|0:3,0:0:0:0:
185,252,143059,2,0,L|212:157,1,83.9999974365235,0|2,0:0|1:2,0:0:0:0:
167,61,143416,2,0,L|261:88,1,83.9999974365235,2|10,0:3|0:0,0:0:0:0:
358,45,143773,2,0,L|330:139,1,83.9999974365235,2|2,0:3|0:0,0:0:0:0:
300,239,144131,1,0,0:0:0:0:
392,310,144309,6,0,P|304:281|223:325,1,167.999994873047,2|2,1:3|0:1,0:0:0:0:
135,366,144845,1,2,0:3:0:0:
135,366,145024,2,0,P|99:344|57:338,1,83.9999974365235,10|2,0:1|0:3,0:0:0:0:
11,229,145381,1,2,1:2:0:0:
121,267,145559,6,0,L|144:186,1,83.9999974365235,8|2,0:0|0:3,0:0:0:0:
85,84,145916,2,0,L|165:107,1,83.9999974365235,0|2,0:0|1:2,0:0:0:0:
260,178,146274,2,0,L|340:154,1,83.9999974365235,2|10,0:3|0:0,0:0:0:0:
445,209,146631,2,0,L|421:128,1,83.9999974365235,2|2,0:3|0:0,0:0:0:0:
340,42,146988,1,0,1:0:0:0:
340,42,147077,1,0,1:0:0:0:
340,42,147166,6,0,B|303:17|248:61|284:70|228:104|189:77,1,167.999994873047,2|2,1:3|0:1,0:0:0:0:
88,30,147702,1,2,0:3:0:0:
88,30,147881,2,0,P|99:80|91:123,1,83.9999974365235,10|2,0:1|0:3,0:0:0:0:
12,196,148238,1,2,1:2:0:0:
105,267,148416,6,0,L|81:347,1,83.9999974365235,8|2,0:0|0:3,0:0:0:0:
195,378,148774,2,0,L|219:298,1,83.9999974365235,0|2,0:0|1:2,0:0:0:0:
282,197,149131,2,0,L|258:117,1,83.9999974365235,2|10,0:3|0:0,0:0:0:0:
372,86,149489,2,0,L|396:166,1,83.9999974365235,2|2,0:3|0:0,0:0:0:0:
365,279,149845,1,0,0:0:0:0:
282,197,150024,6,0,P|216:152|182:146,1,83.9999974365235,10|0,3:0|0:0,0:0:0:0:
228,132,150291,2,0,P|150:146|122:166,1,83.9999974365235,8|0,0:3|0:0,0:0:0:0:
150,123,150559,2,0,P|105:188|99:222,1,83.9999974365235,10|10,3:0|0:1,0:0:0:0:
80,183,150827,2,0,P|94:260|114:288,1,83.9999974365235,8|0,0:3|0:0,0:0:0:0:
71,260,151095,2,0,P|136:304|170:310,1,83.9999974365235,8|0,0:3|0:0,0:0:0:0:
165,307,151363,1,8,0:3:0:0:
189,301,151452,5,2,0:0:0:0:
478,43,152524,5,0,1:0:0:0:
396,126,152702,1,0,1:0:0:0:
396,126,152791,1,0,1:0:0:0:
396,126,152881,6,0,B|316:102|316:102|230:132,1,167.999994873047,2|2,3:0|0:1,0:0:0:0:
120,114,153416,1,2,0:3:0:0:
120,114,153595,2,0,P|81:66|83:31,2,83.9999974365235,10|2|2,0:1|0:3|0:0,0:0:0:0:
61,216,154131,6,0,P|113:213|176:275,1,125.999996154785,8|0,0:0|0:0,0:0:0:0:
179,279,154488,2,0,P|225:299|264:283,1,83.9999974365235,0|2,0:0|1:2,0:0:0:0:
354,353,154845,2,0,B|373:272|373:272|369:265|369:265|390:178,1,167.999994873047,2|2,0:3|0:3,0:0:0:0:
401,73,155381,2,0,L|481:49,1,83.9999974365235,2|0,0:0|0:0,0:0:0:0:
317,129,155738,6,0,P|244:130|199:68,1,125.999996154785,2|0,1:3|0:0,0:0:0:0:
195,73,156095,2,0,P|137:61|101:81,1,83.9999974365235,2|2,0:1|0:3,0:0:0:0:
63,174,156452,2,0,P|13:170|-17:140,2,83.9999974365235,10|2|2,0:1|0:3|1:2,0:0:0:0:
86,164,156899,1,2,0:3:0:0:
108,152,156988,6,0,P|158:156|206:218,1,125.999996154785,8|0,0:0|0:0,0:0:0:0:
208,236,157345,2,0,L|184:316,1,83.9999974365235,0|2,0:0|1:2,0:0:0:0:
78,369,157702,2,0,L|54:289,1,83.9999974365235,2|10,0:3|0:0,0:0:0:0:
11,178,158059,1,2,0:3:0:0:
100,101,158238,2,0,P|146:92|199:125,1,83.9999974365235,2|0,0:0|1:0,0:0:0:0:
198,121,158506,1,0,1:0:0:0:
213,140,158595,6,0,B|250:165|305:121|269:112|325:78|364:105,1,167.999994873047,2|2,1:3|0:1,0:0:0:0:
458,172,159131,1,2,0:3:0:0:
458,172,159309,2,0,P|481:117|472:73,2,83.9999974365235,10|2|2,0:1|0:3|1:2,0:0:0:0:
340,182,159845,6,0,L|379:313,1,125.999996154785,8|0,0:0|0:0,0:0:0:0:
383,327,160202,2,0,P|332:340|299:320,1,83.9999974365235,0|2,0:0|1:2,0:0:0:0:
215,250,160559,2,0,P|164:237|131:257,1,83.9999974365235,2|10,0:3|0:0,0:0:0:0:
55,334,160916,1,2,0:3:0:0:
7,226,161095,2,0,L|31:146,1,83.9999974365235,2|0,0:0|0:0,0:0:0:0:
156,46,161452,6,0,P|235:53|265:71,1,83.9999974365235,10|0,3:0|0:0,0:0:0:0:
239,30,161719,2,0,P|289:90|298:124,1,83.9999974365235,8|0,0:3|0:0,0:0:0:0:
304,74,161987,2,0,P|296:152|279:182,1,83.9999974365235,10|10,3:0|0:1,0:0:0:0:
319,165,162255,2,0,P|258:214|225:223,1,83.9999974365235,8|0,0:3|0:0,0:0:0:0:
277,229,162523,2,0,P|198:220|169:203,1,83.9999974365235,8|0,0:3|0:0,0:0:0:0:
174,205,162791,1,8,0:3:0:0:
160,185,162880,5,2,0:3:0:0:
486,356,163952,5,0,1:0:0:0:
486,356,164042,1,2,0:3:0:0:
486,356,164131,2,0,L|442:345,1,41.9999987182618,0|0,1:0|1:0,0:0:0:0:
421,338,164309,6,0,P|375:247|416:171,1,167.999994873047,2|2,1:3|0:1,0:0:0:0:
452,88,164845,1,2,0:3:0:0:
452,88,165024,2,0,P|394:107|359:95,1,83.9999974365235,10|2,0:1|0:3,0:0:0:0:
269,46,165381,1,2,1:2:0:0:
269,46,165470,1,2,0:3:0:0:
269,46,165559,6,0,P|294:101|245:173,1,125.999996154785,8|0,0:0|0:0,0:0:0:0:
253,177,165916,2,0,L|173:153,1,83.9999974365235,0|2,0:0|1:2,0:0:0:0:
68,96,166274,2,0,L|148:72,1,83.9999974365235,2|10,0:3|0:0,0:0:0:0:
269,46,166631,1,2,0:3:0:0:
369,107,166809,2,0,L|449:83,1,83.9999974365235,2|0,0:0|0:0,0:0:0:0:
349,213,167166,6,0,P|292:189|217:214,1,125.999996154785,2|0,1:3|0:0,0:0:0:0:
214,222,167524,2,0,P|151:232|117:209,1,83.9999974365235,2|2,0:1|0:3,0:0:0:0:
59,133,167881,2,0,L|35:213,1,83.9999974365235,10|2,0:1|0:3,0:0:0:0:
76,334,168238,1,2,1:2:0:0:
76,334,168327,1,2,0:3:0:0:
76,334,168416,6,0,P|133:310|208:335,1,125.999996154785,8|0,0:0|0:0,0:0:0:0:
211,343,168774,2,0,P|274:353|308:330,1,83.9999974365235,0|2,0:0|1:2,0:0:0:0:
406,323,169131,2,0,P|383:263|346:245,1,83.9999974365235,2|10,0:3|0:0,0:0:0:0:
250,253,169488,1,2,0:3:0:0:
292,143,169666,2,0,L|268:63,1,83.9999974365235,2|0,0:0|1:0,0:0:0:0:
259,38,169934,1,0,1:0:0:0:
252,13,170024,6,0,B|215:-12|160:32|196:41|140:75|101:48,1,167.999994873047,2|2,1:3|0:1,0:0:0:0:
25,112,170559,1,2,0:3:0:0:
25,112,170738,2,0,L|49:192,1,83.9999974365235,10|2,0:1|0:3,0:0:0:0:
26,296,171095,1,2,1:2:0:0:
25,296,171184,1,2,0:3:0:0:
25,296,171274,6,0,L|158:255,1,125.999996154785,8|0,0:0|0:0,0:0:0:0:
158,237,171631,2,0,L|238:261,1,83.9999974365235,0|2,0:0|1:2,0:0:0:0:
322,343,171988,2,0,P|383:346|417:320,1,83.9999974365235,2|10,0:3|0:0,0:0:0:0:
481,249,172345,1,2,0:3:0:0:
382,184,172524,2,0,L|406:104,1,83.9999974365235,2|0,0:0|0:0,0:0:0:0:
277,15,172881,6,0,P|198:22|168:40,1,83.9999974365235,10|0,3:0|0:0,0:0:0:0:
194,0,173148,2,0,P|144:60|135:94,1,83.9999974365235,8|0,0:3|0:0,0:0:0:0:
129,43,173416,2,0,P|137:121|154:151,1,83.9999974365235,10|10,3:0|0:1,0:0:0:0:
114,134,173684,2,0,P|175:183|208:192,1,83.9999974365235,8|0,0:3|0:0,0:0:0:0:
156,198,173952,2,0,P|235:189|264:172,1,83.9999974365235,8|0,0:3|0:0,0:0:0:0:
259,174,174220,1,8,0:3:0:0:
273,154,174309,5,2,3:0:0:0:
21,35,175202,6,0,L|41:103,1,41.9999987182618,2|0,1:3|0:0,0:0:0:0:
117,157,175470,2,0,L|96:225,1,41.9999987182618,2|0,1:3|0:0,0:0:0:0:
36,293,175738,5,4,1:2:0:0:
