osu file format v14

[General]
AudioFilename: audio.mp3
AudioLeadIn: 0
PreviewTime: 111214
Countdown: 0
SampleSet: Soft
StackLeniency: 0.3
Mode: 0
LetterboxInBreaks: 0
WidescreenStoryboard: 1

[Editor]
Bookmarks: 1714,15428,29142,42857,56571,70285,84000,97714,111428,132000,145714,159428
DistanceSpacing: 0.7
BeatDivisor: 12
GridSize: 4
TimelineZoom: 3.499999

[Metadata]
Title:Boys
TitleUnicode:Boys
Artist:Charli XCX
ArtistUnicode:Charli XCX
Creator:rHO
Version:Seolv & Markus' Insane
Source:
Tags:smh rho seolv lukas [_l_u_k_a_s_] markus- markus A3THER_XX dragonicz draconicz john mapping delusional harepascals koda unappreciative english electronic pop electropop minimal bubblegum bitpop future bass jerker hansson cass lowe xcxworld world
BeatmapID:4138345
BeatmapSetID:1901461

[Difficulty]
HPDrainRate:4.5
CircleSize:4.2
OverallDifficulty:8
ApproachRate:8.5
SliderMultiplier:1.8
SliderTickRate:1

[Events]
//Background and Video events
0,0,"joe-lede_noised.jpg",0,0
Video,0,"output.mp4"
//Break Periods
2,133739,142440
//Storyboard Layer 0 (Background)
//Storyboard Layer 1 (Fail)
//Storyboard Layer 2 (Pass)
//Storyboard Layer 3 (Foreground)
//Storyboard Layer 4 (Overlay)
//Storyboard Sound Samples

[TimingPoints]
25,428.571428571429,4,2,2,40,1,0
1739,-133.333333333333,4,2,2,40,0,0
7739,-117.647058823529,4,2,2,40,0,0
12025,-105.263157894737,4,2,2,40,0,0
13310,-83.3333333333333,4,2,2,40,0,0
13739,-153.846153846154,4,2,2,40,0,0
15453,-100,4,2,1,75,0,0
29167,-100,4,2,3,60,0,0
35596,-74.0740740740741,4,2,3,60,0,0
35810,-57.1428571428571,4,2,3,60,0,0
36025,-100,4,2,3,60,0,0
39239,-66.6666666666667,4,2,3,60,0,0
39507,-100,4,2,3,60,0,0
41167,-133.333333333333,4,2,3,60,0,0
42025,-153.846153846153,4,2,3,60,0,0
42882,-153.846153846153,4,2,2,40,0,0
45453,-166.666666666667,4,2,2,40,0,0
47167,-181.818181818182,4,2,2,40,0,0
49525,-100,4,2,2,40,0,0
49739,-117.647058823529,4,2,2,40,0,0
54239,-111.111111111111,4,2,2,40,0,0
55310,-90.9090909090908,4,2,2,40,0,0
55739,-76.9230769230769,4,2,2,40,0,0
56167,-133.333333333333,4,2,2,40,0,0
56596,-66.6666666666667,4,2,1,75,0,0
57453,-66.6666666666667,4,2,1,75,0,0
57882,-133.333333333333,4,2,1,75,0,0
58310,-66.6666666666667,4,2,1,75,0,0
59167,-66.6666666666667,4,2,1,75,0,0
59596,-100,4,2,1,75,0,0
60025,-66.6666666666667,4,2,1,75,0,0
60882,-66.6666666666667,4,2,1,75,0,0
61310,-133.333333333333,4,2,1,75,0,0
62275,-117.647058823529,4,2,1,75,0,0
62703,-100,4,2,1,75,0,0
63025,-100,4,2,2,75,0,0
63453,-133.333333333333,4,2,3,75,0,0
63882,-55.5555555555556,4,2,3,75,0,0
64739,-111.111111111111,4,2,3,75,0,0
65167,-133.333333333333,4,2,3,75,0,0
65596,-55.5555555555556,4,2,3,75,0,0
66453,-76.9230769230769,4,2,3,75,0,0
67310,-55.5555555555556,4,2,3,75,0,0
68596,-100,4,2,3,75,0,0
69132,-83.3333333333333,4,2,3,75,0,0
69560,-66.6666666666667,4,2,3,75,0,0
69882,-50,4,2,3,75,0,0
70310,-80,4,2,3,60,0,0
70739,-86.9565217391304,4,2,3,60,0,0
83167,-133.333333333333,4,2,3,60,0,0
84025,-133.333333333333,4,2,2,40,0,0
84882,-117.647058823529,4,2,2,40,0,0
90025,-235.294117647059,4,2,2,40,0,0
90667,-90.9090909090909,4,2,2,40,0,0
90882,-100,4,2,2,40,0,0
91310,-117.647058823529,4,2,2,40,0,0
92382,-250,4,2,2,40,0,0
92596,-125,4,2,2,40,0,0
93453,-142.857142857143,4,2,2,40,0,0
94739,-142.857142857143,4,2,0,25,0,0
95167,-142.857142857143,4,2,0,50,0,0
95596,-142.857142857143,4,2,0,75,0,0
96025,-142.857142857143,4,2,0,75,0,0
97739,-74.0740740740741,4,2,3,75,0,0
98060,-74.0740740740741,4,2,3,75,0,0
98167,-74.0740740740741,4,2,3,75,0,0
98274,-74.0740740740741,4,2,3,75,0,0
98382,-100,4,2,3,75,0,0
98453,-100,4,2,3,75,0,0
98596,-71.4285714285714,4,2,3,75,0,0
98703,-71.4285714285714,4,2,3,75,0,0
98810,-166.666666666667,4,2,3,75,0,0
99453,-83.3333333333333,4,2,3,75,0,0
99774,-83.3333333333333,4,2,3,75,0,0
99882,-83.3333333333333,4,2,3,75,0,0
100203,-83.3333333333333,4,2,3,75,0,0
100311,-83.3333333333333,4,2,3,75,0,0
100739,-64.5161290322581,4,2,3,75,0,0
100846,-64.5161290322581,4,2,3,75,0,0
100953,-64.5161290322581,4,2,3,75,0,0
101060,-64.5161290322581,4,2,3,75,0,0
101167,-74.0740740740741,4,2,3,75,0,0
101488,-74.0740740740741,4,2,3,75,0,0
101596,-74.0740740740741,4,2,3,75,0,0
101917,-74.0740740740741,4,2,3,75,0,0
102025,-74.0740740740741,4,2,3,75,0,0
102132,-74.0740740740741,4,2,3,75,0,0
102239,-74.0740740740741,4,2,3,75,0,0
102882,-58.8235294117647,4,2,3,75,0,0
103203,-58.8235294117647,4,2,3,75,0,0
103310,-74.0740740740741,4,2,3,75,0,0
104060,-74.0740740740741,4,2,3,75,0,0
104167,-74.0740740740741,4,2,2,75,0,0
104596,-74.0740740740741,4,2,3,75,0,0
104917,-74.0740740740741,4,2,3,75,0,0
105025,-74.0740740740741,4,2,3,75,0,0
105132,-74.0740740740741,4,2,3,75,0,0
105239,-74.0740740740741,4,2,3,75,0,0
106631,-74.0740740740741,4,2,3,75,0,0
106739,-74.0740740740741,4,2,3,75,0,0
107060,-74.0740740740741,4,2,3,75,0,0
107167,-83.3333333333333,4,2,3,75,0,0
107703,-83.3333333333333,4,2,3,75,0,0
107810,-83.3333333333333,4,2,3,75,0,0
107917,-83.3333333333333,4,2,3,75,0,0
108025,-74.0740740740741,4,2,3,75,0,0
108346,-74.0740740740741,4,2,3,75,0,0
108453,-74.0740740740741,4,2,3,75,0,0
108775,-74.0740740740741,4,2,3,75,0,0
108882,-74.0740740740741,4,2,3,75,0,0
108989,-74.0740740740741,4,2,3,75,0,0
109096,-74.0740740740741,4,2,3,75,0,0
110060,-74.0740740740741,4,2,3,75,0,0
110167,-74.0740740740741,4,2,3,75,0,0
110381,-74.0740740740741,4,2,3,75,0,0
110596,-74.0740740740741,4,2,3,75,0,0
110917,-74.0740740740741,4,2,3,75,0,0
111025,-250,4,2,3,75,0,0
111239,-250,4,2,3,75,0,0
111453,-66.6666666666667,4,2,2,80,0,0
111774,-66.6666666666667,4,2,2,80,0,0
111882,-83.3333333333333,4,2,2,80,0,0
111989,-83.3333333333333,4,2,2,80,0,0
112096,-83.3333333333333,4,2,2,80,0,0
112632,-83.3333333333333,4,2,2,80,0,0
112953,-83.3333333333333,4,2,2,80,0,0
113006,-83.3333333333333,4,2,2,80,0,0
113167,-83.3333333333333,4,2,2,80,0,0
113381,-83.3333333333333,4,2,2,80,0,0
113596,-83.3333333333333,4,2,2,80,0,0
114346,-83.3333333333333,4,2,2,80,0,0
114453,-83.3333333333333,4,2,2,80,0,0
114560,-83.3333333333333,4,2,2,80,0,0
114667,-83.3333333333333,4,2,2,80,0,0
114775,-83.3333333333333,4,2,2,80,0,0
114882,-74.0740740740741,4,2,2,80,0,0
115203,-74.0740740740741,4,2,2,80,0,0
115310,-83.3333333333333,4,2,2,80,0,0
115417,-83.3333333333333,4,2,2,80,0,0
115524,-83.3333333333333,4,2,2,80,0,0
116274,-83.3333333333333,4,2,2,80,0,0
116596,-83.3333333333333,4,2,2,80,0,0
116810,-83.3333333333333,4,2,2,80,0,0
116917,-83.3333333333333,4,2,2,80,0,0
117078,-83.3333333333333,4,2,2,80,0,0
117239,-83.3333333333333,4,2,2,80,0,0
117560,-83.3333333333333,4,2,2,80,0,0
117667,-83.3333333333333,4,2,2,80,0,0
117774,-83.3333333333333,4,2,2,80,0,0
117882,-83.3333333333333,4,2,2,80,0,0
118310,-66.6666666666667,4,2,2,80,0,0
118631,-66.6666666666667,4,2,2,80,0,0
118739,-83.3333333333333,4,2,2,80,0,0
118846,-83.3333333333333,4,2,2,80,0,0
118953,-83.3333333333333,4,2,2,80,0,0
119489,-83.3333333333333,4,2,2,80,0,0
119810,-83.3333333333333,4,2,2,80,0,0
119863,-83.3333333333333,4,2,2,80,0,0
120025,-83.3333333333333,4,2,2,80,0,0
120239,-83.3333333333333,4,2,2,80,0,0
120453,-83.3333333333333,4,2,2,80,0,0
121203,-83.3333333333333,4,2,2,80,0,0
121310,-83.3333333333333,4,2,2,80,0,0
121418,-83.3333333333333,4,2,2,80,0,0
121525,-83.3333333333333,4,2,2,80,0,0
121632,-83.3333333333333,4,2,2,80,0,0
121739,-66.6666666666667,4,2,2,80,0,0
122060,-66.6666666666667,4,2,2,80,0,0
122167,-83.3333333333333,4,2,2,80,0,0
122274,-83.3333333333333,4,2,2,80,0,0
122381,-83.3333333333333,4,2,2,80,0,0
122489,-83.3333333333333,4,2,2,80,0,0
122596,-83.3333333333333,4,2,2,80,0,0
122917,-83.3333333333333,4,2,2,80,0,0
123025,-83.3333333333333,4,2,2,80,0,0
123132,-83.3333333333333,4,2,2,80,0,0
123453,-66.6666666666667,4,2,2,80,0,0
123774,-66.6666666666667,4,2,2,80,0,0
123882,-83.3333333333333,4,2,2,80,0,0
123989,-83.3333333333333,4,2,2,80,0,0
124096,-83.3333333333333,4,2,2,80,0,0
124167,-83.3333333333333,4,2,2,80,0,0
124310,-83.3333333333333,4,2,2,80,0,0
125488,-83.3333333333333,4,2,2,80,0,0
125810,-83.3333333333333,4,2,2,80,0,0
125917,-83.3333333333333,4,2,2,80,0,0
126025,-83.3333333333333,4,2,2,80,0,0
126239,-83.3333333333333,4,2,2,80,0,0
126667,-83.3333333333333,4,2,2,80,0,0
126774,-83.3333333333333,4,2,2,80,0,0
126882,-74.0740740740741,4,2,2,80,0,0
127203,-74.0740740740741,4,2,2,80,0,0
127310,-83.3333333333333,4,2,2,80,0,0
127739,-83.3333333333333,4,2,2,80,0,0
128167,-83.3333333333333,4,2,2,80,0,0
128382,-83.3333333333333,4,2,2,80,0,0
128489,-83.3333333333333,4,2,2,80,0,0
128596,-100,4,2,2,80,0,0
128917,-100,4,2,2,80,0,0
129882,-166.666666666667,4,2,2,80,0,0
130310,-200,4,2,2,80,0,0
132025,-200,4,2,0,30,0,0
142739,-200,4,2,0,35,0,0
143167,-200,4,2,0,40,0,0
143596,-200,4,2,0,45,0,0
144025,-200,4,2,0,50,0,0
145310,-200,4,2,0,50,0,0
145739,-75.4716981132076,4,2,3,75,0,0
146060,-75.4716981132076,4,2,3,75,0,0
146167,-86.9565217391304,4,2,3,75,0,0
146274,-86.9565217391304,4,2,3,75,0,0
146382,-86.9565217391304,4,2,3,75,0,0
146703,-86.9565217391304,4,2,3,75,0,0
146810,-86.9565217391304,4,2,3,75,0,0
147131,-86.9565217391304,4,2,3,75,0,0
147239,-86.9565217391304,4,2,3,75,0,0
147346,-86.9565217391304,4,2,3,75,0,0
147453,-86.9565217391304,4,2,3,75,0,0
147774,-86.9565217391304,4,2,3,75,0,0
147882,-86.9565217391304,4,2,3,75,0,0
148203,-86.9565217391304,4,2,3,75,0,0
148310,-86.9565217391304,4,2,3,75,0,0
148739,-41.6666666666667,4,2,3,75,0,0
148792,-41.6666666666667,4,2,3,75,0,0
148953,-83.3333333333333,4,2,3,75,0,0
149060,-83.3333333333333,4,2,3,75,0,0
149167,-71.4285714285714,4,2,3,75,0,0
149917,-71.4285714285714,4,2,3,75,0,0
150025,-71.4285714285714,4,2,3,75,0,0
150774,-71.4285714285714,4,2,3,75,0,0
150882,-64.5161290322581,4,2,3,75,0,0
151203,-64.5161290322581,4,2,3,75,0,0
151310,-60.6060606060606,4,2,3,75,0,0
151631,-60.6060606060606,4,2,3,75,0,0
151739,-71.4285714285714,4,2,3,75,0,0
152382,-71.4285714285714,4,2,3,75,0,0
152596,-71.4285714285714,4,2,3,75,0,0
152917,-71.4285714285714,4,2,3,75,0,0
153025,-71.4285714285714,4,2,3,75,0,0
153132,-71.4285714285714,4,2,3,75,0,0
153239,-71.4285714285714,4,2,3,75,0,0
153292,-71.4285714285714,4,2,3,75,0,0
153453,-71.4285714285714,4,2,3,75,0,0
153560,-71.4285714285714,4,2,3,75,0,0
153667,-71.4285714285714,4,2,3,75,0,0
153882,-62.5,4,2,3,75,0,0
154310,-83.3333333333333,4,2,3,75,0,0
154631,-83.3333333333333,4,2,3,75,0,0
154739,-83.3333333333333,4,2,3,75,0,0
155060,-83.3333333333333,4,2,3,75,0,0
155167,-83.3333333333333,4,2,3,75,0,0
155596,-41.6666666666667,4,2,3,75,0,0
155649,-41.6666666666667,4,2,3,75,0,0
155810,-83.3333333333333,4,2,3,75,0,0
155917,-83.3333333333333,4,2,3,75,0,0
156025,-71.4285714285714,4,2,3,75,0,0
156346,-71.4285714285714,4,2,3,75,0,0
156453,-71.4285714285714,4,2,3,75,0,0
156775,-71.4285714285714,4,2,3,75,0,0
156882,-83.3333333333333,4,2,3,75,0,0
157739,-71.4285714285714,4,2,3,75,0,0
158060,-71.4285714285714,4,2,3,75,0,0
158167,-71.4285714285714,4,2,3,75,0,0
158489,-71.4285714285714,4,2,3,75,0,0
158596,-100,4,2,3,75,0,0
158810,-100,4,2,3,75,0,0
159025,-100,4,2,3,75,0,0
159239,-100,4,2,3,75,0,0
159453,-117.647058823529,4,2,0,80,0,0
160203,-117.647058823529,4,2,0,5,0,0

[Colours]
Combo1 : 255,240,60
Combo2 : 255,60,250
Combo3 : 60,191,255

[HitObjects]
239,198,25,5,0,0:0:0:0:
239,197,132,2,0,P|272:159|352:178,1,135
379,262,560,2,0,L|406:119,1,135
371,65,989,1,0,0:0:0:0:
371,65,1310,1,0,0:0:0:0:
21,109,1739,6,0,P|87:109|136:153,1,135.000005149842,10|0,0:1|0:0,0:0:0:0:
59,18,2382,1,8,0:1:0:0:
59,18,2489,2,0,L|66:50,1,33.7500012874604
66,50,3025,1,8,0:1:0:0:
26,203,3239,5,8,0:1:0:0:
26,203,3346,1,8,0:1:0:0:
26,203,3453,2,0,B|97:182|90:252|160:228,1,135.000005149842,10|0,0:1|0:0,0:0:0:0:
218,366,4096,1,8,0:1:0:0:
218,366,4203,2,0,L|228:325,1,33.7500012874604
110,317,4739,5,8,0:1:0:0:
261,267,4953,1,8,0:1:0:0:
412,217,5167,2,0,P|458:209|465:286,1,135.000005149842,10|0,0:1|0:0,0:0:0:0:
326,177,5810,69,8,0:1:0:0:
326,177,5917,2,0,L|332:143,1,33.7500012874604
332,143,6453,1,8,0:1:0:0:
498,28,6882,5,0,0:0:0:0:
497,28,6989,2,0,P|458:58|410:50,1,101.250003862381
243,131,7525,1,0,0:0:0:0:
340,95,7739,5,0,0:0:0:0:
344,89,7846,2,0,P|319:69|263:69,1,76.5000014591217
235,128,8167,1,0,0:0:0:0:
83,64,8382,2,0,L|77:46,3,19.1250003647804,8|8|8|0,0:1|0:1|0:1|0:0,0:0:0:0:
71,73,8596,6,0,P|54:106|137:109,1,153.000002918243,10|0,0:1|0:0,0:0:0:0:
275,64,9239,1,8,0:1:0:0:
275,64,9346,2,0,L|281:26,1,38.2500007295609
192,0,9881,69,8,0:1:0:0:
235,128,10096,1,8,0:1:0:0:
278,256,10310,2,0,P|206:212|139:240,1,153.000002918243,10|0,0:1|0:0,0:0:0:0:
0,311,10953,1,8,0:1:0:0:
0,311,11060,2,0,L|54:298,1,38.2500007295609
38,302,11596,1,8,0:1:0:0:
104,171,11810,5,8,0:1:0:0:
104,171,11917,1,8,0:1:0:0:
104,171,12025,2,0,B|85:299|85:299|106:334,1,170.999995433807,2|0,0:1|0:0,0:0:0:0:
263,371,12667,1,8,0:1:0:0:
263,371,12882,2,0,L|322:388,1,42.7499988584519
304,382,13310,1,8,0:1:0:0:
432,175,13739,6,0,B|489:192|514:124|504:82|441:44|360:72|306:128|335:218,1,350.999983932496
443,182,15453,6,0,P|363:142|276:124,1,180,6|2,3:1|0:2,0:0:0:0:
225,64,16096,1,0,3:0:0:0:
357,0,16310,2,0,L|346:43,1,45,0|0,1:0|0:0,0:0:0:0:
334,45,16525,2,0,B|341:87|287:79|294:135,2,90,0|0|0,3:0|0:0|0:0,0:0:0:0:
198,174,17167,69,2,3:2:0:0:
126,198,17382,1,0,0:0:0:0:
69,243,17596,1,0,0:0:0:0:
47,313,17810,1,2,3:2:0:0:
232,286,18025,6,0,B|310:270|303:332|378:309,1,135,2|0,1:0|0:0,0:0:0:0:
377,384,18453,2,0,B|380:301|459:285|515:324|438:338,1,180,2|2,3:1|3:2,0:0:0:0:
332,235,19096,5,0,0:0:0:0:
322,225,19203,1,0,0:0:0:0:
321,211,19310,1,2,0:2:0:0:
372,152,19525,1,0,3:0:0:0:
453,266,19739,2,0,P|431:270|410:280,1,45,0|0,1:0|0:0,0:0:0:0:
402,291,19953,2,0,P|412:334|470:322,2,90,0|0|0,3:0|0:0|0:0,0:0:0:0:
499,159,20596,5,2,3:2:0:0:
427,135,20811,1,0,0:0:0:0:
370,90,21025,1,0,0:0:0:0:
348,20,21239,1,2,3:2:0:0:
230,96,21453,70,0,L|248:229,1,135,2|0,1:0|0:0,0:0:0:0:
298,291,21882,2,0,P|224:243|138:259,1,180,2|2,3:1|3:2,0:0:0:0:
28,164,22525,5,0,0:0:0:0:
77,71,22739,2,0,L|56:163,1,90,2|0,0:2|3:0,0:0:0:0:
26,334,23167,2,0,L|15:290,1,45,0|0,1:0|0:0,0:0:0:0:
7,283,23382,6,0,B|41:264|66:239|66:239|61:284,1,90,0|0,3:0|0:0,0:0:0:0:
11,170,23810,1,0,0:0:0:0:
125,316,24025,5,2,3:2:0:0:
193,299,24239,1,0,0:0:0:0:
265,320,24453,1,0,0:0:0:0:
298,383,24667,1,2,3:2:0:0:
383,262,24882,70,0,B|369:200|369:200|379:175,1,90,0|0,1:0|0:0,0:0:0:0:
298,383,25310,2,0,P|257:364|213:367,1,90,2|0,3:1|0:0,0:0:0:0:
359,338,25739,6,0,L|404:49,1,270,2|0,3:1|3:0,0:0:0:0:
225,16,26596,1,0,1:0:0:0:
145,126,26810,2,0,P|191:100|229:99,1,90,0|2,3:0|0:1,0:0:0:0:
286,146,27239,1,0,0:0:0:0:
75,141,27453,6,0,P|207:170|332:220,1,270,2|0,3:1|3:0,0:0:0:0:
484,322,28310,1,2,1:2:0:0:
488,301,28417,1,2,0:2:0:0:
474,288,28525,1,2,0:2:0:0:
457,292,28632,1,2,0:2:0:0:
438,273,28739,1,2,3:2:0:0:
388,277,28846,1,2,0:2:0:0:
353,321,28953,1,2,0:2:0:0:
357,366,29060,1,2,0:2:0:0:
358,373,29167,6,0,P|318:355|273:350,1,90,2|0,3:2|0:0,0:0:0:0:
139,185,29596,2,0,P|179:203|224:208,1,90,2|0,0:2|3:0,0:0:0:0:
144,330,30025,69,0,1:0:0:0:
310,224,30239,2,0,L|327:109,1,90,0|0,3:0|0:0,0:0:0:0:
448,277,30667,1,0,0:0:0:0:
448,277,30775,1,0,0:0:0:0:
448,277,30882,1,2,3:2:0:0:
285,364,31096,6,0,P|325:345|370:340,2,90,0|0|2,0:0|0:0|3:2,0:0:0:0:
492,197,31739,2,0,L|468:382,1,180,2|2,1:0|3:1,0:0:0:0:
323,134,32382,6,0,L|319:111,4,22.5,0|0|0|0|2,0:0|0:0|0:0|0:0|3:2,0:0:0:0:
274,196,32810,1,0,0:0:0:0:
405,139,33025,1,2,0:2:0:0:
323,134,33239,1,0,3:0:0:0:
449,210,33453,6,0,L|491:196,1,45,0|0,1:0|0:0,0:0:0:0:
420,325,33667,2,0,P|372:301|339:308,1,90,0|0,3:0|0:0,0:0:0:0:
207,369,34096,1,0,0:0:0:0:
207,369,34203,1,0,0:0:0:0:
207,369,34310,1,2,3:2:0:0:
225,208,34525,70,0,L|242:296,1,90
111,208,34953,1,2,3:2:0:0:
281,155,35167,2,0,L|289:110,2,45,2|0|0,1:0|0:0|0:0,0:0:0:0:
286,163,35596,6,0,L|291:129,2,30.3750001158714,2|0|0,3:1|0:0|0:0,0:0:0:0:
111,208,35810,2,0,L|102:169,2,39.3750003755093
46,145,36025,6,0,P|89:139|122:109,2,90,2|0|2,3:2|0:0|0:2,0:0:0:0:
0,89,36667,1,0,3:0:0:0:
156,269,36882,2,0,L|147:313,1,45,0|0,1:0|0:0,0:0:0:0:
87,349,37096,2,0,P|130:354|163:384,1,90,0|0,3:0|0:0,0:0:0:0:
312,250,37525,1,0,0:0:0:0:
423,345,37739,6,0,L|335:322,1,90,2|0,3:2|0:0,0:0:0:0:
178,175,38167,2,0,L|265:152,1,90,0|2,0:0|3:2,0:0:0:0:
487,93,38596,2,0,P|421:113|332:46,1,180,0|0,1:0|3:0,0:0:0:0:
188,22,39239,2,0,L|196:62,2,33.7500012874604
265,152,39453,69,2,3:1:0:0:
274,156,39560,2,0,L|261:245,1,90,2|0,0:1|0:0,0:0:0:0:
336,349,39882,1,2,0:1:0:0:
335,359,39989,2,0,P|377:327|415:339,1,90,2|0,0:1|0:0,0:0:0:0:
475,371,40310,1,2,1:0:0:0:
261,245,40525,6,0,B|172:219|183:306|70:265,1,180,0|0,3:0|0:0,0:0:0:0:
89,271,41060,1,0,0:0:0:0:
89,271,41167,1,0,3:0:0:0:
172,287,41810,5,0,3:0:0:0:
11,261,42025,2,0,P|108:269|152:357,1,204.749990627289,0|0,1:0|0:0,0:0:0:0:
152,351,42882,6,0,B|250:328|235:398|324:366,1,175.499991966248,6|0,0:1|0:0,0:0:0:0:
371,313,43739,2,0,P|376:285|386:257,2,58.4999973220826,2|0|0,0:2|0:0|0:0,0:0:0:0:
320,216,44382,69,0,0:0:0:0:
320,216,44596,2,0,P|377:208|423:173,1,116.999994644165,2|2,0:2|0:2,0:0:0:0:
468,239,45453,2,0,L|487:78,1,161.999995056153,2|2,0:2|0:2,0:0:0:0:
438,23,46310,5,2,0:1:0:0:
438,23,46953,1,0,0:0:0:0:
398,78,47167,2,0,P|374:85|351:94,1,49.5000015106202,2|0,0:2|0:0,0:0:0:0:
236,16,47596,2,0,P|212:8|189:0,1,49.5000015106202
136,50,48025,6,0,L|148:123,2,74.2500022659302,2|0|2,0:2|0:0|0:2,0:0:0:0:
136,50,48882,2,0,P|214:35|261:90,1,148.50000453186,2|8,0:2|0:1,0:0:0:0:
378,205,49632,6,0,L|373:229,2,22.5,8|8|10,0:1|0:1|0:1,0:0:0:0:
378,205,50382,1,8,0:1:0:0:
285,260,50596,2,0,L|299:343,1,76.5000014591217
179,172,51025,69,8,0:1:0:0:
66,200,51239,1,8,0:1:0:0:
179,172,51453,2,0,P|250:173|288:101,1,153.000002918243,8|0,0:1|0:0,0:0:0:0:
133,29,52096,5,8,0:1:0:0:
63,15,52310,2,0,B|78:73|122:45|131:110,1,114.750002188683
126,111,52739,2,0,L|89:123,1,38.2500007295609,8|0,0:1|0:0,0:0:0:0:
245,227,52953,5,8,0:1:0:0:
245,227,53060,1,8,0:1:0:0:
245,227,53167,2,0,P|172:226|104:285,1,153.000002918243,8|0,0:1|0:0,0:0:0:0:
313,166,53810,2,0,B|351:106|351:106|305:20,1,153.000002918243,8|0,0:1|0:0,0:0:0:0:
455,259,54453,6,0,P|417:272|383:294,1,80.9999975280763,8|0,0:1|0:0,0:0:0:0:
240,103,54882,1,8,0:1:0:0:
240,103,56596,70,0,B|269:24|361:48|361:48|340:62|335:96,1,202.500007724762,6|0,3:1|0:0,0:0:0:0:
297,154,57025,2,0,B|229:135|240:202|164:174,1,135.000005149842,2|0,0:2|3:0,0:0:0:0:
108,106,57346,5,0,0:0:0:0:
115,112,57453,2,0,L|124:45,1,67.5000025749208,0|0,1:0|0:0,0:0:0:0:
16,217,57667,1,2,3:2:0:0:
76,267,57882,6,0,L|85:333,1,67.5000025749208
9,117,58310,6,0,B|109:92|173:61|173:61|215:67,1,202.500007724762,2|0,3:1|0:0,0:0:0:0:
209,69,58739,2,0,P|227:130|172:160,1,135.000005149842,0|2,0:0|3:2,0:0:0:0:
72,9,59060,69,0,0:0:0:0:
85,17,59167,2,0,B|50:114|150:123|112:210,1,202.500007724762,0|0,1:0|0:0,0:0:0:0:
43,296,59596,6,0,P|96:256|161:264,1,135,2|0,3:2|0:0,0:0:0:0:
270,381,60025,6,0,L|293:179,1,202.500007724762,2|0,3:1|0:0,0:0:0:0:
292,179,60453,2,0,P|267:200|234:205,1,67.5000025749208,2|0,0:2|0:0,0:0:0:0:
373,10,60667,2,0,P|405:14|431:36,1,67.5000025749208,0|0,3:0|0:0,0:0:0:0:
235,128,60882,6,0,L|227:60,1,67.5000025749208,0|0,1:0|0:0,0:0:0:0:
167,7,61096,2,0,B|235:-10|240:49|305:22,1,135.000005149842,2|0,3:2|0:0,0:0:0:0:
433,269,61739,69,2,3:2:0:0:
433,269,61846,2,0,B|384:255|384:255|342:283,1,101.250003862381,2|2,0:2|0:2,0:0:0:0:
284,236,62275,1,2,0:2:0:0:
284,236,62382,2,0,L|291:190,1,38.2500007295609,0|0,3:0|0:0,0:0:0:0:
108,336,62596,5,2,1:2:0:0:
109,330,62703,2,0,P|159:328|200:368,1,90,2|0,0:2|0:0,0:0:0:0:
195,358,63025,2,0,L|198:380,2,22.5,8|8|8,3:1|0:1|0:1,0:0:0:0:
163,152,63239,2,0,L|166:174,2,22.5,8|8|8,0:1|0:1|0:1,0:0:0:0:
136,0,63453,6,0,P|156:26|188:35,1,67.5000025749208,6|0,3:1|0:0,0:0:0:0:
92,161,63882,6,0,P|159:118|239:119,1,161.999995056153,2|0,0:2|3:0,0:0:0:0:
303,83,64203,1,0,0:0:0:0:
314,80,64310,2,0,L|327:0,1,80.9999975280763,0|0,1:0|0:0,0:0:0:0:
442,171,64525,1,0,3:0:0:0:
354,265,64739,70,0,L|340:185,1,80.9999975280763
426,54,65167,6,0,P|435:22|461:2,1,67.5000025749208,2|0,3:1|0:0,0:0:0:0:
340,185,65596,6,0,B|255:163|275:242|180:207,1,161.999995056153,0|2,0:0|3:2,0:0:0:0:
135,276,65917,1,0,0:0:0:0:
137,264,66025,2,0,B|167:199|97:127|10:142|17:240|63:239,1,242.999992584229,0|0,1:0|0:0,0:0:0:0:
89,361,66453,6,0,P|156:308|240:322,1,175.499991966248,0|0,3:0|0:0,0:0:0:0:
327,282,66882,70,0,B|364:242|364:242|334:172,1,116.999994644165,2|0,3:1|0:0,0:0:0:0:
469,384,67310,6,0,L|309:353,1,161.999995056153,0|0,0:0|3:0,0:0:0:0:
185,268,67632,1,0,0:0:0:0:
185,268,67739,2,0,L|169:188,1,80.9999975280763,0|0,1:0|0:0,0:0:0:0:
89,361,67953,5,0,3:0:0:0:
89,361,68167,1,0,0:0:0:0:
103,140,68596,5,2,3:2:0:0:
110,148,68703,2,0,P|164:133|186:101,1,90,2|0,0:2|0:0,0:0:0:0:
65,9,69025,69,2,0:2:0:0:
41,2,69132,2,0,P|25:62|44:101,1,107.999996704102,2|0,0:2|0:0,0:0:0:0:
148,34,69453,5,2,1:2:0:0:
163,25,69560,2,0,P|259:40|359:75,1,202.500007724762,2|2,0:2|0:2,0:0:0:0:
357,74,70096,2,0,L|351:30,3,45
371,0,70310,5,2,3:1:0:0:
274,83,70525,1,0,0:0:0:0:
424,171,70739,1,2,0:2:0:0:
465,239,70953,1,0,3:0:0:0:
371,351,71167,6,0,L|378:299,1,51.7500009870529,0|0,1:0|0:0,0:0:0:0:
386,290,71382,2,0,P|414:248|464:238,1,103.500001974106,0|0,3:0|0:0,0:0:0:0:
257,189,71810,1,0,0:0:0:0:
183,230,72025,70,0,P|192:254|199:279,1,51.7500009870529,2|0,3:2|0:0,0:0:0:0:
234,341,72239,2,0,L|132:322,2,103.500001974106,0|0|2,0:0|0:0|3:2,0:0:0:0:
424,171,72882,5,2,1:0:0:0:
429,135,72989,1,0,0:0:0:0:
435,99,73096,1,0,0:0:0:0:
441,63,73203,1,0,0:0:0:0:
447,27,73310,1,2,3:1:0:0:
512,104,73525,1,0,0:0:0:0:
353,208,73739,6,0,P|307:185|256:188,1,103.500001974106,2|0,3:2|0:0,0:0:0:0:
114,93,74167,1,2,0:2:0:0:
210,14,74382,2,0,L|202:65,1,51.7500009870529,0|0,3:0|0:0,0:0:0:0:
90,267,74596,6,0,L|74:164,1,103.500001974106,0|0,1:0|3:0,0:0:0:0:
114,93,74917,2,0,L|139:97,2,25.8750004935265
61,38,75239,69,0,0:0:0:0:
0,213,75453,5,2,3:2:0:0:
90,267,75667,1,0,0:0:0:0:
140,347,75882,1,0,0:0:0:0:
140,347,76096,2,0,L|207:332,1,51.7500009870529,2|0,3:2|0:0,0:0:0:0:
297,384,76310,2,0,P|298:332|319:285,1,103.500001974106,2|0,1:0|0:0,0:0:0:0:
140,347,76739,6,0,L|114:343,2,25.8750004935265,2|0|0,3:1|0:0|0:0,0:0:0:0:
370,380,76953,2,0,L|396:384,2,25.8750004935265
297,384,77167,5,2,3:2:0:0:
418,263,77382,1,0,0:0:0:0:
418,263,77489,1,0,0:0:0:0:
418,263,77596,2,0,P|421:223|430:202,1,51.7500009870529,2|0,0:2|0:0,0:0:0:0:
484,154,77810,2,0,L|487:179,2,25.8750004935265,0|0|0,3:0|0:0|0:0,0:0:0:0:
485,294,78025,70,0,P|434:303|396:337,1,103.500001974106,0|0,1:0|3:0,0:0:0:0:
243,119,78453,2,0,P|281:152|331:162,1,103.500001974106
474,41,78882,5,2,3:2:0:0:
474,41,78989,1,0,0:0:0:0:
474,41,79096,1,0,0:0:0:0:
474,41,79203,1,0,0:0:0:0:
474,41,79310,1,0,0:0:0:0:
331,162,79525,2,0,L|316:222,1,51.7500009870529,2|0,3:2|0:0,0:0:0:0:
168,84,79739,5,0,1:0:0:0:
192,57,79846,1,0,0:0:0:0:
225,43,79953,1,0,0:0:0:0:
261,44,80060,1,0,0:0:0:0:
294,59,80167,1,0,3:0:0:0:
294,59,80382,1,0,0:0:0:0:
172,288,80596,5,2,3:1:0:0:
181,284,80703,2,0,L|159:170,1,103.500001974106,2|0,0:1|0:0,0:0:0:0:
70,87,81025,1,2,0:1:0:0:
65,77,81132,2,0,B|35:123|35:123|52:180,1,103.500001974106,2|0,0:1|0:0,0:0:0:0:
180,284,81453,70,0,P|231:278|277:300,1,103.500001974106,2|0,1:0|3:0,0:0:0:0:
388,357,81775,2,0,L|380:399,2,25.8750004935265
450,317,82096,1,0,0:0:0:0:
329,214,82310,5,0,3:0:0:0:
329,214,82953,5,0,3:0:0:0:
489,115,83167,6,0,B|450:134|411:114|403:73|412:80|406:37|364:19|329:37,1,202.500007724762,0|0,1:0|0:0,0:0:0:0:
252,42,84025,6,0,P|239:29|233:12,1,33.7500012874604,6|0,0:1|0:0,0:0:0:0:
218,111,84239,2,0,P|201:115|182:112,1,33.7500012874604
263,177,84453,2,0,P|258:193|246:208,1,33.7500012874604,2|0,0:3|0:0,0:0:0:0:
343,169,84667,2,0,P|355:181|361:198,1,33.7500012874604
498,294,84882,5,2,0:2:0:0:
389,266,85096,1,0,0:0:0:0:
432,334,85310,2,0,P|393:346|361:368,1,76.5000014591217,2|0,0:3|0:0,0:0:0:0:
436,203,85739,2,0,P|461:152|466:83,1,114.750002188683,2|0,0:2|0:0,0:0:0:0:
454,77,86167,2,0,P|416:77|396:115,1,76.5000014591217,2|0,0:2|0:0,0:0:0:0:
507,165,86596,1,2,0:2:0:0:
207,348,87025,5,0,0:0:0:0:
318,297,87239,1,2,0:2:0:0:
281,367,87453,2,0,B|301:326|262:289|262:304|219:266|240:222,1,153.000002918243,2|2,0:1|0:3,0:0:0:0:
277,130,88096,1,0,0:0:0:0:
311,202,88310,2,0,P|293:169|257:157,1,76.5000014591217,2|0,0:2|0:0,0:0:0:0:
163,282,88739,2,0,P|125:280|98:305,1,76.5000014591217,2|0,0:3|0:0,0:0:0:0:
26,150,89167,6,0,P|41:208|95:208,1,114.750002188683,2|0,0:2|0:0,0:0:0:0:
103,201,89596,1,0,0:0:0:0:
74,91,89810,1,2,0:2:0:0:
167,8,90025,2,0,L|150:86,1,76.5000014591217,2|0,0:2|0:0,0:0:0:0:
364,304,90667,69,8,0:1:0:0:
378,317,90775,2,0,L|369:277,1,24.7500007553101,8|8,0:1|0:1,0:0:0:0:
366,333,90882,2,0,B|403:324|446:339|470:367|470:367|505:352|502:314,1,180,10|2,0:1|0:3,0:0:0:0:
448,260,91525,2,0,P|424:221|426:186,1,76.5000014591217,8|2,0:1|0:3,0:0:0:0:
447,39,91953,5,0,0:0:0:0:
422,114,92167,1,8,0:1:0:0:
500,98,92382,2,0,L|519:117,1,18,8|8,0:1|0:1,0:0:0:0:
371,20,92596,6,0,P|341:65|291:82,1,108,8|0,0:1|0:0,0:0:0:0:
282,96,93025,1,2,0:3:0:0:
215,55,93239,1,8,0:1:0:0:
259,188,93453,6,0,P|199:137|139:131,1,125.999996154785,2|8,0:3|0:1,0:0:0:0:
154,129,94096,1,8,0:1:0:0:
256,372,94310,69,8,0:1:0:0:
257,357,94417,1,0,0:0:0:0:
263,345,94525,1,0,0:0:0:0:
274,337,94632,1,0,0:0:0:0:
260,321,94739,5,2,0:2:0:0:
241,310,94846,1,2,0:2:0:0:
220,306,94953,1,2,0:2:0:0:
199,307,95060,1,2,0:2:0:0:
176,322,95167,5,2,0:2:0:0:
152,336,95275,1,2,0:2:0:0:
125,340,95382,1,2,0:2:0:0:
97,335,95489,1,2,0:2:0:0:
106,295,95596,5,2,0:2:0:0:
85,257,95703,1,2,0:2:0:0:
45,243,95810,1,2,0:2:0:0:
5,254,95917,1,2,0:2:0:0:
20,332,96025,5,0,0:0:0:0:
230,5,97739,54,0,B|210:42|221:75|259:85|253:78|290:87|303:122|285:158,1,182.250000695229,6|0,3:1|0:0,0:0:0:0:
222,202,98167,2,0,P|204:180|170:170,1,60.7500002317429,2|0,0:2|0:0,0:0:0:0:
360,176,98382,2,0,L|352:211,2,30,0|0|0,3:0|0:0|0:0,0:0:0:0:
374,164,98596,2,0,P|400:118|390:82,1,62.9999980773926,0|0,1:0|0:0,0:0:0:0:
410,85,98810,2,0,P|402:65|408:29,1,53.9999983520508,2|0,3:2|0:0,0:0:0:0:
481,49,99239,1,0,0:0:0:0:
512,287,99453,6,0,P|425:294|363:334,1,161.999995056153,2|0,3:1|0:0,0:0:0:0:
363,333,99882,2,0,P|401:375|449:364,1,107.999996704102,0|2,0:0|3:2,0:0:0:0:
335,259,100203,5,0,0:0:0:0:
287,323,100311,1,0,1:0:0:0:
267,318,100418,1,0,0:0:0:0:
251,315,100525,2,0,L|192:302,1,53.9999983520508
52,379,100739,6,0,P|30:352|28:318,1,69.7500005321503,2|0,3:2|0:0,0:0:0:0:
125,350,100953,2,0,P|123:315|101:289,1,69.7500005321503
73,142,101167,70,0,B|46:93|63:40|124:19|164:64|147:108|122:113,1,182.250000695229,2|0,3:1|0:0,0:0:0:0:
0,172,101596,2,0,B|37:165|60:190|53:194|76:219|108:213,1,121.500000463486,2|0,0:2|3:0,0:0:0:0:
177,173,101917,1,0,0:0:0:0:
177,173,102025,2,0,P|204:151|234:146,1,60.7500002317429,0|0,1:0|0:0,0:0:0:0:
287,39,102239,6,0,L|277:-4,2,40.5000001544952,2|0|0,3:2|0:0|0:0,0:0:0:0:
218,71,102453,1,0,0:0:0:0:
319,214,102667,1,0,0:0:0:0:
234,367,102882,5,2,3:2:0:0:
253,355,102989,2,0,B|279:328|272:276|239:255|239:255|225:278|195:281,1,153.000002918243,2|0,0:2|0:0,0:0:0:0:
161,339,103310,2,0,P|135:327|100:325,2,60.7500002317429,2|2|0,0:2|0:2|3:0,0:0:0:0:
334,379,103739,5,2,1:2:0:0:
334,379,103846,2,0,P|379:345|450:339,1,121.500000463486,2|0,0:2|0:0,0:0:0:0:
492,280,104167,2,0,B|497:266|497:266|498:251,2,30.3750001158714,8|8|8,3:1|0:1|0:1,0:0:0:0:
424,233,104382,2,0,B|418:246|418:246|417:261,2,30.3750001158714,8|8|8,0:1|0:1|0:1,0:0:0:0:
507,26,104596,70,0,P|506:113|427:109,1,182.250000695229,6|0,3:1|0:0,0:0:0:0:
367,154,105025,2,0,P|341:136|308:132,1,60.7500002317429,2|0,0:2|0:0,0:0:0:0:
417,39,105239,6,0,L|407:-7,2,40.5000001544952,0|0|0,3:0|0:0|0:0,0:0:0:0:
430,112,105453,1,0,1:0:0:0:
312,211,105667,5,0,3:0:0:0:
237,236,105882,1,0,0:0:0:0:
181,181,106096,1,0,0:0:0:0:
296,290,106310,6,0,B|351:274|377:333|357:331|381:385|438:373,1,182.250000695229,2|0,3:1|0:0,0:0:0:0:
512,252,106739,2,0,P|447:252|441:306,1,121.500000463486,0|2,0:0|3:2,0:0:0:0:
506,325,107060,1,0,0:0:0:0:
411,257,107167,1,0,1:0:0:0:
414,241,107275,1,0,0:0:0:0:
417,225,107382,2,0,L|431:154,1,53.9999983520508
402,31,107596,70,0,P|399:57|412:81,1,53.9999983520508,0|0,3:0|0:0,0:0:0:0:
478,15,107810,2,0,P|490:38|488:65,1,53.9999983520508
330,0,108025,6,0,P|286:66|276:170,1,182.250000695229,2|0,3:1|0:0,0:0:0:0:
237,236,108453,2,0,P|176:225|184:165,1,121.500000463486,0|0,0:0|3:0,0:0:0:0:
251,160,108775,1,0,0:0:0:0:
254,155,108882,2,0,L|241:96,1,60.7500002317429,0|0,1:0|0:0,0:0:0:0:
284,301,109096,6,0,P|300:304|321:319,2,40.5000001544952,0|0|0,3:0|0:0|0:0,0:0:0:0:
363,255,109310,1,0,0:0:0:0:
241,366,109525,1,0,0:0:0:0:
16,314,109739,1,2,3:2:0:0:
6,325,109846,2,0,P|60:334|120:370,1,121.500000463486,2|0,0:2|0:0,0:0:0:0:
132,346,110167,2,0,P|160:337|184:308,2,60.7500002317429,2|2|0,0:2|0:2|0:0,0:0:0:0:
100,136,110596,6,0,P|8:156|22:234,1,182.250000695229,2|0,1:2|0:0,0:0:0:0:
88,260,111025,2,0,L|95:224,1,36,2|0,0:2|0:0,0:0:0:0:
343,14,111453,70,0,L|299:217,1,202.500007724762,8|0,0:3|0:0,0:0:0:0:
346,275,111882,2,0,P|368:257|396:253,1,53.9999983520508,2|0,0:2|0:0,0:0:0:0:
408,254,112096,1,8,3:0:0:0:
237,135,112310,2,0,P|188:117|185:63,1,107.999996704102,2|0,1:2|3:0,0:0:0:0:
243,10,112632,5,0,0:0:0:0:
252,16,112739,2,0,L|258:47,2,26.9999991760254
80,109,112953,2,0,L|86:77,2,26.9999991760254,2|0|0,0:2|0:0|0:0,0:0:0:0:
156,310,113167,6,0,P|109:286|51:283,1,107.999996704102,4|0,3:0|0:0,0:0:0:0:
8,223,113596,1,2,0:2:0:0:
90,360,113810,1,4,0:3:0:0:
227,280,114025,1,0,1:0:0:0:
281,336,114239,2,0,L|336:325,1,53.9999983520508,2|0,0:2|0:0,0:0:0:0:
512,240,114453,5,2,3:2:0:0:
492,236,114560,1,0,0:0:0:0:
472,232,114667,1,2,0:2:0:0:
453,228,114775,1,0,0:0:0:0:
450,154,114882,2,0,B|402:141|360:179|365:227|365:227|391:253|393:288,1,182.250000695229,12|0,3:0|0:0,0:0:0:0:
453,314,115310,70,0,P|435:336|426:370,2,53.9999983520508,2|0|12,0:2|0:0|3:0,0:0:0:0:
354,190,115632,1,2,0:2:0:0:
354,190,115739,2,0,P|342:129|313:86,1,107.999996704102,0|0,1:0|3:0,0:0:0:0:
356,25,116060,1,2,0:2:0:0:
356,25,116167,2,0,P|383:33|407:52,1,53.9999983520508,2|0,0:2|0:0,0:0:0:0:
239,91,116382,2,0,P|236:122|218:151,1,53.9999983520508
317,90,116596,6,0,P|345:137|354:190,1,107.999996704102,12|0,3:0|0:0,0:0:0:0:
262,306,116917,1,8,0:1:0:0:
262,306,117025,2,0,L|253:345,2,26.9999991760254,2|0|0,0:2|0:0|0:0,0:0:0:0:
278,230,117239,1,12,3:0:0:0:
340,283,117453,6,0,P|363:269|390:269,1,53.9999983520508,2|0,1:2|0:0,0:0:0:0:
188,365,117667,2,0,P|163:355|147:334,1,53.9999983520508,8|0,0:1|0:0,0:0:0:0:
0,366,117882,5,12,0:3:0:0:
15,356,117989,1,8,0:1:0:0:
33,352,118096,2,0,P|45:359|58:362,2,26.9999991760254,8|8|8,0:1|0:1|0:1,0:0:0:0:
123,319,118310,70,0,B|133:247|64:188|-32:225|2:298|55:272|39:251,1,202.500007724762,8|0,3:0|0:0,0:0:0:0:
124,239,118739,2,0,L|109:172,1,53.9999983520508,2|0,0:2|0:0,0:0:0:0:
107,160,118953,1,8,3:0:0:0:
24,14,119167,2,0,P|30:64|79:77,1,107.999996704102,2|0,1:2|3:0,0:0:0:0:
134,26,119489,5,0,0:0:0:0:
145,37,119596,2,0,L|180:44,2,26.9999991760254
29,150,119810,2,0,L|-6:157,2,26.9999991760254,2|0|0,0:2|0:0|0:0,0:0:0:0:
199,250,120025,6,0,P|248:228|301:226,1,107.999996704102,4|0,3:0|0:0,0:0:0:0:
349,23,120453,1,2,0:2:0:0:
239,141,120667,1,4,3:0:0:0:
397,174,120882,1,0,1:0:0:0:
331,101,121096,2,0,L|318:159,1,53.9999983520508,2|0,0:2|0:0,0:0:0:0:
289,302,121310,5,2,3:2:0:0:
308,306,121418,1,0,0:0:0:0:
328,310,121525,1,2,0:2:0:0:
348,314,121632,1,0,0:0:0:0:
422,286,121739,2,0,B|442:265|467:262|467:262|498:238|501:202|473:175|473:175|481:201|470:223,1,202.500007724762,12|0,3:0|0:0,0:0:0:0:
469,347,122167,70,0,P|492:358|514:380,2,53.9999983520508,2|0|12,0:2|0:0|3:0,0:0:0:0:
343,300,122489,1,0,0:0:0:0:
343,300,122596,2,0,B|311:294|291:318|298:320|276:348|249:345,1,107.999996704102,2|0,1:2|3:0,0:0:0:0:
176,365,122917,5,0,0:0:0:0:
165,354,123025,2,0,P|158:330|140:305,1,53.9999983520508,2|0,0:2|0:0,0:0:0:0:
288,146,123239,2,0,L|275:204,1,53.9999983520508
235,269,123453,6,0,P|151:247|179:158,1,202.500007724762,12|0,3:0|0:0,0:0:0:0:
183,140,123882,2,0,P|206:130|221:103,1,53.9999983520508,2|0,0:2|0:0,0:0:0:0:
83,39,124096,6,0,L|75:3,2,35.9999989013672,12|0|0,3:0|0:0|0:0,0:0:0:0:
98,113,124310,1,2,1:2:0:0:
158,15,124525,69,12,3:0:0:0:
18,131,124739,1,2,0:3:0:0:
114,189,124953,1,2,0:3:0:0:
0,364,125167,6,0,B|20:370|20:370|40:320|94:293|143:308,1,161.999995056153,2|0,0:1|0:0,0:0:0:0:
133,305,125596,2,0,P|111:321|85:327,1,53.9999983520508
206,381,125810,2,0,P|213:355|210:328,1,53.9999983520508,2|0,0:2|0:0,0:0:0:0:
50,238,126025,6,0,P|14:204|4:144,1,107.999996704102,2|0,1:2|0:0,0:0:0:0:
259,0,126453,6,0,P|235:12|220:34,1,53.9999983520508
301,121,126667,2,0,P|288:97|289:70,1,53.9999983520508,2|0,0:2|0:0,0:0:0:0:
512,4,126882,70,0,B|484:-11|441:4|431:41|440:36|430:81|393:96|358:77,1,182.250000695229,2|0,0:2|0:0,0:0:0:0:
366,72,127310,5,0,0:0:0:0:
218,115,127525,1,0,0:0:0:0:
261,185,127739,5,2,1:2:0:0:
218,37,127954,1,2,0:2:0:0:
209,243,128167,5,0,0:0:0:0:
227,254,128275,1,0,0:0:0:0:
247,261,128382,1,2,0:2:0:0:
268,264,128489,1,0,0:0:0:0:
312,327,128596,70,0,B|394:309|394:309|425:302|448:314,1,135,2|0,0:1|0:0,0:0:0:0:
508,270,129025,1,0,0:0:0:0:
389,366,129239,1,0,0:0:0:0:
389,366,129346,1,0,0:0:0:0:
389,366,129453,1,0,1:0:0:0:
298,173,129667,5,0,0:0:0:0:
381,149,129882,2,0,L|362:235,1,80.9999975280763
372,236,130310,6,0,L|379:200,1,22.5
467,205,130739,6,0,L|440:180,1,22.5
487,107,131167,70,0,L|452:118,1,22.5
413,40,131596,6,0,L|405:75,1,22.5
391,139,132025,5,0,0:0:0:0:
256,192,144025,12,2,145310,0:2:0:0:
102,119,145739,6,0,B|103:92|133:73|133:73|178:49|171:1|123:-12|94:30|122:66,1,178.875007505894,6|0,3:1|0:0,0:0:0:0:
175,86,146167,2,0,L|237:99,1,51.7500009870529,2|0,0:2|0:0,0:0:0:0:
67,193,146382,70,0,L|76:236,2,34.5000006580353,0|0|0,3:0|0:0|0:0,0:0:0:0:
39,64,146596,2,0,L|28:13,1,51.7500009870529,2|0,1:0|0:0,0:0:0:0:
7,138,146810,6,0,P|77:144|162:192,1,155.250002961159,0|0,3:2|0:0,0:0:0:0:
229,187,147239,2,0,P|228:214|248:245,1,51.7500009870529
415,123,147453,6,0,P|486:114|493:42,1,155.250002961159,2|0,3:1|0:0,0:0:0:0:
346,0,147882,2,0,P|355:33|417:44,1,103.500001974106,0|2,0:0|3:2,0:0:0:0:
500,253,148203,5,0,0:0:0:0:
412,294,148310,1,2,1:0:0:0:
416,274,148417,1,0,0:0:0:0:
420,254,148525,2,0,L|431:199,1,51.7500009870529,0|2,0:0|0:1,0:0:0:0:
495,343,148739,70,0,P|468:349|446:367,2,53.9999983520508,2|0|0,3:2|0:0|0:0,0:0:0:0:
341,150,148953,2,0,L|353:208,1,53.9999983520508
293,278,149167,6,0,P|228:285|173:316,1,125.999996154785,2|0,3:1|0:0,0:0:0:0:
22,325,149596,1,2,0:2:0:0:
54,252,149810,2,0,P|81:270|97:298,1,62.9999980773926,0|0,3:0|0:0,0:0:0:0:
123,373,150025,5,0,1:0:0:0:
154,232,150239,2,0,L|163:185,2,41.9999987182618,2|0|0,3:2|0:0|0:0,0:0:0:0:
176,116,150453,1,0,0:0:0:0:
61,22,150667,6,0,L|75:92,1,62.9999980773926
0,96,150882,1,2,3:2:0:0:
0,96,150989,2,0,P|10:161|74:162,1,139.500001064301,2|0,0:2|0:0,0:0:0:0:
306,54,151310,69,2,0:2:0:0:
255,0,151417,2,0,B|238:37|273:66|278:56|315:89|298:131,1,148.500001416206,2|0,0:2|0:0,0:0:0:0:
231,167,151739,2,0,P|203:147|158:147,2,62.9999980773926,2|2|0,1:2|0:2|0:0,0:0:0:0:
512,63,152167,6,0,P|481:68|455:86,1,62.9999980773926,2|0,3:2|0:0,0:0:0:0:
402,32,152382,2,0,L|409:-4,2,31.4999990386963
476,187,152596,6,0,B|513:150|513:150|364:182,1,188.999994232178,6|0,3:1|0:0,0:0:0:0:
337,241,153025,2,0,L|274:227,1,62.9999980773926,2|0,0:2|0:0,0:0:0:0:
512,373,153239,6,0,L|504:337,2,31.4999990386963,0|0|0,3:0|0:0|0:0,0:0:0:0:
426,245,153453,2,0,L|440:311,1,62.9999980773926,2|0,1:0|0:0,0:0:0:0:
316,371,153667,1,0,3:0:0:0:
364,312,153882,2,0,L|532:347,1,144,2|0,0:1|0:0,0:0:0:0:
129,368,154310,70,0,B|121:341|138:311|169:303|165:307|194:300|212:267|200:238,1,161.999995056153,2|0,3:1|0:0,0:0:0:0:
84,204,154739,2,0,B|78:221|90:241|110:246|108:243|127:248|139:270|131:289,1,107.999996704102,0|2,0:0|3:2,0:0:0:0:
2,369,155060,5,0,0:0:0:0:
52,301,155167,1,2,1:0:0:0:
57,324,155275,1,0,0:0:0:0:
33,329,155382,1,0,0:0:0:0:
28,306,155489,1,0,0:0:0:0:
129,368,155596,6,0,L|181:379,2,53.9999983520508,0|0|0,3:0|0:0|0:0,0:0:0:0:
11,234,155810,2,0,L|-1:175,1,53.9999983520508,2|0,0:1|0:0,0:0:0:0:
157,181,156025,6,0,P|242:179|240:94,1,188.999994232178,2|0,3:1|0:0,0:0:0:0:
107,39,156453,2,0,P|106:95|163:96,1,125.999996154785,0|0,0:0|3:0,0:0:0:0:
202,28,156775,1,0,0:0:0:0:
205,12,156882,1,2,1:0:0:0:
88,114,157096,70,0,P|71:106|53:105,2,35.9999989013672,0|0|0,3:0|0:0|0:0,0:0:0:0:
163,96,157310,1,0,0:0:0:0:
24,33,157525,1,0,0:0:0:0:
284,28,157739,5,2,3:2:0:0:
304,12,157846,2,0,B|296:46|330:66|329:57|362:80|355:118,1,125.999996154785,2|0,0:2|0:0,0:0:0:0:
469,237,158167,5,2,0:2:0:0:
512,166,158275,2,0,P|443:166|394:198,1,125.999996154785,2|0,0:2|0:0,0:0:0:0:
285,202,158596,6,0,P|306:209|323:223,2,45,2|2|0,1:2|0:2|0:0,0:0:0:0:
443,130,159025,2,0,L|462:36,1,90,2|0,0:2|0:0,0:0:0:0:
374,300,159453,6,0,B|382:277|415:270|437:293|420:324|415:318|390:330|387:365|387:365|371:334|343:333|341:341|312:319|323:290|356:283|374:300,1,267.750005106926,2|0,0:1|0:0,0:0:0:0:
