osu file format v14

[General]
AudioFilename: asdsadsad.mp3
AudioLeadIn: 0
PreviewTime: 33959
Countdown: 0
SampleSet: Normal
StackLeniency: 0.3
Mode: 0
LetterboxInBreaks: 0
WidescreenStoryboard: 0

[Editor]
Bookmarks: 32818
DistanceSpacing: 2.15
BeatDivisor: 4
GridSize: 16
TimelineZoom: 1

[Metadata]
Title:Boom Clap
TitleUnicode:Boom Clap
Artist:Charli XCX
ArtistUnicode:Charli XCX
Creator:schoolboy
Version:Dailycare's Insane
Source:The Fault In Our Stars
Tags:komore bakari dailycare kalibe morinaga
BeatmapID:1542344
BeatmapSetID:730792

[Difficulty]
HPDrainRate:5.5
CircleSize:3.8
OverallDifficulty:8
ApproachRate:9
SliderMultiplier:1.45
SliderTickRate:1

[Events]
//Background and Video events
0,0,"bggg.jpg",0,0
Video,-1298,"vidya.mp4"
//Break Periods
2,55252,59669
2,102209,103691
2,107100,108909
2,111991,114126
2,117535,118691
//Storyboard Layer 0 (Background)
//Storyboard Layer 1 (Fail)
//Storyboard Layer 2 (Pass)
//Storyboard Layer 3 (Foreground)
//Storyboard Sound Samples

[TimingPoints]
270,652.173913043478,4,1,1,60,1,0
2226,-100,4,2,1,60,0,0
2878,-100,4,2,2,50,0,0
4835,-66.6666666666667,4,2,2,70,0,0
5487,-100,4,2,2,50,0,0
7443,-50,4,2,2,70,0,0
8096,-100,4,2,2,50,0,0
10052,-66.6666666666667,4,2,2,70,0,0
10704,-66.6666666666667,4,2,2,50,0,0
12498,-66.6666666666667,4,2,2,30,0,0
12661,-66.6666666666667,4,2,1,70,0,0
13150,-66.6666666666667,4,2,1,5,0,0
13313,-100,4,2,1,55,0,0
21139,-100,4,1,1,45,0,0
23096,-100,4,2,1,45,0,0
23748,-100,4,2,1,55,0,0
31574,-100,4,2,1,45,0,0
32389,-100,4,2,1,5,0,0
32471,-100,4,2,1,45,0,0
33530,-200,4,2,1,45,0,0
34183,-100,4,2,1,75,0,0
34835,-50,4,2,1,75,0,0
35487,-66.6666666666667,4,2,1,75,0,0
36139,-50,4,2,1,75,0,0
36791,-66.6666666666667,4,2,1,75,0,0
37443,-50,4,2,1,75,0,0
37688,-50,4,2,1,25,0,0
37769,-50,4,2,1,75,0,0
37933,-66.6666666666667,4,2,1,75,0,0
38177,-66.6666666666667,4,2,1,25,0,0
38259,-66.6666666666667,4,2,1,75,0,0
38422,-50,4,2,1,75,0,0
39400,-100,4,2,1,75,0,0
40052,-50,4,2,1,75,0,0
40704,-66.6666666666667,4,2,1,75,0,0
41356,-50,4,2,1,75,0,0
42253,-50,4,2,1,25,0,0
42335,-50,4,2,1,75,0,0
43558,-50,4,2,1,25,0,0
43639,-50,4,2,1,75,0,0
44617,-100,4,2,1,75,0,0
45269,-50,4,2,1,75,0,0
45921,-66.6666666666667,4,2,1,75,0,0
46573,-50,4,2,1,75,0,0
47225,-66.6666666666667,4,2,1,75,0,0
47877,-50,4,2,1,75,0,0
48123,-50,4,2,1,25,0,0
48204,-50,4,2,1,75,0,0
48367,-66.6666666666667,4,2,1,75,0,0
48612,-66.6666666666667,4,2,1,25,0,0
48693,-66.6666666666667,4,2,1,75,0,0
48856,-50,4,2,1,75,0,0
49835,-100,4,2,1,75,0,0
50487,-50,4,2,1,75,0,0
51139,-66.6666666666667,4,2,1,75,0,0
51791,-50,4,2,1,75,0,0
52688,-50,4,2,1,25,0,0
52769,-50,4,2,1,75,0,0
53992,-50,4,2,1,25,0,0
54074,-50,4,2,1,75,0,0
55052,-50,4,2,1,50,0,0
55134,-50,4,2,1,25,0,0
56683,-50,4,2,1,35,0,0
57661,-50,4,2,1,40,0,0
58965,-50,4,2,1,43,0,0
59128,-50,4,2,1,45,0,0
59291,-50,4,2,1,47,0,0
59454,-50,4,2,1,50,0,0
60269,-133.333333333333,4,2,1,45,0,0
70052,-66.6666666666667,4,2,1,45,0,0
70704,-100,4,2,1,55,0,0
81139,-100,4,2,1,43,0,0
90922,-200,4,2,1,43,0,0
91574,-100,4,2,1,75,0,0
92226,-50,4,2,1,75,0,0
92878,-66.6666666666667,4,2,1,75,0,0
93530,-50,4,2,1,75,0,0
94183,-66.6666666666667,4,2,1,75,0,0
94834,-50,4,2,1,75,0,0
95079,-50,4,2,1,25,0,0
95161,-50,4,2,1,75,0,0
95324,-66.6666666666667,4,2,1,75,0,0
95568,-66.6666666666667,4,2,1,25,0,0
95650,-66.6666666666667,4,2,1,75,0,0
95813,-50,4,2,1,75,0,0
96791,-100,4,2,1,75,0,0
97443,-50,4,2,1,75,0,0
98096,-66.6666666666667,4,2,1,75,0,0
98748,-50,4,2,1,75,0,0
99644,-50,4,2,1,25,0,0
99726,-50,4,2,1,75,0,0
100949,-50,4,2,1,25,0,0
101030,-50,4,2,1,75,0,0
102009,-50,4,2,1,50,0,0
102661,-50,4,2,1,30,0,0
104291,-133.333333333333,4,2,1,30,0,0
108856,-133.333333333333,4,2,1,20,0,0
109427,-133.333333333333,4,2,1,30,0,0
120269,-133.333333333333,4,2,1,35,0,0
120514,-133.333333333333,4,2,1,25,0,0
120759,-133.333333333333,4,2,1,17,0,0
121248,-133.333333333333,4,2,1,20,0,0
122226,-200,4,2,1,50,0,0
122878,-100,4,2,1,75,0,0
123530,-50,4,2,1,75,0,0
124183,-66.6666666666667,4,2,1,75,0,0
124835,-50,4,2,1,75,0,0
125487,-66.6666666666667,4,2,1,75,0,0
126139,-50,4,2,1,75,0,0
126384,-50,4,2,1,25,0,0
126465,-50,4,2,1,75,0,0
126628,-66.6666666666667,4,2,1,75,0,0
126873,-66.6666666666667,4,2,1,25,0,0
126954,-66.6666666666667,4,2,1,75,0,0
127117,-50,4,2,1,75,0,0
128096,-100,4,2,1,75,0,0
128748,-50,4,2,1,75,0,0
129400,-66.6666666666667,4,2,1,75,0,0
130052,-50,4,2,1,75,0,0
130949,-50,4,2,1,25,0,0
131030,-50,4,2,1,75,0,0
132253,-50,4,2,1,25,0,0
132335,-50,4,2,1,75,0,0
133313,-100,4,2,1,75,0,0
133965,-50,4,2,1,75,0,0
134617,-66.6666666666667,4,2,1,75,0,0
135269,-50,4,2,1,75,0,0
135922,-66.6666666666667,4,2,1,75,0,0
136574,-50,4,2,1,75,0,0
136818,-50,4,2,1,25,0,0
136900,-50,4,2,1,75,0,0
137063,-66.6666666666667,4,2,1,75,0,0
137308,-66.6666666666667,4,2,1,25,0,0
137389,-66.6666666666667,4,2,1,75,0,0
137552,-50,4,2,1,75,0,0
138530,-100,4,2,1,75,0,0
139183,-50,4,2,1,75,0,0
139835,-66.6666666666667,4,2,1,75,0,0
140487,-50,4,2,1,75,0,0
141384,-50,4,2,1,25,0,0
141465,-50,4,2,1,75,0,0
142688,-50,4,2,1,25,0,0
142769,-50,4,2,1,75,0,0
143748,-100,4,2,1,84,0,0
144400,-50,4,2,1,84,0,0
145052,-66.6666666666667,4,2,1,84,0,0
145704,-50,4,2,1,84,0,0
145949,-50,4,2,1,84,0,0
146030,-50,4,2,1,84,0,0
146275,-50,4,2,1,84,0,0
146356,-66.6666666666667,4,2,1,84,0,0
147009,-50,4,2,1,84,0,0
147253,-50,4,2,1,25,0,0
147335,-50,4,2,1,84,0,0
147498,-66.6666666666667,4,2,1,84,0,0
147742,-66.6666666666667,4,2,1,25,0,0
147824,-66.6666666666667,4,2,1,84,0,0
147987,-50,4,2,1,84,0,0
148965,-100,4,2,1,84,0,0
149617,-50,4,2,1,84,0,0
150269,-66.6666666666667,4,2,1,84,0,0
150922,-50,4,2,1,84,0,0
151818,-50,4,2,1,25,0,0
151900,-50,4,2,1,84,0,0
153123,-50,4,2,1,25,0,0
153204,-50,4,2,1,84,0,0
154183,-100,4,2,1,84,0,0
154835,-50,4,2,1,84,0,0
155487,-66.6666666666667,4,2,1,84,0,0
156139,-50,4,2,1,84,0,0
156384,-50,4,2,1,84,0,0
156465,-50,4,2,1,84,0,0
156710,-50,4,2,1,84,0,0
156792,-66.6666666666667,4,2,1,84,0,0
157444,-50,4,2,1,84,0,0
157688,-50,4,2,1,25,0,0
157769,-50,4,2,1,84,0,0
157933,-66.6666666666667,4,2,1,84,0,0
158177,-66.6666666666667,4,2,1,25,0,0
158259,-66.6666666666667,4,2,1,84,0,0
158422,-50,4,2,1,84,0,0
159400,-100,4,2,1,84,0,0
160053,-50,4,2,1,84,0,0
160705,-66.6666666666667,4,2,1,84,0,0
161357,-50,4,2,1,84,0,0
162253,-50,4,2,1,25,0,0
162335,-50,4,2,1,84,0,0
163558,-50,4,2,1,25,0,0
163639,-50,4,2,1,84,0,0
164617,-50,4,2,1,52,0,0

[Colours]
Combo1 : 225,225,225
Combo2 : 151,221,255
Combo3 : 236,213,168
Combo4 : 191,240,200

[HitObjects]
228,106,270,6,0,P|242:69|232:13,1,72.5,2|0,0:0|0:0,0:0:0:0:
288,241,922,2,0,P|249:247|205:284,1,72.5,2|0,0:0|0:0,0:0:0:0:
374,121,1574,2,0,P|398:151|452:170,1,72.5,2|0,0:0|0:0,0:0:0:0:
298,156,2226,5,12,0:0:0:0:
298,156,2878,6,0,P|277:160|236:153,3,36.25,2|0|0|0,1:2|0:0|0:0|0:0,0:0:0:0:
194,207,3530,2,0,P|173:200|141:173,3,36.25,8|0|0|0,0:0|0:0|0:0|0:0,0:0:0:0:
78,199,4183,6,0,P|63:183|49:143,1,36.25,0|0,0:0|0:0,0:0:0:0:
148,61,4509,1,0,1:0:0:0:
150,69,4672,1,0,0:0:0:0:
79,96,4835,6,0,P|71:59|82:26,1,54.3750020742417,8|0,0:0|0:0,0:0:0:0:
207,10,5161,1,0,0:0:0:0:
283,113,5324,1,0,0:0:0:0:
220,227,5487,6,0,P|214:263|219:289,3,36.25,2|0|0|0,1:2|0:0|0:0|0:0,0:0:0:0:
138,276,6139,2,0,P|150:310|168:330,3,36.25,8|0|0|0,0:0|0:0|0:0|0:0,0:0:0:0:
91,359,6791,6,0,P|119:382|144:390,1,36.25,0|0,0:0|0:0,0:0:0:0:
198,378,7117,1,0,1:0:0:0:
355,152,7443,5,2,0:3:0:0:
211,127,7606,2,0,L|301:109,2,72.5,2|2|2,0:3|0:3|0:3,0:0:0:0:
308,221,8096,6,0,L|243:207,3,36.25,2|0|0|0,1:2|0:0|0:0|0:0,0:0:0:0:
327,298,8748,2,0,L|268:329,3,36.25,8|0|0|0,0:0|0:0|0:0|0:0,0:0:0:0:
391,344,9400,6,0,L|365:405,1,36.25,0|0,0:0|0:0,0:0:0:0:
471,353,9726,1,0,1:2:0:0:
474,360,9889,1,0,0:0:0:0:
442,277,10052,6,0,L|417:196,1,54.3750020742417,8|0,0:0|0:0,0:0:0:0:
318,132,10378,1,0,0:0:0:0:
440,78,10541,1,0,0:0:0:0:
398,149,10704,5,2,1:2:0:0:
398,149,11356,1,2,1:2:0:0:
398,149,12009,1,2,1:2:0:0:
114,235,12661,5,8,0:0:0:0:
256,192,13313,5,2,1:2:0:0:
29,137,13639,5,2,0:0:0:0:
108,103,13965,1,10,0:0:0:0:
159,169,14291,1,0,0:0:0:0:
35,218,14617,5,2,0:0:0:0:
108,103,14943,1,0,1:2:0:0:
114,235,15269,1,10,0:0:0:0:
256,192,15922,5,2,1:2:0:0:
443,171,16248,5,2,0:0:0:0:
500,107,16574,1,10,0:0:0:0:
453,37,16900,1,0,0:0:0:0:
368,139,17226,5,2,0:0:0:0:
500,107,17552,1,0,1:0:0:0:
376,59,17878,1,2,1:3:0:0:
256,192,18530,5,2,1:2:0:0:
73,290,18856,6,0,L|156:270,1,72.5,2|10,0:0|0:0,0:0:0:0:
221,263,19346,1,2,0:0:0:0:
203,365,19509,2,0,P|192:350|194:322,1,36.25,2|2,0:0|0:0,0:0:0:0:
360,295,19835,6,0,P|317:330|258:320,1,108.75,2|2,0:0|0:0,0:0:0:0:
256,192,20487,2,0,P|307:178|353:205,1,108.75,10|0,0:0|0:0,0:0:0:0:
433,241,21139,5,2,1:0:0:0:
433,241,21791,1,2,0:0:0:0:
433,241,22443,1,2,0:0:0:0:
256,192,22769,5,0,0:0:0:0:
79,143,23096,5,8,0:0:0:0:
256,192,23748,5,2,1:2:0:0:
195,56,24074,5,2,0:0:0:0:
160,132,24400,1,10,0:0:0:0:
111,67,24726,1,0,0:0:0:0:
195,56,25052,5,2,0:0:0:0:
79,143,25378,1,0,1:2:0:0:
61,0,25704,1,10,0:0:0:0:
256,192,26356,5,2,1:2:0:0:
359,303,26683,5,2,0:0:0:0:
394,227,27009,1,10,0:0:0:0:
443,292,27335,1,0,0:0:0:0:
359,303,27661,5,2,0:0:0:0:
475,216,27987,1,0,1:0:0:0:
493,359,28313,1,2,1:3:0:0:
256,192,28965,5,2,1:2:0:0:
379,83,29291,6,0,P|377:65|370:48,1,36.25,2|0,0:0|0:0,0:0:0:0:
303,11,29617,1,10,0:0:0:0:
243,62,29780,2,0,P|239:79|240:97,2,36.25,2|2|2,0:0|0:0|0:0,0:0:0:0:
274,167,30269,6,0,P|230:176|170:125,1,108.75,2|2,0:0|0:0,0:0:0:0:
114,94,30922,2,0,P|96:132|116:197,1,108.75,10|0,0:0|0:0,0:0:0:0:
131,272,31574,5,2,0:0:0:0:
131,272,33530,6,0,L|141:332,1,54.375,2|0,0:0|0:0,0:0:0:0:
140,326,34183,6,0,P|168:312|271:313,1,108.75,6|0,1:2|0:0,0:0:0:0:
288,239,34835,6,0,P|219:215|148:222,1,145,10|0,0:0|0:0,0:0:0:0:
86,266,35324,1,2,0:0:0:0:
86,266,35650,5,0,0:0:0:0:
11,247,35813,2,0,P|2:213|9:185,1,54.3750020742417,0|2,1:0|3:2,0:0:0:0:
95,29,36139,6,0,P|102:104|77:177,1,145,10|2,0:0|0:0,0:0:0:0:
81,169,36791,5,2,1:2:0:0:
226,128,37117,1,2,0:0:0:0:
312,244,37443,1,10,0:0:0:0:
166,184,37769,5,2,0:0:0:0:
158,179,37933,2,0,P|144:134|185:52,1,108.750004148483,2|2,0:0|0:0,0:0:0:0:
223,26,38422,2,0,L|294:36,1,72.5,2|2,1:2|0:0,0:0:0:0:
488,13,38748,5,2,1:3:0:0:
361,85,38911,2,0,L|432:75,2,72.5,2|2|2,0:3|0:3|0:3,0:0:0:0:
512,89,39400,6,0,P|501:140|500:210,1,108.75,6|0,1:2|0:0,0:0:0:0:
504,278,40052,6,0,P|467:236|349:258,1,145,10|0,0:0|0:0,0:0:0:0:
322,284,40541,1,2,0:0:0:0:
322,284,40867,5,0,0:0:0:0:
366,354,41030,2,0,P|397:315|391:274,1,54.3750020742417,0|2,1:0|0:2,0:0:0:0:
316,145,41356,6,0,P|301:190|328:293,1,145,10|2,0:0|0:0,0:0:0:0:
321,283,42009,6,0,P|248:257|59:256,1,217.5,2|2,1:2|0:0,0:0:0:0:
105,98,42661,2,0,P|126:137|110:195,1,72.5,8|0,0:0|0:0,0:0:0:0:
35,201,42987,5,2,0:0:0:0:
45,195,43150,2,0,P|28:265|31:356,1,145,2|0,0:0|0:0,0:0:0:0:
102,370,43639,2,0,P|137:357|201:360,1,72.5,2|2,1:2|0:0,0:0:0:0:
266,266,43965,5,2,1:3:0:0:
363,350,44128,1,2,0:3:0:0:
338,225,44291,1,2,0:3:0:0:
282,343,44454,1,2,0:3:0:0:
395,277,44617,6,0,P|384:228|420:169,1,108.75,6|0,1:2|0:0,0:0:0:0:
467,236,45269,6,0,P|432:150|450:72,1,145,10|0,0:0|0:0,0:0:0:0:
492,40,45759,1,2,0:0:0:0:
492,40,46085,5,0,0:0:0:0:
412,23,46248,2,0,P|387:34|365:72,1,54.3750020742417,0|2,1:0|3:2,0:0:0:0:
295,187,46574,6,0,P|304:146|276:33,1,145,10|2,0:0|0:0,0:0:0:0:
284,46,47226,5,2,1:2:0:0:
169,130,47552,1,2,0:0:0:0:
205,265,47878,1,10,0:0:0:0:
348,272,48204,5,2,0:0:0:0:
357,268,48367,2,0,P|372:215|360:152,1,108.750004148483,2|2,0:0|0:0,0:0:0:0:
311,107,48856,2,0,L|236:96,1,72.5,2|2,1:2|0:0,0:0:0:0:
34,70,49183,5,2,1:3:0:0:
160,128,49346,2,0,L|88:139,2,72.5,2|2|2,0:3|0:3|0:3,0:0:0:0:
5,150,49835,6,0,P|21:204|13:271,1,108.75,6|0,1:2|0:0,0:0:0:0:
0,332,50487,6,0,P|56:293|147:307,1,145,10|0,0:0|0:0,0:0:0:0:
207,278,50976,1,2,0:0:0:0:
207,278,51302,5,0,0:0:0:0:
277,316,51465,2,0,P|287:273|271:232,1,54.3750020742417,0|2,1:0|0:2,0:0:0:0:
235,60,51791,6,0,P|225:131|250:228,1,145,10|2,0:0|0:0,0:0:0:0:
238,202,52443,6,0,P|296:167|446:178,1,217.5,2|2,1:2|0:0,0:0:0:0:
435,341,53096,2,0,P|397:339|362:300,1,72.5,8|0,0:0|0:0,0:0:0:0:
426,261,53422,5,2,0:0:0:0:
418,252,53585,2,0,P|348:237|253:300,1,145,2|0,0:0|0:0,0:0:0:0:
216,307,54074,2,0,P|202:259|214:229,1,72.5,2|2,1:2|0:0,0:0:0:0:
305,113,54400,5,2,1:3:0:0:
304,214,54563,1,2,0:3:0:0:
154,163,54726,1,2,0:3:0:0:
210,83,54889,1,2,0:3:0:0:
237,160,55052,5,6,1:2:0:0:
256,192,60269,5,2,0:2:0:0:
192,244,60596,5,2,0:0:0:0:
178,162,60922,1,8,0:3:0:0:
246,109,61248,1,2,0:0:0:0:
256,192,61574,5,2,0:0:0:0:
113,216,61900,1,2,0:0:0:0:
164,79,62226,1,2,0:0:0:0:
256,192,62878,5,2,0:0:0:0:
320,140,63205,5,2,0:0:0:0:
334,222,63531,1,2,0:0:0:0:
266,275,63857,1,2,0:0:0:0:
256,192,64183,5,2,0:0:0:0:
399,168,64509,1,2,0:0:0:0:
348,305,64835,1,2,0:3:0:0:
256,192,65487,5,2,0:0:0:0:
300,129,65813,6,0,L|290:83,1,27.1875010371209,2|0,0:0|0:0,0:0:0:0:
232,57,66139,2,0,L|242:11,3,27.1875010371209,8|2|2|2,0:3|0:0|0:0|0:0,0:0:0:0:
310,4,66791,6,0,P|343:23|397:22,1,81.5625031113626,2|0,0:0|0:0,0:0:0:0:
499,46,67443,2,0,P|481:60|440:68,2,54.3750020742417,2|2|2,0:0|0:0|0:0,0:0:0:0:
13,338,69074,2,0,P|31:324|72:316,1,54.3750020742417,2|2,0:0|0:0,0:0:0:0:
256,327,70052,6,0,L|256:272,3,54.3750020742417,2|2|2|2,0:3|0:3|0:3|0:3,0:0:0:0:
256,192,70704,5,2,1:2:0:0:
392,52,71030,5,2,0:0:0:0:
369,137,71356,1,10,0:0:0:0:
285,108,71683,1,0,0:0:0:0:
311,28,72009,5,2,0:0:0:0:
369,137,72335,1,0,1:2:0:0:
473,77,72661,1,10,0:0:0:0:
256,192,73313,5,2,1:2:0:0:
120,332,73639,5,2,0:0:0:0:
143,247,73965,1,10,0:0:0:0:
227,276,74292,1,0,0:0:0:0:
201,356,74618,5,2,0:0:0:0:
143,247,74944,1,0,1:0:0:0:
39,307,75270,1,2,1:3:0:0:
256,192,75922,5,2,1:2:0:0:
215,1,76248,6,0,P|224:31|219:66,1,36.25,2|0,0:0|0:0,0:0:0:0:
168,141,76574,2,0,P|189:118|222:105,1,36.25,10|2,0:0|0:0,0:0:0:0:
312,111,76900,2,0,P|281:103|253:81,1,36.25,2|2,0:0|0:0,0:0:0:0:
234,86,77226,6,0,P|250:140|255:215,1,108.75,2|2,0:0|0:0,0:0:0:0:
309,316,77878,2,0,P|281:271|222:310,1,108.75,10|0,0:0|0:0,0:0:0:0:
166,325,78530,5,2,1:2:0:0:
381,276,79183,1,8,0:0:0:0:
185,154,80161,5,2,1:2:0:0:
335,179,80487,2,0,L|329:135,3,36.25,2|2|2|2,1:3|0:3|0:3|0:3,0:0:0:0:
347,256,81139,5,6,0:0:0:0:
347,261,81465,1,0,0:0:0:0:
348,267,81791,1,2,0:0:0:0:
349,273,82117,1,0,0:0:0:0:
424,301,82443,5,0,0:0:0:0:
425,295,82769,1,2,0:0:0:0:
426,289,83095,1,2,0:0:0:0:
426,284,83421,1,2,0:0:0:0:
497,242,83748,5,2,0:0:0:0:
498,248,84074,1,0,0:0:0:0:
499,254,84400,1,2,0:0:0:0:
499,259,84726,1,0,0:0:0:0:
512,339,85052,5,0,0:0:0:0:
428,207,85378,1,2,0:0:0:0:
396,279,85541,1,0,0:0:0:0:
362,350,85704,1,2,0:0:0:0:
273,214,86030,1,2,0:0:0:0:
165,256,86356,5,2,0:0:0:0:
165,261,86682,1,0,0:0:0:0:
164,267,87008,1,2,0:0:0:0:
163,273,87334,1,0,0:0:0:0:
88,301,87660,5,0,0:0:0:0:
87,295,87986,1,2,0:0:0:0:
86,289,88312,1,2,0:0:0:0:
86,284,88638,1,0,0:0:0:0:
15,242,88965,5,2,0:0:0:0:
14,248,89291,1,0,0:0:0:0:
13,254,89617,1,0,0:0:0:0:
13,259,89943,1,2,0:0:0:0:
13,259,90922,6,0,L|23:197,1,54.375,0|0,0:0|0:0,0:0:0:0:
10,125,91574,6,0,P|61:133|111:95,1,108.75,6|0,1:2|0:0,0:0:0:0:
241,68,92226,6,0,P|181:78|116:15,1,145,10|0,0:0|0:0,0:0:0:0:
196,0,92715,1,2,0:0:0:0:
196,0,93041,5,0,0:0:0:0:
241,68,93204,2,0,P|243:99|226:133,1,54.3750020742417,0|2,1:0|3:2,0:0:0:0:
139,304,93530,6,0,P|136:253|185:155,1,145,10|2,0:0|0:0,0:0:0:0:
172,168,94183,5,2,1:2:0:0:
313,195,94509,1,2,0:0:0:0:
429,118,94835,1,10,0:0:0:0:
273,35,95161,5,2,0:0:0:0:
264,42,95324,2,0,P|244:96|262:169,1,108.750004148483,2|2,0:0|0:0,0:0:0:0:
313,195,95813,2,0,P|323:225|320:268,1,72.5,2|2,1:2|0:0,0:0:0:0:
247,384,96139,5,2,1:3:0:0:
385,315,96302,2,0,P|360:334|318:346,2,72.5,2|2|2,0:3|0:3|0:3,0:0:0:0:
183,329,96791,6,0,P|138:310|61:319,1,108.75,6|0,1:2|0:0,0:0:0:0:
4,233,97443,6,0,P|74:231|152:190,1,145,10|0,0:0|0:0,0:0:0:0:
203,250,97933,1,2,0:0:0:0:
203,250,98259,5,0,0:0:0:0:
269,204,98422,2,0,P|284:238|283:261,1,54.3750020742417,0|2,1:0|0:2,0:0:0:0:
382,139,98748,6,0,P|363:203|363:298,1,145,10|2,0:0|0:0,0:0:0:0:
360,280,99400,6,0,P|396:237|447:343,1,217.5,2|2,1:2|0:0,0:0:0:0:
293,322,100052,2,0,P|279:294|288:247,1,72.5,8|0,0:0|0:0,0:0:0:0:
367,269,100378,5,2,0:0:0:0:
358,277,100541,2,0,P|338:237|327:130,1,145,2|0,0:0|0:0,0:0:0:0:
390,10,101030,2,0,P|395:45|380:77,1,72.5,2|2,1:2|0:0,0:0:0:0:
247,170,101356,5,2,1:3:0:0:
310,34,101519,1,2,0:3:0:0:
177,122,101683,1,2,0:3:0:0:
228,15,101846,1,2,0:3:0:0:
109,73,102009,5,6,0:0:0:0:
109,73,104291,5,2,0:0:0:0:
59,198,104617,6,0,P|42:173|54:114,1,81.5625031113626,2|0,0:0|0:0,0:0:0:0:
192,178,105269,2,0,P|178:205|121:224,1,81.5625031113626,2|0,0:0|0:0,0:0:0:0:
109,73,105921,2,0,P|139:70|184:110,1,81.5625031113626,2|0,0:0|0:0,0:0:0:0:
121,149,106574,5,2,0:0:0:0:
121,149,106900,1,2,0:0:0:0:
426,266,109509,5,2,0:0:0:0:
367,317,109835,6,0,P|348:278|360:229,1,81.5625031113626,2|0,0:0|0:0,0:0:0:0:
484,215,110487,2,0,P|503:254|491:303,1,81.5625031113626,2|0,0:0|0:0,0:0:0:0:
426,266,111139,6,0,L|436:139,1,108.750004148483,2|2,0:0|0:0,0:0:0:0:
102,295,114726,5,2,0:0:0:0:
30,268,115052,6,0,B|8:295|25:334|25:334|36:315,1,81.5625031113626,2|0,1:2|0:0,0:0:0:0:
161,249,115704,2,0,B|148:216|106:211|106:211|117:230,1,81.5625031113626,2|0,0:0|0:0,0:0:0:0:
112,373,116356,2,0,B|146:378|171:344|171:344|149:344,1,81.5625031113626,2|0,0:0|0:0,0:0:0:0:
102,295,117009,5,2,0:0:0:0:
102,295,117335,1,2,0:0:0:0:
320,77,119291,6,0,L|316:50,1,27.1875010371209,2|0,0:0|0:0,0:0:0:0:
391,25,119617,2,0,L|397:75,1,27.1875010371209,2|2,0:0|0:0,0:0:0:0:
449,109,119943,1,2,0:0:0:0:
376,142,120106,5,2,0:0:0:0:
368,147,120269,2,0,P|347:197|365:260,1,108.750004148483,2|2,0:0|0:0,0:0:0:0:
468,293,121248,1,0,0:0:0:0:
468,293,122226,6,0,L|405:306,1,54.375,2|2,0:0|0:0,0:0:0:0:
359,245,122878,6,0,P|340:181|343:116,1,108.75,6|0,1:2|0:0,0:0:0:0:
289,33,123530,6,0,P|303:89|236:174,1,145,10|0,0:0|0:0,0:0:0:0:
197,209,124019,1,2,0:0:0:0:
197,209,124346,5,0,0:0:0:0:
128,166,124509,2,0,P|116:195|121:237,1,54.3750020742417,0|2,1:0|3:2,0:0:0:0:
24,253,124835,6,0,P|90:252|175:295,1,145,10|2,0:0|0:0,0:0:0:0:
161,283,125487,5,2,1:2:0:0:
281,227,125813,1,2,0:0:0:0:
353,330,126139,1,10,0:0:0:0:
392,141,126465,5,2,0:0:0:0:
382,146,126628,2,0,P|361:196|386:267,1,108.750004148483,2|2,0:0|0:0,0:0:0:0:
436,303,127117,2,0,P|451:278|451:222,1,72.5,2|2,1:2|0:0,0:0:0:0:
466,102,127443,5,2,1:3:0:0:
343,58,127606,1,2,0:3:0:0:
382,146,127769,1,2,0:3:0:0:
427,19,127933,1,2,0:3:0:0:
292,133,128096,6,0,P|241:124|172:117,1,108.75,6|0,1:2|0:0,0:0:0:0:
74,154,128748,6,0,P|159:152|200:214,1,145,10|0,0:0|0:0,0:0:0:0:
117,223,129237,1,2,0:0:0:0:
117,223,129563,5,0,0:0:0:0:
156,293,129726,2,0,P|131:305|102:301,1,54.3750020742417,0|2,1:0|0:2,0:0:0:0:
117,223,130052,6,0,P|182:260|294:254,1,145,10|2,0:0|0:0,0:0:0:0:
250,265,130704,6,0,P|215:195|260:65,1,217.5,2|2,1:2|0:0,0:0:0:0:
409,51,131356,2,0,P|373:97|318:95,1,72.5,8|0,0:0|0:0,0:0:0:0:
323,13,131683,5,2,0:0:0:0:
331,21,131846,2,0,P|341:92|317:176,1,145,2|0,0:0|0:0,0:0:0:0:
347,237,132335,2,0,P|307:241|264:210,1,72.5,2|2,1:2|0:0,0:0:0:0:
90,222,132661,5,2,1:3:0:0:
247,157,132824,1,2,0:3:0:0:
200,269,132987,1,2,0:3:0:0:
137,112,133150,1,2,0:3:0:0:
140,322,133313,6,0,P|87:305|20:299,1,108.75,6|0,1:2|0:0,0:0:0:0:
32,112,133965,6,0,P|98:183|62:254,1,145,10|0,0:0|0:0,0:0:0:0:
13,192,134454,1,2,0:0:0:0:
13,192,134780,5,0,0:0:0:0:
32,112,134943,2,0,P|37:75|27:29,1,54.3750020742417,0|2,1:0|3:2,0:0:0:0:
95,168,135269,6,0,P|137:191|271:194,1,145,10|2,0:0|0:0,0:0:0:0:
232,203,135922,5,2,1:2:0:0:
368,252,136248,1,2,0:0:0:0:
342,103,136574,1,10,0:0:0:0:
277,289,136900,5,2,0:0:0:0:
286,283,137063,2,0,P|313:231|287:148,1,108.750004148483,2|2,0:0|0:0,0:0:0:0:
342,103,137552,2,0,P|305:93|253:120,1,72.5,2|2,1:2|0:0,0:0:0:0:
138,183,137878,5,2,1:3:0:0:
200,43,138041,1,2,0:3:0:0:
234,186,138204,1,2,0:3:0:0:
116,90,138367,1,2,0:3:0:0:
273,102,138530,6,0,P|335:96|381:58,1,108.75,6|0,1:2|0:0,0:0:0:0:
438,12,139183,6,0,P|407:69|434:154,1,145,10|0,0:0|0:0,0:0:0:0:
446,228,139672,1,2,0:0:0:0:
446,228,139998,5,0,0:0:0:0:
369,257,140161,2,0,P|366:213|385:175,1,54.3750020742417,0|2,1:0|0:2,0:0:0:0:
432,308,140487,6,0,P|360:285|272:290,1,145,10|2,0:0|0:0,0:0:0:0:
292,286,141139,6,0,P|207:320|97:216,1,217.5,2|2,1:2|0:0,0:0:0:0:
135,74,141791,2,0,P|152:109|135:166,1,72.5,8|0,0:0|0:0,0:0:0:0:
66,190,142117,5,2,0:0:0:0:
77,183,142280,2,0,P|117:172|254:233,1,145,2|0,0:0|0:0,0:0:0:0:
255,126,142769,2,0,P|282:151|299:189,1,72.5,2|2,1:2|0:0,0:0:0:0:
427,313,143096,5,2,1:3:0:0:
376,158,143259,1,2,0:3:0:0:
506,264,143422,1,2,0:3:0:0:
460,135,143585,1,2,0:3:0:0:
348,352,143748,6,0,L|225:335,1,108.75,6|0,1:2|0:0,0:0:0:0:
188,273,144400,6,0,L|35:303,1,145,10|0,0:0|0:0,0:0:0:0:
46,93,144889,2,0,P|63:123|52:184,1,72.5,2|2,0:0|0:0,0:0:0:0:
8,224,145216,5,0,0:0:0:0:
147,147,145379,1,0,1:0:0:0:
147,147,145705,6,0,P|199:153|249:117,1,108.75,10|0,0:0|0:0,0:0:0:0:
249,131,146031,2,0,P|287:95|291:33,1,108.75,2|0,0:0|0:0,0:0:0:0:
285,30,146357,5,2,1:2:0:0:
147,147,146683,1,2,0:0:0:0:
322,210,147009,1,10,0:0:0:0:
191,340,147335,5,2,0:0:0:0:
198,330,147498,2,0,P|256:315|329:356,1,108.750004148483,2|2,0:0|0:0,0:0:0:0:
437,289,147987,2,0,P|396:293|359:270,1,72.5,2|2,1:2|0:0,0:0:0:0:
280,142,148313,5,2,1:3:0:0:
430,48,148476,1,2,0:3:0:0:
402,172,148639,1,2,0:3:0:0:
306,20,148803,1,2,0:3:0:0:
355,94,148966,6,0,P|306:109|233:71,1,108.75,6|0,1:2|0:0,0:0:0:0:
37,89,149618,6,0,P|97:60|205:78,1,145,10|0,0:0|0:0,0:0:0:0:
214,227,150107,2,0,P|167:232|124:178,1,72.5,2|0,0:0|0:0,0:0:0:0:
188,146,150433,5,0,0:0:0:0:
221,312,150596,1,0,1:0:0:0:
339,201,150759,1,2,0:2:0:0:
145,220,150922,6,0,P|63:222|-5:247,1,145,10|2,0:0|0:0,0:0:0:0:
186,321,151411,1,0,0:0:0:0:
37,317,151574,6,0,P|101:300|190:318,1,145,2|2,1:2|0:0,0:0:0:0:
309,244,152063,1,2,0:0:0:0:
282,384,152226,2,0,P|266:360|270:301,1,72.5,8|0,0:0|0:0,0:0:0:0:
375,49,152553,5,2,0:0:0:0:
383,56,152716,2,0,P|398:105|349:204,1,145,2|0,0:0|0:0,0:0:0:0:
309,244,153204,2,0,P|293:220|297:161,1,72.5,2|2,1:2|0:0,0:0:0:0:
444,111,153531,5,2,1:3:0:0:
384,267,153693,1,2,0:3:0:0:
221,314,153856,1,2,0:3:0:0:
74,230,154019,1,2,0:3:0:0:
232,39,154183,6,0,P|273:65|352:54,1,108.75,6|0,1:2|0:0,0:0:0:0:
375,269,154835,6,0,P|340:220|365:136,1,145,10|0,0:0|0:0,0:0:0:0:
396,10,155324,2,0,P|417:57|403:101,1,72.5,2|2,0:0|0:0,0:0:0:0:
333,64,155650,5,0,0:0:0:0:
491,19,155813,1,0,1:0:0:0:
491,19,156139,6,0,L|479:152,1,108.75,10|0,0:0|0:0,0:0:0:0:
473,117,156466,2,0,L|485:250,1,108.75,2|0,0:0|0:0,0:0:0:0:
493,237,156792,5,2,1:2:0:0:
357,369,157118,1,2,0:0:0:0:
152,313,157444,1,10,0:0:0:0:
342,85,157770,5,2,0:0:0:0:
351,98,157933,2,0,P|359:162|313:242,1,108.750004148483,2|2,0:0|0:0,0:0:0:0:
273,239,158422,2,0,L|174:252,1,72.5,2|2,1:2|0:0,0:0:0:0:
3,120,158748,5,2,1:3:0:0:
111,7,158911,1,2,0:3:0:0:
92,164,159074,1,2,0:3:0:0:
15,27,159237,1,2,0:3:0:0:
160,92,159400,6,0,P|214:88|276:70,1,108.75,6|0,1:2|0:0,0:0:0:0:
387,57,160053,6,0,P|336:118|379:198,1,145,10|0,0:0|0:0,0:0:0:0:
479,266,160542,2,0,P|494:230|483:179,1,72.5,2|0,0:0|0:0,0:0:0:0:
415,219,160868,5,0,0:0:0:0:
239,307,161031,1,0,1:0:0:0:
373,349,161194,1,2,0:2:0:0:
279,175,161357,6,0,P|320:214|299:318,1,145,10|2,0:0|0:0,0:0:0:0:
117,276,161846,1,0,0:0:0:0:
248,251,162009,6,0,P|209:292|104:271,1,145,2|2,1:2|0:0,0:0:0:0:
76,117,162498,1,2,0:0:0:0:
0,236,162661,2,0,P|34:222|77:209,1,72.5,8|0,0:0|0:0,0:0:0:0:
266,74,162987,5,2,0:0:0:0:
274,84,163150,2,0,P|193:92|122:51,1,145,2|0,0:0|0:0,0:0:0:0:
76,117,163639,2,0,P|55:80|66:37,1,72.5,2|2,1:2|0:0,0:0:0:0:
331,20,163965,6,0,P|317:93|309:214,1,145,2|2,1:3|0:3,0:0:0:0:
310,163,164617,1,2,1:2:0:0:
