osu file format v14

[General]
AudioFilename: asdsadsad.mp3
AudioLeadIn: 0
PreviewTime: 33959
Countdown: 0
SampleSet: Normal
StackLeniency: 0.7
Mode: 0
LetterboxInBreaks: 0
WidescreenStoryboard: 0

[Editor]
Bookmarks: 32818
DistanceSpacing: 0.9
BeatDivisor: 4
GridSize: 4
TimelineZoom: 1

[Metadata]
Title:Boom Clap
TitleUnicode:Boom Clap
Artist:Charli XCX
ArtistUnicode:Charli XCX
Creator:schoolboy
Version:Normal
Source:The Fault In Our Stars
Tags:komore bakari dailycare kalibe morinaga
BeatmapID:1542346
BeatmapSetID:730792

[Difficulty]
HPDrainRate:3
CircleSize:3.5
OverallDifficulty:3
ApproachRate:5
SliderMultiplier:1.9
SliderTickRate:1

[Events]
//Background and Video events
0,0,"bggg.jpg",0,0
Video,-1298,"vidya.mp4"
//Break Periods
2,55252,58334
2,81339,89639
2,102209,103008
2,107426,108226
2,112643,113443
//Storyboard Layer 0 (Background)
//Storyboard Layer 1 (Fail)
//Storyboard Layer 2 (Pass)
//Storyboard Layer 3 (Foreground)
//Storyboard Sound Samples

[TimingPoints]
270,652.173913043478,4,1,1,60,1,0
2226,-100,4,2,1,60,0,0
2878,-100,4,2,2,50,0,0
4835,-100,4,2,2,70,0,0
5487,-100,4,2,2,50,0,0
7443,-100,4,2,2,70,0,0
8096,-100,4,2,2,50,0,0
10052,-100,4,2,2,70,0,0
10704,-100,4,2,2,50,0,0
12498,-100,4,2,2,30,0,0
12661,-100,4,2,1,70,0,0
13150,-100,4,2,1,5,0,0
13313,-100,4,2,1,55,0,0
21139,-100,4,1,1,45,0,0
23096,-100,4,2,1,45,0,0
23748,-100,4,2,1,55,0,0
31574,-100,4,2,1,45,0,0
32389,-100,4,2,1,5,0,0
32471,-100,4,2,1,45,0,0
34183,-100,4,2,1,75,0,0
35487,-100,4,2,1,75,0,0
37443,-100,4,2,1,75,0,0
37688,-100,4,2,1,25,0,0
37769,-100,4,2,1,75,0,0
38177,-100,4,2,1,25,0,0
38259,-100,4,2,1,75,0,0
39400,-100,4,2,1,75,0,0
40704,-100,4,2,1,75,0,0
41683,-100,4,2,1,75,0,0
42253,-100,4,2,1,25,0,0
42335,-100,4,2,1,75,0,0
43558,-100,4,2,1,25,0,0
43639,-100,4,2,1,75,0,0
44617,-100,4,2,1,75,0,0
45759,-100,4,2,1,75,0,0
47878,-100,4,2,1,75,0,0
48123,-100,4,2,1,25,0,0
48204,-100,4,2,1,75,0,0
48612,-100,4,2,1,25,0,0
48693,-100,4,2,1,75,0,0
49835,-100,4,2,1,75,0,0
52117,-100,4,2,1,75,0,0
52688,-100,4,2,1,25,0,0
52769,-100,4,2,1,75,0,0
53992,-100,4,2,1,25,0,0
54074,-100,4,2,1,75,0,0
55052,-100,4,2,1,50,0,0
55134,-100,4,2,1,25,0,0
56683,-100,4,2,1,35,0,0
57661,-100,4,2,1,40,0,0
58965,-100,4,2,1,43,0,0
59128,-100,4,2,1,45,0,0
59291,-100,4,2,1,47,0,0
59454,-100,4,2,1,50,0,0
60269,-100,4,2,1,45,0,0
68096,-100,4,2,1,45,0,0
70704,-100,4,2,1,55,0,0
70867,-100,4,2,1,55,0,0
78530,-100,4,2,1,55,0,0
81139,-100,4,2,1,43,0,0
91574,-100,4,2,1,75,0,0
94835,-100,4,2,1,75,0,0
95079,-100,4,2,1,25,0,0
95161,-100,4,2,1,75,0,0
95568,-100,4,2,1,25,0,0
95650,-100,4,2,1,75,0,0
96791,-100,4,2,1,75,0,0
99074,-100,4,2,1,75,0,0
99644,-100,4,2,1,25,0,0
99726,-100,4,2,1,75,0,0
100949,-100,4,2,1,25,0,0
101030,-100,4,2,1,75,0,0
102009,-100,4,2,1,50,0,0
102661,-100,4,2,1,30,0,0
108856,-100,4,2,1,20,0,0
109427,-100,4,2,1,30,0,0
120269,-100,4,2,1,35,0,0
120514,-100,4,2,1,25,0,0
120759,-100,4,2,1,17,0,0
121248,-100,4,2,1,20,0,0
122226,-100,4,2,1,50,0,0
122878,-100,4,2,1,75,0,0
126139,-100,4,2,1,75,0,0
126384,-100,4,2,1,25,0,0
126465,-100,4,2,1,75,0,0
126873,-100,4,2,1,25,0,0
126954,-100,4,2,1,75,0,0
128096,-100,4,2,1,75,0,0
130378,-100,4,2,1,75,0,0
130949,-100,4,2,1,25,0,0
131030,-100,4,2,1,75,0,0
132253,-100,4,2,1,25,0,0
132335,-100,4,2,1,75,0,0
133313,-100,4,2,1,75,0,0
136574,-100,4,2,1,75,0,0
136818,-100,4,2,1,25,0,0
136900,-100,4,2,1,75,0,0
137308,-100,4,2,1,25,0,0
137389,-100,4,2,1,75,0,0
138530,-100,4,2,1,75,0,0
140813,-100,4,2,1,75,0,0
141384,-100,4,2,1,25,0,0
141465,-100,4,2,1,75,0,0
142688,-100,4,2,1,25,0,0
142769,-100,4,2,1,75,0,0
143748,-100,4,2,1,84,0,0
147009,-100,4,2,1,84,0,0
147253,-100,4,2,1,25,0,0
147335,-100,4,2,1,84,0,0
147742,-100,4,2,1,25,0,0
147824,-100,4,2,1,84,0,0
148965,-100,4,2,1,84,0,0
151248,-100,4,2,1,84,0,0
151818,-100,4,2,1,25,0,0
151900,-100,4,2,1,84,0,0
153123,-100,4,2,1,25,0,0
153204,-100,4,2,1,84,0,0
154183,-100,4,2,1,84,0,0
157443,-100,4,2,1,84,0,0
157688,-100,4,2,1,25,0,0
157769,-100,4,2,1,84,0,0
158177,-100,4,2,1,25,0,0
158259,-100,4,2,1,84,0,0
159400,-100,4,2,1,84,0,0
161683,-100,4,2,1,84,0,0
162253,-100,4,2,1,25,0,0
162335,-100,4,2,1,84,0,0
163558,-100,4,2,1,25,0,0
163639,-100,4,2,1,84,0,0
164617,-100,4,2,1,52,0,0

[Colours]
Combo1 : 225,225,225
Combo2 : 151,221,255
Combo3 : 236,213,168
Combo4 : 191,240,200

[HitObjects]
181,156,270,6,0,P|216:106|144:14,2,190,2|2|2,0:0|0:0|0:0,0:0:0:0:
40,253,2226,1,12,0:0:0:0:
200,312,2878,6,0,L|296:297,1,95,2|0,1:2|0:0,0:0:0:0:
365,344,3530,2,0,P|420:277|365:184,1,190,8|0,0:0|0:0,0:0:0:0:
304,153,4509,1,0,1:0:0:0:
228,193,4835,2,0,P|143:209|123:207,1,95,8|0,0:0|0:0,0:0:0:0:
60,167,5487,6,0,P|49:131|80:73,1,95,2|0,1:2|0:0,0:0:0:0:
146,39,6139,2,0,B|259:44|202:101|318:102,1,190,8|0,0:0|0:0,0:0:0:0:
396,67,7117,1,0,1:0:0:0:
454,129,7443,2,0,L|442:184,1,47.5,2|2,0:3|0:3,0:0:0:0:
408,199,7769,2,0,L|419:255,1,47.5,2|2,0:3|0:3,0:0:0:0:
389,278,8096,6,0,P|334:254|298:265,1,95,2|0,1:2|0:0,0:0:0:0:
237,317,8748,2,0,P|148:305|48:295,1,190,8|0,0:0|0:0,0:0:0:0:
15,216,9726,1,0,1:2:0:0:
67,148,10052,2,0,P|113:121|167:146,1,95,8|0,0:0|0:0,0:0:0:0:
217,184,10704,6,0,L|209:237,2,47.5,2|0|0,1:2|0:0|0:0,0:0:0:0:
291,141,11356,2,0,L|284:87,2,47.5,2|0|0,1:2|0:0|0:0,0:0:0:0:
363,186,12009,2,0,P|417:195|465:167,1,95,2|0,1:2|0:0,0:0:0:0:
497,106,12661,1,8,0:0:0:0:
349,19,13313,5,2,1:2:0:0:
277,66,13639,1,2,0:0:0:0:
199,29,13965,2,0,P|153:20|101:41,1,95,10|0,0:0|0:0,0:0:0:0:
44,91,14617,2,0,P|51:131|62:187,1,95,2|0,0:0|1:2,0:0:0:0:
128,237,15269,2,0,P|119:283|108:346,1,95,10|0,0:0|0:0,0:0:0:0:
184,374,15922,5,2,1:2:0:0:
257,331,16248,1,2,0:0:0:0:
334,367,16574,2,0,P|383:372|426:344,1,95,10|0,0:0|0:0,0:0:0:0:
475,283,17226,2,0,L|456:185,1,95,2|0,0:0|1:0,0:0:0:0:
398,127,17878,2,0,L|407:66,2,47.5,2|2|2,1:3|0:3|0:3,0:0:0:0:
361,148,18367,1,2,0:3:0:0:
361,148,18530,6,0,P|308:129|263:146,1,95,2|2,1:2|0:0,0:0:0:0:
200,186,19183,2,0,L|212:245,1,47.5,10|2,0:0|0:0,0:0:0:0:
177,260,19509,2,0,L|187:320,1,47.5,2|2,0:0|0:0,0:0:0:0:
161,342,19835,2,0,P|106:363|64:340,1,95,2|0,0:0|1:2,0:0:0:0:
19,285,20487,2,0,P|26:234|34:184,1,95,10|2,0:0|0:0,0:0:0:0:
96,134,21139,6,0,B|219:140|153:205|276:211,2,190,2|2|2,1:0|0:0|0:0,0:0:0:0:
21,92,22769,1,0,0:0:0:0:
87,38,23096,2,0,P|138:22|178:40,1,95,8|0,0:0|0:0,0:0:0:0:
241,89,23748,5,2,1:2:0:0:
315,46,24074,1,2,0:0:0:0:
388,89,24400,2,0,L|367:189,1,95,10|0,0:0|0:0,0:0:0:0:
436,233,25052,2,0,P|456:270|430:332,1,95,2|0,0:0|1:2,0:0:0:0:
365,355,25704,2,0,P|316:335|265:349,1,95,10|0,0:0|0:0,0:0:0:0:
196,375,26356,5,2,1:2:0:0:
127,324,26683,1,2,0:0:0:0:
51,363,27009,2,0,P|44:313|38:254,1,95,10|0,0:0|0:0,0:0:0:0:
107,216,27661,2,0,P|123:158|91:123,1,95,2|0,0:0|1:0,0:0:0:0:
48,68,28313,2,0,L|-4:82,2,47.5,2|2|2,1:3|0:3|0:3,0:0:0:0:
81,42,28802,1,2,0:3:0:0:
81,42,28965,6,0,P|131:51|183:51,1,95,2|2,1:2|0:0,0:0:0:0:
257,27,29617,2,0,L|245:82,1,47.5,10|2,0:0|0:0,0:0:0:0:
274,105,29943,2,0,L|261:166,1,47.5,2|2,0:0|0:0,0:0:0:0:
286,187,30269,2,0,P|330:206|382:188,1,95,2|0,0:0|1:2,0:0:0:0:
456,218,30922,1,10,0:0:0:0:
484,298,31248,1,2,0:0:0:0:
426,361,31574,6,0,P|340:340|232:347,1,190,2|0,0:0|0:0,0:0:0:0:
164,303,32552,2,0,P|123:292|60:330,2,95,2|2|0,0:0|0:0|0:0,0:0:0:0:
239,345,33530,1,2,0:0:0:0:
249,174,34183,6,0,P|236:94|228:42,1,95,6|0,1:2|0:0,0:0:0:0:
298,24,34835,1,10,0:0:0:0:
361,82,35161,2,0,P|374:162|382:214,1,95,2|2,0:0|0:0,0:0:0:0:
320,240,35813,2,0,P|324:268|328:298,1,47.5,0|2,1:0|3:2,0:0:0:0:
360,313,36139,2,0,P|408:326|453:304,1,95,10|2,0:0|0:0,0:0:0:0:
499,240,36791,6,0,L|481:139,1,95,2|2,1:2|0:0,0:0:0:0:
411,98,37443,2,0,P|359:90|308:123,1,95,10|2,0:0|0:0,0:0:0:0:
290,137,37933,2,0,P|242:131|177:122,1,95,2|2,0:0|0:0,0:0:0:0:
163,152,38422,1,2,1:2:0:0:
119,225,38748,2,0,L|67:216,2,47.5,2|2|2,1:3|0:3|0:3,0:0:0:0:
131,265,39237,1,2,0:3:0:0:
131,265,39400,6,0,P|197:249|228:259,1,95,6|0,1:2|0:0,0:0:0:0:
292,303,40052,1,10,0:0:0:0:
364,257,40378,2,0,L|346:134,1,95,2|2,0:0|0:0,0:0:0:0:
422,117,41030,2,0,L|429:61,1,47.5,0|2,1:0|0:2,0:0:0:0:
400,36,41356,1,10,0:0:0:0:
326,79,41683,6,0,L|271:67,1,47.5,2|0,0:0|0:0,0:0:0:0:
242,47,42009,2,0,P|194:62|132:62,1,95,2|2,1:2|0:0,0:0:0:0:
110,45,42498,1,2,0:0:0:0:
110,45,42661,1,8,0:0:0:0:
68,119,42987,2,0,L|79:176,1,47.5,2|2,0:0|0:0,0:0:0:0:
111,191,43313,2,0,P|104:245|98:297,1,95,2|2,0:0|1:2,0:0:0:0:
125,318,43802,1,2,0:0:0:0:
125,318,43965,2,0,L|193:306,1,47.5,2|2,1:3|0:3,0:0:0:0:
206,334,44291,2,0,L|275:323,1,47.5,2|2,0:3|0:3,0:0:0:0:
290,346,44617,6,0,P|345:359|388:331,1,95,6|0,1:2|0:0,0:0:0:0:
433,278,45269,1,10,0:0:0:0:
382,208,45596,2,0,L|398:99,1,95,2|2,0:0|0:0,0:0:0:0:
333,55,46248,2,0,L|274:68,1,47.5,0|2,1:0|3:2,0:0:0:0:
256,95,46574,2,0,P|206:87|153:79,1,95,10|2,0:0|0:0,0:0:0:0:
91,32,47226,5,2,1:2:0:0:
34,96,47552,1,2,0:0:0:0:
81,167,47878,2,0,L|186:154,1,95,10|2,0:0|0:0,0:0:0:0:
203,187,48367,2,0,P|254:201|297:180,1,95,2|2,0:0|0:0,0:0:0:0:
316,150,48856,1,2,1:2:0:0:
368,82,49183,2,0,L|426:89,2,47.5,2|2|2,1:3|0:3|0:3,0:0:0:0:
333,56,49672,1,2,0:3:0:0:
333,56,49835,6,0,P|254:43|231:54,1,95,6|0,1:2|0:0,0:0:0:0:
168,90,50487,1,10,0:0:0:0:
115,157,50813,2,0,L|130:267,1,95,2|2,0:0|0:0,0:0:0:0:
184,315,51465,2,0,L|235:303,1,47.5,0|2,1:0|0:2,0:0:0:0:
264,329,51791,1,10,0:0:0:0:
337,373,52117,5,2,0:0:0:0:
406,323,52443,2,0,L|387:212,1,95,2|2,1:2|0:0,0:0:0:0:
358,199,52933,1,2,0:0:0:0:
358,199,53096,1,8,0:0:0:0:
424,145,53422,2,0,P|430:122|432:83,1,47.5,2|2,0:0|0:0,0:0:0:0:
407,63,53748,2,0,P|347:39|306:58,1,95,2|2,0:0|1:2,0:0:0:0:
286,72,54237,1,2,0:0:0:0:
286,72,54400,2,0,L|212:63,1,47.5,2|2,1:3|0:3,0:0:0:0:
202,88,54726,2,0,L|135:91,1,47.5,2|2,0:3|0:3,0:0:0:0:
116,70,55052,5,6,1:2:0:0:
44,176,59617,6,0,L|34:113,2,47.5,2|2|2,0:3|0:3|0:3,0:0:0:0:
24,213,60106,1,2,0:3:0:0:
24,213,60269,5,2,0:2:0:0:
99,252,60596,1,2,0:0:0:0:
175,214,60922,2,0,P|229:198|266:213,1,95,8|2,0:3|0:0,0:0:0:0:
322,272,61574,2,0,L|441:244,1,95,2|2,0:0|0:0,0:0:0:0:
478,193,62226,2,0,P|439:165|383:173,1,95,2|0,0:0|0:0,0:0:0:0:
311,143,62878,5,2,0:0:0:0:
256,76,63204,1,2,0:0:0:0:
324,25,63530,2,0,L|440:34,2,95,2|2|2,0:0|0:0|0:0,0:0:0:0:
256,76,64509,1,2,0:0:0:0:
179,37,64835,2,0,L|130:48,1,47.5,2|2,0:3|0:3,0:0:0:0:
106,81,65161,2,0,L|47:68,1,47.5,2|2,0:3|0:3,0:0:0:0:
29,101,65487,6,0,L|44:211,1,95,2|2,0:0|0:0,0:0:0:0:
72,224,65976,1,0,0:0:0:0:
72,224,66139,2,0,L|58:292,1,47.5,8|2,0:3|0:0,0:0:0:0:
32,301,66465,2,0,L|38:360,1,47.5,2|2,0:0|0:0,0:0:0:0:
72,371,66791,2,0,P|124:382|173:354,1,95,2|2,0:0|0:0,0:0:0:0:
228,313,67443,2,0,P|271:296|316:307,1,95,2|2,0:0|0:0,0:0:0:0:
387,356,68096,6,0,P|465:364|451:255,1,190,2|0,0:0|0:0,0:0:0:0:
411,216,69074,1,2,0:0:0:0:
475,159,69400,2,0,P|486:109|461:64,1,95,2|0,0:0|0:0,0:0:0:0:
398,20,70052,2,0,L|343:30,1,47.5,2|2,0:3|0:3,0:0:0:0:
320,57,70378,2,0,L|270:41,1,47.5,2|2,0:3|0:3,0:0:0:0:
240,68,70704,5,2,1:2:0:0:
160,37,71030,1,2,0:0:0:0:
89,85,71356,2,0,P|66:131|106:198,2,95,10|0|2,0:0|0:0|0:0,0:0:0:0:
160,37,72335,1,0,1:2:0:0:
240,68,72661,2,0,L|353:49,1,95,10|0,0:0|0:0,0:0:0:0:
413,20,73313,5,2,1:2:0:0:
467,86,73639,1,2,0:0:0:0:
406,145,73965,2,0,P|393:179|410:242,1,95,10|0,0:0|0:0,0:0:0:0:
345,295,74617,2,0,P|298:290|246:285,1,95,2|0,0:0|1:0,0:0:0:0:
190,225,75269,2,0,L|201:159,2,47.5,2|2|2,1:3|0:3|0:3,0:0:0:0:
160,256,75759,1,2,0:3:0:0:
160,256,75922,6,0,P|101:270|55:243,1,95,2|2,1:2|0:0,0:0:0:0:
17,191,76574,2,0,L|30:134,1,47.5,10|2,0:0|0:0,0:0:0:0:
63,120,76900,2,0,L|55:59,1,47.5,2|2,0:0|0:0,0:0:0:0:
88,44,77226,2,0,P|143:57|191:52,1,95,2|0,0:0|1:2,0:0:0:0:
250,4,77878,1,10,0:0:0:0:
312,62,78204,1,2,0:0:0:0:
253,124,78530,5,2,1:2:0:0:
289,291,79183,1,8,0:0:0:0:
365,252,79509,2,0,P|424:250|461:275,2,95,0|2|2,0:0|0:0|1:2,0:0:0:0:
289,291,80487,2,0,L|214:282,1,47.5,2|2,1:3|0:3,0:0:0:0:
202,269,80813,2,0,P|179:268|144:277,1,47.5,2|2,0:3|0:3,0:0:0:0:
126,307,81139,5,6,0:0:0:0:
29,136,90922,5,0,0:0:0:0:
75,300,91574,6,0,L|184:280,1,95,6|0,1:2|0:0,0:0:0:0:
242,325,92226,1,10,0:0:0:0:
312,277,92552,2,0,P|327:231|280:173,1,95,2|2,0:0|0:0,0:0:0:0:
237,143,93204,2,0,L|247:85,1,47.5,0|2,1:0|3:2,0:0:0:0:
212,68,93530,2,0,P|164:83|111:91,1,95,10|2,0:0|0:0,0:0:0:0:
45,47,94183,5,2,1:2:0:0:
10,125,94509,1,2,0:0:0:0:
62,192,94835,2,0,P|119:175|168:192,1,95,10|2,0:0|0:0,0:0:0:0:
187,206,95324,2,0,L|286:195,1,95,2|2,0:0|0:0,0:0:0:0:
317,217,95813,1,2,1:2:0:0:
392,176,96139,2,0,P|389:153|384:115,2,47.5,2|2|2,1:3|0:3|0:3,0:0:0:0:
429,196,96628,1,2,0:3:0:0:
429,196,96791,6,0,P|457:242|435:288,1,95,6|0,1:2|0:0,0:0:0:0:
387,341,97443,1,10,0:0:0:0:
305,315,97769,2,0,L|184:330,1,95,2|2,0:0|0:0,0:0:0:0:
134,366,98422,2,0,L|63:355,1,47.5,0|2,1:0|0:2,0:0:0:0:
45,368,98748,1,10,0:0:0:0:
3,293,99074,6,0,P|4:270|14:246,1,47.5,2|0,0:0|0:0,0:0:0:0:
44,218,99400,2,0,L|26:109,1,95,2|2,1:2|0:0,0:0:0:0:
22,81,99889,1,2,0:0:0:0:
22,81,100052,1,8,0:0:0:0:
96,39,100378,2,0,L|152:48,1,47.5,2|2,0:0|0:0,0:0:0:0:
178,70,100704,2,0,P|231:38|284:55,1,95,2|2,0:0|1:2,0:0:0:0:
299,61,101193,1,2,0:0:0:0:
299,61,101356,2,0,L|370:50,1,47.5,2|2,1:3|0:3,0:0:0:0:
383,74,101683,2,0,L|447:67,1,47.5,2|2,0:3|0:3,0:0:0:0:
462,96,102009,5,6,0:0:0:0:
108,177,104291,5,2,0:0:0:0:
171,234,104617,2,0,B|266:254|247:173|371:206,2,190,2|2|2,0:0|0:0|0:0,0:0:0:0:
108,177,106248,1,2,0:0:0:0:
39,227,106574,2,0,P|22:273|56:334,2,95,2|2|2,0:0|0:0|0:0,0:0:0:0:
250,65,109509,5,2,0:0:0:0:
314,120,109835,2,0,P|406:134|473:61,2,190,2|2|2,0:0|0:0|0:0,0:0:0:0:
250,65,111465,1,2,0:0:0:0:
189,125,111791,2,0,L|216:336,1,190,2|6,0:0|1:2,0:0:0:0:
213,313,114726,5,2,0:0:0:0:
290,276,115052,2,0,L|493:313,2,190,2|2|2,1:2|0:0|0:0,0:0:0:0:
221,224,116683,1,2,1:2:0:0:
283,165,117009,2,0,P|335:159|382:186,2,95,2|2|2,0:0|0:0|1:2,0:0:0:0:
283,165,119291,5,2,0:0:0:0:
210,209,119617,2,0,P|161:204|99:203,1,95,2|2,0:0|0:0,0:0:0:0:
43,156,120269,2,0,P|31:108|61:56,1,95,2|2,0:0|0:0,0:0:0:0:
88,53,120759,1,2,0:0:0:0:
88,53,120922,1,2,0:0:0:0:
170,32,121248,2,0,P|260:51|366:67,1,190,0|0,0:0|0:0,0:0:0:0:
434,30,122226,1,2,0:0:0:0:
482,193,122878,6,0,P|436:168|371:187,1,95,6|0,1:2|0:0,0:0:0:0:
322,218,123530,1,10,0:0:0:0:
251,266,123856,2,0,L|146:253,1,95,2|2,0:0|0:0,0:0:0:0:
87,204,124509,2,0,L|82:142,1,47.5,0|2,1:0|3:2,0:0:0:0:
108,122,124835,2,0,P|166:101|220:139,1,95,10|2,0:0|0:0,0:0:0:0:
265,159,125487,5,2,1:2:0:0:
342,123,125813,1,2,0:0:0:0:
414,168,126139,2,0,L|394:287,1,95,10|2,0:0|0:0,0:0:0:0:
405,303,126628,2,0,P|338:274|287:295,1,95,2|2,0:0|0:0,0:0:0:0:
285,303,127117,1,2,1:2:0:0:
202,279,127443,2,0,L|192:228,2,47.5,2|2|2,1:3|0:3|0:3,0:0:0:0:
178,315,127933,1,2,0:3:0:0:
178,315,128096,6,0,P|127:326|90:301,1,95,6|0,1:2|0:0,0:0:0:0:
27,248,128748,1,10,0:0:0:0:
87,187,129074,2,0,L|78:88,1,95,2|2,0:0|0:0,0:0:0:0:
143,35,129726,2,0,L|204:43,1,47.5,0|2,1:0|0:2,0:0:0:0:
226,63,130052,1,10,0:0:0:0:
302,25,130378,6,0,L|352:17,1,47.5,2|0,0:0|0:0,0:0:0:0:
387,35,130704,2,0,P|415:84|381:135,1,95,2|2,1:2|0:0,0:0:0:0:
372,146,131193,1,2,0:0:0:0:
372,146,131356,1,8,0:0:0:0:
418,217,131683,2,0,P|424:254|416:281,1,47.5,2|2,0:0|0:0,0:0:0:0:
389,291,132009,2,0,L|278:275,1,95,2|2,0:0|1:2,0:0:0:0:
260,303,132498,1,2,0:0:0:0:
260,303,132661,2,0,L|180:310,1,47.5,2|2,1:3|0:3,0:0:0:0:
179,334,132987,2,0,L|114:328,1,47.5,2|2,0:3|0:3,0:0:0:0:
95,352,133313,6,0,L|77:250,1,95,6|0,1:2|0:0,0:0:0:0:
20,195,133965,1,10,0:0:0:0:
73,128,134291,2,0,P|140:116|166:139,1,95,2|2,0:0|0:0,0:0:0:0:
223,184,134943,2,0,L|301:168,1,47.5,0|2,1:0|3:2,0:0:0:0:
308,157,135269,2,0,P|395:170|419:168,1,95,10|2,0:0|0:0,0:0:0:0:
466,113,135922,5,2,1:2:0:0:
507,187,136248,1,2,0:0:0:0:
462,260,136574,2,0,P|413:280|367:263,1,95,10|2,0:0|0:0,0:0:0:0:
335,250,137063,2,0,P|285:255|216:263,1,95,2|2,0:0|0:0,0:0:0:0:
206,285,137552,1,2,1:2:0:0:
126,317,137878,2,0,L|135:375,2,47.5,2|2|2,1:3|0:3|0:3,0:0:0:0:
91,291,138367,1,2,0:3:0:0:
91,291,138530,6,0,P|74:235|100:172,1,95,6|0,1:2|0:0,0:0:0:0:
135,134,139183,1,10,0:0:0:0:
212,174,139509,2,0,P|238:172|320:160,1,95,2|2,0:0|0:0,0:0:0:0:
379,118,140161,2,0,L|446:133,1,47.5,0|2,1:0|0:2,0:0:0:0:
464,111,140487,1,10,0:0:0:0:
497,189,140813,6,0,L|491:257,1,47.5,2|0,0:0|0:0,0:0:0:0:
463,267,141139,2,0,P|415:285|361:259,1,95,2|2,1:2|0:0,0:0:0:0:
339,248,141628,1,2,0:0:0:0:
339,248,141791,1,8,0:0:0:0:
262,285,142117,2,0,L|197:279,1,47.5,2|2,0:0|0:0,0:0:0:0:
180,254,142443,2,0,L|66:277,1,95,2|2,0:0|1:2,0:0:0:0:
50,250,142933,1,2,0:0:0:0:
50,250,143096,2,0,L|42:187,1,47.5,2|2,1:3|0:3,0:0:0:0:
68,167,143422,2,0,P|76:138|70:101,1,47.5,2|2,0:3|0:3,0:0:0:0:
49,86,143748,6,0,P|117:87|148:67,1,95,6|0,1:2|0:0,0:0:0:0:
209,26,144400,1,10,0:0:0:0:
272,82,144726,2,0,L|382:67,1,95,2|2,0:0|0:0,0:0:0:0:
438,114,145378,2,0,L|431:171,1,47.5,0|2,1:0|3:2,0:0:0:0:
454,197,145704,2,0,P|468:236|451:291,1,95,10|2,0:0|0:0,0:0:0:0:
375,319,146356,6,0,L|272:302,1,95,2|2,1:2|0:0,0:0:0:0:
205,343,147009,2,0,P|143:356|97:323,1,95,10|2,0:0|0:0,0:0:0:0:
90,309,147498,2,0,L|104:207,1,95,2|2,0:0|0:0,0:0:0:0:
90,174,147987,1,2,1:2:0:0:
46,98,148313,2,0,L|-15:112,2,47.5,2|2|2,1:3|0:3|0:3,0:0:0:0:
59,57,148802,1,2,0:3:0:0:
59,57,148965,6,0,P|113:34|163:52,1,95,6|0,1:2|0:0,0:0:0:0:
217,89,149617,1,10,0:0:0:0:
287,41,149943,2,0,P|334:32|405:75,1,95,2|2,0:0|0:0,0:0:0:0:
436,109,150596,2,0,L|423:158,1,47.5,0|2,1:0|0:2,0:0:0:0:
450,188,150922,1,10,0:0:0:0:
383,241,151248,6,0,L|336:229,1,47.5,2|0,0:0|0:0,0:0:0:0:
302,203,151574,2,0,P|251:218|199:219,1,95,2|2,1:2|0:0,0:0:0:0:
172,198,152063,1,2,0:0:0:0:
172,198,152226,1,8,0:0:0:0:
102,247,152552,2,0,L|110:303,1,47.5,2|2,0:0|0:0,0:0:0:0:
121,334,152878,2,0,P|174:317|219:333,1,95,2|2,0:0|1:2,0:0:0:0:
240,357,153367,1,2,0:0:0:0:
240,357,153530,2,0,L|308:348,1,47.5,2|2,1:3|0:3,0:0:0:0:
325,332,153856,2,0,L|396:351,1,47.5,2|2,0:3|0:3,0:0:0:0:
405,370,154183,6,0,L|420:271,1,95,6|0,1:2|0:0,0:0:0:0:
475,211,154835,1,10,0:0:0:0:
413,151,155161,2,0,P|367:130|311:149,1,95,2|2,0:0|0:0,0:0:0:0:
261,195,155813,2,0,L|273:251,1,47.5,0|2,1:0|3:2,0:0:0:0:
247,277,156139,2,0,P|201:272|148:266,1,95,10|2,0:0|0:0,0:0:0:0:
83,317,156791,6,0,P|65:266|86:217,1,95,2|2,1:2|0:0,0:0:0:0:
118,154,157443,2,0,L|106:49,1,95,10|2,0:0|0:0,0:0:0:0:
140,32,157933,2,0,P|193:37|249:44,1,95,2|2,0:0|0:0,0:0:0:0:
276,33,158422,1,2,1:2:0:0:
340,91,158748,2,0,L|329:142,2,47.5,2|2|2,1:3|0:3|0:3,0:0:0:0:
378,72,159237,1,2,0:3:0:0:
378,72,159400,6,0,P|428:63|469:88,1,95,6|0,1:2|0:0,0:0:0:0:
493,163,160052,1,10,0:0:0:0:
441,231,160378,2,0,L|338:217,1,95,2|2,0:0|0:0,0:0:0:0:
273,262,161030,2,0,L|282:318,1,47.5,0|2,1:0|0:2,0:0:0:0:
251,340,161356,1,10,0:0:0:0:
169,367,161683,6,0,P|129:354|107:359,1,47.5,2|0,0:0|0:0,0:0:0:0:
83,367,162009,2,0,L|67:261,1,95,2|2,1:2|0:0,0:0:0:0:
34,247,162498,1,2,0:0:0:0:
34,247,162661,1,8,0:0:0:0:
87,180,162987,2,0,L|147:187,1,47.5,2|2,0:0|0:0,0:0:0:0:
169,209,163313,2,0,P|231:189|270:200,1,95,2|2,0:0|1:2,0:0:0:0:
295,215,163802,1,2,0:0:0:0:
295,215,163965,2,0,L|353:204,1,47.5,2|2,1:3|0:3,0:0:0:0:
373,177,164291,2,0,L|436:186,1,47.5,2|2,0:3|0:3,0:0:0:0:
452,211,164617,5,2,1:2:0:0:
