osu file format v14

[General]
AudioFilename: asdsadsad.mp3
AudioLeadIn: 0
PreviewTime: 33959
Countdown: 0
SampleSet: Soft
StackLeniency: 0.2
Mode: 0
LetterboxInBreaks: 0
WidescreenStoryboard: 0

[Editor]
Bookmarks: 32818
DistanceSpacing: 0.1
BeatDivisor: 8
GridSize: 4
TimelineZoom: 1

[Metadata]
Title:Boom Clap
TitleUnicode:Boom Clap
Artist:Charli XCX
ArtistUnicode:Charli XCX
Creator:schoolboy
Version:Expert
Source:The Fault In Our Stars
Tags:komore bakari dailycare kalibe morinaga
BeatmapID:1542345
BeatmapSetID:730792

[Difficulty]
HPDrainRate:6
CircleSize:4.2
OverallDifficulty:8.2
ApproachRate:9.2
SliderMultiplier:1.6
SliderTickRate:1

[Events]
//Background and Video events
0,0,"bggg.jpg",0,0
Video,-1298,"vidya.mp4"
//Break Periods
//Storyboard Layer 0 (Background)
//Storyboard Layer 1 (Fail)
//Storyboard Layer 2 (Pass)
//Storyboard Layer 3 (Foreground)
//Storyboard Sound Samples

[TimingPoints]
270,652.173913043478,4,1,1,60,1,0
2226,-55.5555555555556,4,2,1,60,0,0
2878,-55.5555555555556,4,2,2,50,0,0
4835,-55.5555555555556,4,2,2,70,0,0
5487,-55.5555555555556,4,2,2,50,0,0
7443,-55.5555555555556,4,2,2,70,0,0
8096,-55.5555555555556,4,2,2,50,0,0
10052,-55.5555555555556,4,2,2,70,0,0
10704,-55.5555555555556,4,2,2,50,0,0
12498,-55.5555555555556,4,2,2,30,0,0
12661,-100,4,2,1,70,0,0
13150,-100,4,2,1,5,0,0
13313,-76.9230769230769,4,2,1,55,0,0
21139,-100,4,1,1,45,0,0
23096,-100,4,2,1,45,0,0
23748,-76.9230769230769,4,2,1,55,0,0
31574,-100,4,2,1,45,0,0
32389,-100,4,2,1,5,0,0
32471,-100,4,2,1,45,0,0
34183,-66.6666666666667,4,2,1,75,0,0
35487,-66.6666666666667,4,2,1,75,0,0
37443,-58.8235294117647,4,2,1,75,0,0
37688,-58.8235294117647,4,2,1,25,0,0
37769,-58.8235294117647,4,2,1,75,0,0
38177,-58.8235294117647,4,2,1,25,0,0
38259,-58.8235294117647,4,2,1,75,0,0
39400,-66.6666666666667,4,2,1,75,0,0
40704,-66.6666666666667,4,2,1,75,0,0
41683,-58.8235294117647,4,2,1,75,0,0
42253,-58.8235294117647,4,2,1,25,0,0
42335,-58.8235294117647,4,2,1,75,0,0
43558,-58.8235294117647,4,2,1,25,0,0
43639,-58.8235294117647,4,2,1,75,0,0
44617,-66.6666666666667,4,2,1,75,0,0
45759,-66.6666666666667,4,2,1,75,0,0
47878,-58.8235294117647,4,2,1,75,0,0
48123,-58.8235294117647,4,2,1,25,0,0
48204,-58.8235294117647,4,2,1,75,0,0
48612,-58.8235294117647,4,2,1,25,0,0
48693,-58.8235294117647,4,2,1,75,0,0
49835,-66.6666666666667,4,2,1,75,0,0
52117,-58.8235294117647,4,2,1,75,0,0
52688,-58.8235294117647,4,2,1,25,0,0
52769,-58.8235294117647,4,2,1,75,0,0
53992,-58.8235294117647,4,2,1,25,0,0
54074,-58.8235294117647,4,2,1,75,0,0
55052,-200,4,2,1,50,0,0
55134,-200,4,2,1,25,0,0
56683,-100,4,2,1,35,0,0
57661,-100,4,2,1,40,0,0
58965,-100,4,2,1,43,0,0
59128,-100,4,2,1,45,0,0
59291,-100,4,2,1,47,0,0
59454,-100,4,2,1,50,0,0
60269,-76.9230769230769,4,2,1,45,0,0
68096,-100,4,2,1,45,0,0
70704,-100,4,2,1,55,0,0
70867,-76.9230769230769,4,2,1,55,0,0
78530,-100,4,2,1,55,0,0
81139,-100,4,2,1,43,0,0
91574,-66.6666666666667,4,2,1,75,0,0
94835,-58.8235294117647,4,2,1,75,0,0
95079,-58.8235294117647,4,2,1,25,0,0
95161,-58.8235294117647,4,2,1,75,0,0
95568,-58.8235294117647,4,2,1,25,0,0
95650,-58.8235294117647,4,2,1,75,0,0
96791,-66.6666666666667,4,2,1,75,0,0
99074,-58.8235294117647,4,2,1,75,0,0
99644,-58.8235294117647,4,2,1,25,0,0
99726,-58.8235294117647,4,2,1,75,0,0
100949,-58.8235294117647,4,2,1,25,0,0
101030,-58.8235294117647,4,2,1,75,0,0
102009,-58.8235294117647,4,2,1,50,0,0
102661,-100,4,2,1,30,0,0
108856,-100,4,2,1,20,0,0
109427,-100,4,2,1,30,0,0
120269,-100,4,2,1,35,0,0
120514,-100,4,2,1,25,0,0
120759,-100,4,2,1,17,0,0
121248,-83.3333333333333,4,2,1,20,0,0
122226,-83.3333333333333,4,2,1,50,0,0
122878,-66.6666666666667,4,2,1,75,0,0
126139,-58.8235294117647,4,2,1,75,0,0
126384,-58.8235294117647,4,2,1,25,0,0
126465,-58.8235294117647,4,2,1,75,0,0
126873,-58.8235294117647,4,2,1,25,0,0
126954,-58.8235294117647,4,2,1,75,0,0
128096,-66.6666666666667,4,2,1,75,0,0
130378,-58.8235294117647,4,2,1,75,0,0
130949,-58.8235294117647,4,2,1,25,0,0
131030,-58.8235294117647,4,2,1,75,0,0
132253,-58.8235294117647,4,2,1,25,0,0
132335,-58.8235294117647,4,2,1,75,0,0
133313,-66.6666666666667,4,2,1,75,0,0
136574,-58.8235294117647,4,2,1,75,0,0
136818,-58.8235294117647,4,2,1,25,0,0
136900,-58.8235294117647,4,2,1,75,0,0
137308,-58.8235294117647,4,2,1,25,0,0
137389,-58.8235294117647,4,2,1,75,0,0
138530,-66.6666666666667,4,2,1,75,0,0
140813,-58.8235294117647,4,2,1,75,0,0
141384,-58.8235294117647,4,2,1,25,0,0
141465,-58.8235294117647,4,2,1,75,0,0
142688,-58.8235294117647,4,2,1,25,0,0
142769,-58.8235294117647,4,2,1,75,0,0
143748,-66.6666666666667,4,2,1,84,0,0
147009,-58.8235294117647,4,2,1,84,0,0
147253,-58.8235294117647,4,2,1,25,0,0
147335,-58.8235294117647,4,2,1,84,0,0
147742,-58.8235294117647,4,2,1,25,0,0
147824,-58.8235294117647,4,2,1,84,0,0
148965,-66.6666666666667,4,2,1,84,0,0
151248,-58.8235294117647,4,2,1,84,0,0
151818,-58.8235294117647,4,2,1,25,0,0
151900,-58.8235294117647,4,2,1,84,0,0
153123,-58.8235294117647,4,2,1,25,0,0
153204,-58.8235294117647,4,2,1,84,0,0
154183,-66.6666666666667,4,2,1,84,0,0
157443,-58.8235294117647,4,2,1,84,0,0
157688,-58.8235294117647,4,2,1,25,0,0
157769,-58.8235294117647,4,2,1,84,0,0
158177,-58.8235294117647,4,2,1,25,0,0
158259,-58.8235294117647,4,2,1,84,0,0
159400,-66.6666666666667,4,2,1,84,0,0
161683,-58.8235294117647,4,2,1,84,0,0
162253,-58.8235294117647,4,2,1,25,0,0
162335,-58.8235294117647,4,2,1,84,0,0
163558,-58.8235294117647,4,2,1,25,0,0
163639,-58.8235294117647,4,2,1,84,0,0
164617,-58.8235294117647,4,2,1,52,0,0

[Colours]
Combo1 : 225,225,225
Combo2 : 151,221,255
Combo3 : 236,213,168
Combo4 : 191,240,200

[HitObjects]
285,212,270,6,0,B|368:190|353:253|442:231,2,160,2|2|2,0:0|0:0|0:0,0:0:0:0:
285,212,2226,6,0,P|270:253|270:188,1,215.999993408203,12|0,0:0|0:0,0:0:0:0:
258,181,2878,5,2,1:2:0:0:
343,142,3041,1,0,0:0:0:0:
381,228,3204,1,0,0:0:0:0:
296,266,3367,1,0,0:0:0:0:
162,187,3530,5,8,0:0:0:0:
178,94,3693,1,0,0:0:0:0:
149,182,3856,1,0,0:0:0:0:
192,99,4019,1,0,0:0:0:0:
215,248,4183,6,0,P|182:270|138:274,1,71.9999978027344,0|0,0:0|0:0,0:0:0:0:
1,160,4509,2,0,P|63:170|94:210,1,71.9999978027344,0|0,1:0|0:0,0:0:0:0:
17,254,4835,5,8,0:0:0:0:
149,182,4998,1,0,0:0:0:0:
26,82,5161,1,0,0:0:0:0:
68,174,5324,1,0,0:0:0:0:
175,318,5487,5,2,1:2:0:0:
268,308,5650,1,0,0:0:0:0:
361,299,5813,1,0,0:0:0:0:
453,285,5976,1,0,0:0:0:0:
311,214,6139,5,8,0:0:0:0:
417,114,6302,1,0,0:0:0:0:
325,73,6465,1,0,0:0:0:0:
410,203,6628,1,0,0:0:0:0:
512,87,6791,6,0,P|506:47|485:8,1,71.9999978027344,0|0,0:0|0:0,0:0:0:0:
410,203,7117,2,0,P|446:210|502:223,1,71.9999978027344,0|0,1:0|0:0,0:0:0:0:
421,80,7443,5,2,0:3:0:0:
335,281,7606,1,2,0:3:0:0:
421,80,7769,1,2,0:3:0:0:
335,281,7933,1,2,0:3:0:0:
281,158,8096,5,2,1:2:0:0:
209,113,8259,1,0,0:0:0:0:
212,98,8422,5,0,0:0:0:0:
140,143,8585,1,0,0:0:0:0:
39,78,8748,5,8,0:0:0:0:
2,164,8911,1,0,0:0:0:0:
39,251,9074,1,0,0:0:0:0:
0,336,9237,1,0,0:0:0:0:
151,314,9400,6,0,L|164:384,1,71.9999978027344,0|0,0:0|0:0,0:0:0:0:
387,302,9726,2,0,P|358:279|288:285,1,71.9999978027344,0|0,1:2|0:0,0:0:0:0:
254,350,10052,5,8,0:0:0:0:
191,187,10215,1,0,0:0:0:0:
324,273,10378,1,0,0:0:0:0:
151,314,10541,1,0,0:0:0:0:
317,160,10704,5,2,1:2:0:0:
293,69,10867,1,0,0:0:0:0:
384,48,11030,1,0,0:0:0:0:
195,224,11356,5,2,1:2:0:0:
219,315,11519,1,0,0:0:0:0:
128,336,11682,1,0,0:0:0:0:
324,22,12009,5,2,1:2:0:0:
249,78,12172,1,0,0:0:0:0:
157,60,12335,1,0,0:0:0:0:
252,87,12498,1,0,0:0:0:0:
252,87,12661,6,0,P|267:141|287:212,1,120,8|0,0:0|0:0,0:0:0:0:
283,226,13313,5,2,1:2:0:0:
181,138,13639,2,0,L|112:154,1,51.999997619629,2|0,0:0|0:0,0:0:0:0:
25,55,13965,2,0,P|77:41|120:89,1,103.999995239258,10|0,0:0|0:0,0:0:0:0:
88,235,14617,2,0,P|36:249|-7:201,1,103.999995239258,2|0,0:0|1:2,0:0:0:0:
229,156,15269,2,0,B|316:145|287:211|401:193,1,155.999992858887,10|0,0:0|0:0,0:0:0:0:
398,181,15922,5,2,1:2:0:0:
299,363,16248,2,0,P|287:332|302:297,1,51.999997619629,2|0,0:0|0:0,0:0:0:0:
373,268,16574,2,0,P|423:287|490:307,1,103.999995239258,10|0,0:0|0:0,0:0:0:0:
200,387,17226,2,0,P|184:325|229:281,1,103.999995239258,2|0,0:0|1:0,0:0:0:0:
329,86,17878,5,2,1:3:0:0:
186,137,18041,1,2,0:3:0:0:
314,233,18204,1,2,0:3:0:0:
241,32,18367,1,2,0:3:0:0:
102,191,18530,5,2,1:2:0:0:
102,191,18856,2,0,L|87:254,1,51.999997619629,2|0,0:0|0:0,0:0:0:0:
6,187,19183,1,10,0:0:0:0:
130,110,19346,1,2,0:0:0:0:
46,43,19509,1,2,0:0:0:0:
55,66,19672,1,2,0:0:0:0:
197,204,19835,6,0,P|263:210|307:166,1,103.999995239258,2|0,0:0|1:2,0:0:0:0:
416,113,20324,1,2,0:0:0:0:
407,106,20487,2,0,L|391:172,1,51.999997619629,10|0,0:0|0:0,0:0:0:0:
273,50,20813,2,0,L|257:116,1,51.999997619629,2|0,0:0|0:0,0:0:0:0:
330,334,21139,6,0,P|377:292|469:320,2,160,2|2|2,1:0|0:0|0:0,0:0:0:0:
58,222,22769,1,0,0:0:0:0:
58,222,23096,2,0,L|48:265,1,40,8|0,0:0|0:0,0:0:0:0:
123,309,23422,2,0,L|133:266,1,40,0|0,0:0|0:0,0:0:0:0:
34,348,23748,5,2,1:2:0:0:
264,231,24074,2,0,L|338:249,1,51.999997619629,2|0,0:0|0:0,0:0:0:0:
420,130,24400,2,0,P|376:146|320:159,1,103.999995239258,10|0,0:0|0:0,0:0:0:0:
183,311,25052,2,0,P|229:338|284:325,1,103.999995239258,2|0,0:0|1:2,0:0:0:0:
159,121,25704,2,0,B|75:127|102:184|16:188,1,155.999992858887,10|0,0:0|0:0,0:0:0:0:
9,172,26356,5,2,1:2:0:0:
159,325,26683,2,0,L|149:263,1,51.999997619629,2|0,0:0|0:0,0:0:0:0:
221,208,27009,2,0,P|248:228|240:307,1,103.999995239258,10|0,0:0|0:0,0:0:0:0:
71,371,27661,2,0,P|36:336|41:286,1,103.999995239258,2|0,0:0|1:0,0:0:0:0:
134,125,28313,5,2,1:3:0:0:
232,205,28476,1,2,0:3:0:0:
285,83,28639,1,2,0:3:0:0:
108,214,28802,1,2,0:3:0:0:
307,296,28965,5,2,1:2:0:0:
327,289,29128,1,2,0:0:0:0:
414,246,29291,2,0,P|443:252|482:262,1,51.999997619629,2|0,0:0|0:0,0:0:0:0:
334,177,29617,1,10,0:0:0:0:
403,114,29780,1,2,0:0:0:0:
296,36,29943,2,0,P|300:66|306:108,1,51.999997619629,2|2,0:0|0:0,0:0:0:0:
193,196,30269,6,0,P|132:211|88:181,1,103.999995239258,2|0,0:0|1:2,0:0:0:0:
14,108,30759,1,2,0:0:0:0:
21,119,30922,2,0,L|85:105,1,51.999997619629,10|0,0:0|0:0,0:0:0:0:
107,283,31248,2,0,L|43:297,1,51.999997619629,2|0,0:0|0:0,0:0:0:0:
205,173,31574,6,0,B|310:144|296:230|403:194,1,200,2|0,0:0|0:0,0:0:0:0:
472,146,32552,1,2,0:0:0:0:
472,146,32715,1,2,0:0:0:0:
472,146,32878,2,0,P|484:219|471:247,1,80,2|0,0:0|0:0,0:0:0:0:
330,341,33530,2,0,P|315:303|319:264,1,80,2|0,0:0|0:0,0:0:0:0:
17,119,34183,6,0,B|111:130|94:62|186:80,1,180.000006866455,6|0,1:2|0:0,0:0:0:0:
411,146,34835,2,0,P|437:94|381:40,1,120.000004577637,10|0,0:0|0:0,0:0:0:0:
290,186,35324,1,2,0:0:0:0:
290,186,35487,6,0,L|304:294,1,60.0000022888184,2|0,0:0|0:0,0:0:0:0:
240,328,35813,1,0,1:0:0:0:
398,251,35976,1,2,3:2:0:0:
155,171,36139,2,0,P|97:187|39:198,1,120.000004577637,10|2,0:0|0:0,0:0:0:0:
278,58,36791,5,2,1:2:0:0:
223,245,37117,1,2,0:0:0:0:
487,208,37443,6,0,P|434:197|371:186,1,102.000001945496,10|0,0:0|0:0,0:0:0:0:
370,201,37769,1,2,0:0:0:0:
224,358,37933,2,0,P|285:372|325:345,1,102.000001945496,2|0,0:0|0:0,0:0:0:0:
336,335,38259,5,2,0:0:0:0:
194,230,38422,1,2,1:2:0:0:
73,362,38585,1,2,0:0:0:0:
271,281,38748,5,2,1:3:0:0:
328,168,38911,1,2,0:3:0:0:
218,47,39074,1,2,0:3:0:0:
39,85,39237,1,2,0:3:0:0:
271,281,39400,6,0,B|337:247|337:247|387:244|412:287|401:322,1,180.000006866455,6|0,1:2|0:0,0:0:0:0:
512,143,40052,2,0,P|466:181|392:162,1,120.000004577637,10|0,0:0|0:0,0:0:0:0:
259,70,40541,1,2,0:0:0:0:
259,70,40704,6,0,L|249:145,1,60.0000022888184,2|0,0:0|0:0,0:0:0:0:
356,68,41030,1,0,1:0:0:0:
158,138,41193,1,2,0:2:0:0:
311,245,41356,1,10,0:0:0:0:
311,245,41683,6,0,P|303:279|295:319,1,68.0000012969971,2|0,0:0|0:0,0:0:0:0:
478,367,42009,2,0,P|436:326|369:334,1,102.000001945496,2|0,1:2|0:0,0:0:0:0:
377,334,42335,1,2,0:0:0:0:
450,176,42498,1,2,0:0:0:0:
450,176,42661,2,0,P|469:210|461:248,1,68.0000012969971,8|0,0:0|0:0,0:0:0:0:
209,373,42987,6,0,P|214:337|225:302,1,68.0000012969971,2|2,0:0|0:0,0:0:0:0:
111,182,43313,2,0,P|120:232|129:282,1,102.000001945496,2|0,0:0|0:0,0:0:0:0:
122,301,43639,1,2,1:2:0:0:
277,224,43802,1,2,0:0:0:0:
196,166,43965,5,2,1:3:0:0:
336,138,44128,1,2,0:3:0:0:
363,278,44291,1,2,0:3:0:0:
223,306,44454,1,2,0:3:0:0:
448,194,44617,6,0,P|512:252|474:344,1,180.000006866455,6|0,1:2|0:0,0:0:0:0:
315,194,45269,2,0,P|325:133|338:57,1,120.000004577637,10|0,0:0|0:0,0:0:0:0:
429,275,45759,1,2,0:0:0:0:
429,275,45922,6,0,P|396:281|353:293,1,60.0000022888184,2|0,0:0|0:0,0:0:0:0:
231,164,46248,1,0,1:0:0:0:
383,196,46411,1,2,3:2:0:0:
246,310,46574,2,0,P|190:325|138:297,1,120.000004577637,10|2,0:0|0:0,0:0:0:0:
54,97,47226,5,2,1:2:0:0:
274,158,47552,1,2,0:0:0:0:
63,364,47878,6,0,P|55:308|44:240,1,102.000001945496,10|0,0:0|0:0,0:0:0:0:
32,249,48204,1,2,0:0:0:0:
153,113,48367,2,0,P|179:142|161:216,1,102.000001945496,2|0,0:0|0:0,0:0:0:0:
153,219,48693,5,2,0:0:0:0:
55,122,48856,1,2,1:2:0:0:
196,22,49019,1,2,0:0:0:0:
262,227,49183,5,2,1:3:0:0:
505,132,49346,1,2,0:3:0:0:
329,21,49509,1,2,0:3:0:0:
369,266,49672,1,2,0:3:0:0:
512,367,49835,6,0,B|454:339|454:339|408:391|336:374,1,180.000006866455,6|0,1:2|0:0,0:0:0:0:
153,258,50487,2,0,L|180:396,1,120.000004577637,10|0,0:0|0:0,0:0:0:0:
339,265,50976,1,2,0:0:0:0:
339,265,51139,6,0,P|306:258|269:250,1,60.0000022888184,2|0,0:0|0:0,0:0:0:0:
242,341,51465,1,0,1:0:0:0:
433,275,51628,1,2,0:2:0:0:
258,155,51791,1,10,0:0:0:0:
258,155,52117,6,0,P|294:151|347:145,1,68.0000012969971,2|0,0:0|0:0,0:0:0:0:
444,38,52443,2,0,P|396:22|351:43,1,102.000001945496,2|0,1:2|0:0,0:0:0:0:
342,62,52769,1,2,0:0:0:0:
416,186,52933,1,2,0:0:0:0:
416,186,53096,2,0,P|426:149|403:109,1,68.0000012969971,8|0,0:0|0:0,0:0:0:0:
288,311,53422,6,0,P|322:308|356:314,1,68.0000012969971,2|2,0:0|0:0,0:0:0:0:
254,212,53748,2,0,P|200:234|141:210,1,102.000001945496,2|0,0:0|0:0,0:0:0:0:
144,209,54074,1,2,1:2:0:0:
15,315,54237,1,2,0:0:0:0:
124,369,54400,5,2,1:3:0:0:
65,241,54563,1,2,0:3:0:0:
187,121,54726,1,2,0:3:0:0:
0,27,54889,1,2,0:3:0:0:
65,88,55052,6,0,L|61:108,8,20,6|0|0|0|0|0|0|0|0,1:2|0:0|0:0|0:0|0:0|0:0|0:0|0:0|0:0,0:0:0:0:
213,259,56519,5,2,0:0:0:0:
262,206,56683,2,0,L|253:155,5,40,0|0|0|0|0|0,0:0|0:0|0:0|0:0|0:0|0:0,0:0:0:0:
333,99,57661,5,0,0:0:0:0:
336,100,57824,1,0,0:0:0:0:
339,101,57987,1,0,0:0:0:0:
342,102,58150,1,0,0:0:0:0:
345,103,58313,1,0,0:0:0:0:
348,104,58476,1,0,0:0:0:0:
351,105,58639,1,0,0:0:0:0:
354,106,58802,1,0,0:0:0:0:
357,107,58965,1,0,0:0:0:0:
370,111,59128,5,0,0:0:0:0:
383,113,59291,5,0,0:0:0:0:
398,114,59454,5,0,0:0:0:0:
417,117,59617,5,2,0:3:0:0:
419,194,59780,5,2,0:3:0:0:
361,256,59943,5,2,0:3:0:0:
272,246,60106,5,2,0:3:0:0:
220,156,60269,5,2,0:2:0:0:
80,73,60596,2,0,P|54:81|25:89,1,51.999997619629,2|0,0:0|0:0,0:0:0:0:
27,182,60922,2,0,P|67:190|120:149,1,103.999995239258,8|2,0:3|0:0,0:0:0:0:
289,58,61411,1,0,0:0:0:0:
289,58,61574,2,0,P|233:30|189:53,1,103.999995239258,2|2,0:0|0:0,0:0:0:0:
265,221,62063,1,0,0:0:0:0:
265,221,62226,2,0,B|347:234|334:174|412:190,1,155.999992858887,2|0,0:0|0:0,0:0:0:0:
431,207,62878,5,2,0:0:0:0:
340,49,63204,2,0,P|349:10|357:-8,1,51.999997619629,2|0,0:0|0:0,0:0:0:0:
246,81,63530,2,0,P|189:88|148:51,1,103.999995239258,2|2,0:0|0:0,0:0:0:0:
26,203,64019,1,0,0:0:0:0:
26,203,64183,2,0,P|80:196|130:189,1,103.999995239258,2|2,0:0|0:0,0:0:0:0:
197,243,64672,1,0,0:0:0:0:
121,341,64835,5,2,0:3:0:0:
205,253,64998,1,2,0:3:0:0:
340,237,65161,1,2,0:3:0:0:
445,352,65324,1,2,0:3:0:0:
309,322,65487,5,2,0:0:0:0:
426,198,65813,2,0,P|421:170|413:129,1,51.999997619629,2|0,0:0|0:0,0:0:0:0:
342,105,66139,1,8,0:3:0:0:
504,180,66302,1,2,0:0:0:0:
384,272,66465,1,2,0:0:0:0:
363,264,66628,1,2,0:0:0:0:
306,377,66791,6,0,P|298:323|289:267,1,103.999995239258,2|2,0:0|0:0,0:0:0:0:
158,176,67280,1,0,0:0:0:0:
158,176,67443,2,0,P|131:207|151:272,1,103.999995239258,2|2,0:0|0:0,0:0:0:0:
311,351,68096,6,0,B|403:331|376:393|486:365,1,160,2|0,0:0|0:0,0:0:0:0:
344,186,69074,2,0,P|338:207|332:233,1,40,2|0,0:0|0:0,0:0:0:0:
257,281,69400,2,0,P|198:298|151:264,1,120,2|0,0:0|0:0,0:0:0:0:
86,187,70052,5,2,0:3:0:0:
48,331,70215,1,2,0:3:0:0:
92,172,70378,1,2,0:3:0:0:
41,343,70541,1,2,0:3:0:0:
9,98,70704,5,2,1:2:0:0:
175,205,71030,2,0,P|204:197|226:192,1,51.999997619629,2|0,0:0|0:0,0:0:0:0:
310,139,71356,2,0,P|374:155|425:156,1,103.999995239258,10|0,0:0|0:0,0:0:0:0:
237,25,71846,1,0,0:0:0:0:
237,25,72009,2,0,P|203:64|223:127,1,103.999995239258,2|0,0:0|1:2,0:0:0:0:
304,246,72498,1,0,0:0:0:0:
304,246,72661,2,0,B|394:214|374:277|459:247,1,155.999992858887,10|0,0:0|0:0,0:0:0:0:
479,234,73313,5,2,1:2:0:0:
349,384,73639,2,0,P|343:352|340:328,1,51.999997619629,2|0,0:0|0:0,0:0:0:0:
261,273,73965,2,0,P|232:305|249:367,1,103.999995239258,10|0,0:0|0:0,0:0:0:0:
398,241,74454,1,0,0:0:0:0:
398,241,74617,2,0,P|390:190|380:132,1,103.999995239258,2|0,0:0|1:0,0:0:0:0:
311,86,75106,1,0,0:0:0:0:
486,168,75269,5,2,1:3:0:0:
312,227,75433,1,2,0:3:0:0:
200,186,75596,1,2,0:3:0:0:
116,226,75759,1,2,0:3:0:0:
51,188,75922,5,2,1:2:0:0:
197,368,76248,2,0,P|205:328|197:304,1,51.999997619629,2|0,0:0|0:0,0:0:0:0:
129,260,76574,1,10,0:0:0:0:
301,318,76737,1,2,0:0:0:0:
111,370,76900,1,2,0:0:0:0:
223,214,77063,1,2,0:0:0:0:
99,109,77226,6,0,P|47:123|-23:132,1,103.999995239258,2|0,0:0|1:2,0:0:0:0:
141,260,77715,1,2,0:0:0:0:
141,260,77878,2,0,P|190:281|250:258,1,103.999995239258,10|2,0:0|0:0,0:0:0:0:
403,50,78530,6,0,P|392:109|382:168,1,120,2|0,1:2|0:0,0:0:0:0:
432,241,79183,1,8,0:0:0:0:
249,153,79509,2,0,P|276:148|299:144,1,40,0|0,0:0|0:0,0:0:0:0:
290,230,79835,5,2,0:0:0:0:
84,110,80161,1,2,1:2:0:0:
386,4,80487,5,2,1:3:0:0:
366,78,80650,1,2,0:3:0:0:
406,144,80813,1,2,0:3:0:0:
386,218,80976,1,2,0:3:0:0:
200,363,81139,6,0,P|196:323|182:250,1,80,6|0,0:0|0:0,0:0:0:0:
375,138,81791,2,0,P|379:178|393:251,1,80,2|0,0:0|0:0,0:0:0:0:
437,286,82280,2,0,P|400:313|364:297,1,80,2|0,0:0|0:0,0:0:0:0:
293,269,82769,2,0,P|270:273|242:279,1,40,2|0,0:0|0:0,0:0:0:0:
186,329,83096,1,2,0:0:0:0:
147,156,83422,1,2,0:0:0:0:
337,118,83748,6,0,P|344:154|356:207,1,80,2|0,0:0|0:0,0:0:0:0:
458,337,84400,2,0,P|476:283|444:249,1,80,2|0,0:0|0:0,0:0:0:0:
383,288,84889,1,2,0:0:0:0:
383,288,85215,1,2,0:0:0:0:
312,332,85378,2,0,L|267:322,1,40,2|0,0:0|0:0,0:0:0:0:
204,372,85704,1,2,0:0:0:0:
87,273,86030,1,2,0:0:0:0:
198,162,86356,6,0,P|203:199|209:247,1,80,2|0,0:0|0:0,0:0:0:0:
387,179,87009,2,0,P|343:151|308:164,1,80,2|0,0:0|0:0,0:0:0:0:
273,297,87498,2,0,P|302:322|341:319,1,80,2|0,0:0|0:0,0:0:0:0:
330,238,87987,1,2,0:0:0:0:
330,238,88313,2,0,L|232:259,1,80,2|0,0:0|0:0,0:0:0:0:
180,199,88802,5,2,0:0:0:0:
180,199,88965,2,0,P|170:154|192:119,1,80,2|0,0:0|0:0,0:0:0:0:
262,216,89454,2,0,L|248:266,1,40,2|0,0:0|0:0,0:0:0:0:
484,307,89943,5,2,0:0:0:0:
484,307,90106,1,0,0:0:0:0:
484,307,90269,2,0,P|433:272|394:296,1,80,2|0,0:0|0:0,0:0:0:0:
348,327,90759,2,0,L|359:376,1,40,2|0,0:0|0:0,0:0:0:0:
417,169,91248,5,2,0:0:0:0:
417,169,91574,6,0,P|445:111|369:35,1,180.000006866455,6|0,1:2|0:0,0:0:0:0:
275,245,92226,2,0,P|334:255|422:276,1,120.000004577637,10|0,0:0|0:0,0:0:0:0:
235,134,92715,1,2,0:0:0:0:
235,134,92878,6,0,P|203:139|160:149,1,60.0000022888184,2|0,0:0|0:0,0:0:0:0:
118,72,93204,1,0,1:0:0:0:
320,162,93367,1,2,3:2:0:0:
166,269,93530,2,0,P|140:210|177:158,1,120.000004577637,10|2,0:0|0:0,0:0:0:0:
395,68,94183,5,2,1:2:0:0:
346,330,94509,1,2,0:0:0:0:
126,237,94835,6,0,P|185:198|234:216,1,102.000001945496,10|0,0:0|0:0,0:0:0:0:
228,215,95161,1,2,0:0:0:0:
424,136,95324,2,0,P|361:152|317:109,1,102.000001945496,2|0,0:0|0:0,0:0:0:0:
312,115,95650,5,2,0:0:0:0:
391,227,95813,1,2,1:2:0:0:
280,343,95976,1,2,0:0:0:0:
471,289,96139,5,2,1:3:0:0:
297,228,96302,1,2,0:3:0:0:
484,149,96465,1,2,0:3:0:0:
276,48,96628,1,2,0:3:0:0:
116,155,96791,6,0,B|-6:178|-6:178|35:187|43:215,1,180.000006866455,6|0,1:2|0:0,0:0:0:0:
172,334,97443,2,0,P|192:282|148:228,1,120.000004577637,10|0,0:0|0:0,0:0:0:0:
83,324,97933,1,2,0:0:0:0:
83,324,98096,6,0,L|95:403,1,60.0000022888184,2|0,0:0|0:0,0:0:0:0:
172,334,98422,1,0,1:0:0:0:
18,256,98585,1,2,0:2:0:0:
199,167,98748,1,10,0:0:0:0:
199,167,99074,6,0,L|188:99,1,68.0000012969971,2|0,0:0|0:0,0:0:0:0:
290,0,99400,2,0,P|323:25|309:93,1,102.000001945496,2|0,1:2|0:0,0:0:0:0:
306,96,99726,1,2,0:0:0:0:
145,28,99889,1,2,0:0:0:0:
145,28,100052,2,0,L|231:11,1,68.0000012969971,8|0,0:0|0:0,0:0:0:0:
350,176,100378,6,0,P|343:209|336:242,1,68.0000012969971,2|2,0:0|0:0,0:0:0:0:
457,353,100704,2,0,P|467:304|433:269,1,102.000001945496,2|0,0:0|0:0,0:0:0:0:
413,267,101030,1,2,1:2:0:0:
287,363,101193,1,2,0:0:0:0:
375,348,101356,5,2,1:3:0:0:
283,239,101519,1,2,0:3:0:0:
169,209,101683,1,2,0:3:0:0:
78,252,101846,1,2,0:3:0:0:
35,328,102009,5,6,0:0:0:0:
244,109,102661,1,2,0:0:0:0:
242,105,102824,1,2,0:0:0:0:
240,101,102987,1,2,0:0:0:0:
238,97,103150,1,2,0:0:0:0:
236,93,103313,1,2,0:0:0:0:
452,216,103965,5,0,0:0:0:0:
452,216,104291,2,0,L|443:259,1,40,2|0,0:0|0:0,0:0:0:0:
463,342,104617,6,0,P|418:347|389:326,1,80,2|2,0:0|0:0,0:0:0:0:
324,275,105106,1,0,0:0:0:0:
324,275,105269,2,0,P|285:268|251:288,1,80,2|2,0:0|0:0,0:0:0:0:
185,346,105759,1,0,0:0:0:0:
185,346,105922,2,0,P|146:342|101:338,1,80,2|2,0:0|0:0,0:0:0:0:
40,279,106411,1,0,0:0:0:0:
40,279,106574,2,0,P|76:253|117:254,2,80,2|2|2,0:0|0:0|0:0,0:0:0:0:
276,141,107878,5,2,0:0:0:0:
279,142,108041,1,2,0:0:0:0:
282,143,108204,1,2,0:0:0:0:
285,144,108367,1,2,0:0:0:0:
288,145,108530,1,2,0:0:0:0:
490,114,108856,5,2,0:0:0:0:
488,117,109019,1,2,0:0:0:0:
486,120,109183,1,2,0:0:0:0:
484,123,109346,1,2,0:0:0:0:
482,126,109509,2,0,L|491:170,1,40,2|0,0:0|0:0,0:0:0:0:
426,226,109835,6,0,L|349:208,1,80,2|2,0:0|0:0,0:0:0:0:
284,153,110324,1,0,0:0:0:0:
284,153,110487,2,0,L|194:165,1,80,2|2,0:0|0:0,0:0:0:0:
136,213,110976,1,0,0:0:0:0:
136,213,111139,2,0,P|121:164|141:115,1,80,2|2,0:0|0:0,0:0:0:0:
194,279,111628,1,0,0:0:0:0:
194,279,111791,2,0,P|150:257|85:303,1,120,2|2,0:0|0:0,0:0:0:0:
150,360,112443,5,6,1:2:0:0:
342,199,113096,1,2,0:0:0:0:
341,195,113259,1,2,0:0:0:0:
340,191,113422,1,2,0:0:0:0:
339,187,113585,1,2,0:0:0:0:
338,183,113748,1,2,0:0:0:0:
472,279,114074,5,2,1:2:0:0:
296,358,114400,1,0,0:0:0:0:
296,358,114726,2,0,L|304:303,1,40,2|0,0:0|0:0,0:0:0:0:
208,288,115052,6,0,L|222:369,1,80,2|2,1:2|0:0,0:0:0:0:
301,318,115541,1,0,0:0:0:0:
301,318,115704,2,0,L|287:237,1,80,2|2,0:0|0:0,0:0:0:0:
356,184,116193,1,0,0:0:0:0:
356,184,116356,2,0,P|399:176|433:208,1,80,2|2,0:0|1:2,0:0:0:0:
481,258,116846,1,0,0:0:0:0:
481,258,117009,2,0,P|446:283|398:269,2,80,2|2|2,0:0|0:0|1:2,0:0:0:0:
202,158,118313,5,2,0:0:0:0:
198,158,118476,1,2,0:0:0:0:
194,158,118639,1,2,0:0:0:0:
190,158,118802,1,2,0:0:0:0:
186,159,118965,1,2,0:0:0:0:
124,111,119128,5,2,0:0:0:0:
184,54,119291,2,0,L|232:60,1,40,2|0,0:0|0:0,0:0:0:0:
325,140,119617,1,2,0:0:0:0:
374,82,119780,1,2,0:0:0:0:
449,94,119943,1,2,0:0:0:0:
454,109,120106,1,2,0:0:0:0:
409,206,120269,5,2,0:0:0:0:
331,254,120433,1,2,0:0:0:0:
234,218,120596,1,2,0:0:0:0:
343,265,120759,5,2,0:0:0:0:
221,346,120922,1,2,0:0:0:0:
221,346,121248,6,0,B|178:293|191:192|272:201|277:268|233:278,1,191.999994140625
221,346,122226,6,0,P|137:297|71:324,1,143.999995605469,2|2,0:0|0:0,0:0:0:0:
0,256,122878,6,0,B|112:270|112:270|147:243|125:193,1,180.000006866455,6|0,1:2|0:0,0:0:0:0:
32,28,123530,2,0,P|41:77|55:152,1,120.000004577637,10|0,0:0|0:0,0:0:0:0:
245,86,124019,1,2,0:0:0:0:
245,86,124183,6,0,L|182:76,1,60.0000022888184,2|0,0:0|0:0,0:0:0:0:
204,168,124509,1,0,1:0:0:0:
122,12,124672,1,2,3:2:0:0:
342,96,124835,2,0,P|403:103|454:54,1,120.000004577637,10|2,0:0|0:0,0:0:0:0:
222,8,125487,5,2,1:2:0:0:
254,199,125813,1,2,0:0:0:0:
462,303,126139,6,0,P|412:314|363:328,1,102.000001945496,10|0,0:0|0:0,0:0:0:0:
350,343,126465,1,2,0:0:0:0:
198,227,126628,2,0,P|249:215|292:251,1,102.000001945496,2|0,0:0|0:0,0:0:0:0:
294,268,126954,5,2,0:0:0:0:
180,337,127117,1,2,1:2:0:0:
76,260,127280,1,2,0:0:0:0:
148,127,127443,5,2,1:3:0:0:
86,353,127606,1,2,0:3:0:0:
37,82,127769,1,2,0:3:0:0:
178,247,127933,1,2,0:3:0:0:
300,80,128096,6,0,B|403:62|369:136|486:112,1,180.000006866455,6|0,1:2|0:0,0:0:0:0:
321,269,128748,2,0,P|293:227|326:163,1,120.000004577637,10|0,0:0|0:0,0:0:0:0:
428,278,129237,1,2,0:0:0:0:
428,278,129400,6,0,P|421:310|415:342,1,60.0000022888184,2|0,0:0|0:0,0:0:0:0:
502,196,129726,1,0,1:0:0:0:
321,269,129889,1,2,0:2:0:0:
503,384,130052,1,10,0:0:0:0:
503,384,130378,6,0,P|508:346|519:303,1,68.0000012969971,2|0,0:0|0:0,0:0:0:0:
395,202,130704,2,0,P|402:243|413:312,1,102.000001945496,2|0,1:2|0:0,0:0:0:0:
400,320,131030,1,2,0:0:0:0:
245,356,131193,1,2,0:0:0:0:
245,356,131356,2,0,P|284:340|317:344,1,68.0000012969971,8|0,0:0|0:0,0:0:0:0:
201,261,131683,6,0,P|166:254|128:246,1,68.0000012969971,2|2,0:0|0:0,0:0:0:0:
10,336,132009,2,0,P|51:362|100:351,1,102.000001945496,2|0,0:0|0:0,0:0:0:0:
116,338,132335,1,2,1:2:0:0:
94,161,132498,1,2,0:0:0:0:
61,247,132661,5,2,1:3:0:0:
6,129,132824,1,2,0:3:0:0:
123,75,132987,1,2,0:3:0:0:
178,192,133150,1,2,0:3:0:0:
371,339,133313,6,0,P|384:250|408:163,1,180.000006866455,6|0,1:2|0:0,0:0:0:0:
283,19,133965,2,0,P|249:53|278:145,1,120.000004577637,10|0,0:0|0:0,0:0:0:0:
447,86,134454,1,2,0:0:0:0:
447,86,134617,6,0,P|416:78|376:69,1,60.0000022888184,2|0,0:0|0:0,0:0:0:0:
249,216,134943,1,0,1:0:0:0:
395,166,135106,1,2,3:2:0:0:
283,19,135269,2,0,P|290:71|302:150,1,120.000004577637,10|2,0:0|0:0,0:0:0:0:
133,342,135922,5,2,1:2:0:0:
188,98,136248,1,2,0:0:0:0:
15,262,136574,6,0,P|80:224|112:236,1,102.000001945496,10|0,0:0|0:0,0:0:0:0:
115,244,136900,1,2,0:0:0:0:
279,352,137063,2,0,P|232:364|183:316,1,102.000001945496,2|0,0:0|0:0,0:0:0:0:
181,309,137389,5,2,0:0:0:0:
321,256,137552,1,2,1:2:0:0:
408,383,137715,1,2,0:0:0:0:
230,237,137878,5,2,1:3:0:0:
420,125,138041,1,2,0:3:0:0:
309,36,138204,1,2,0:3:0:0:
407,252,138367,1,2,0:3:0:0:
170,125,138530,6,0,P|106:116|44:206,1,180.000006866455,6|0,1:2|0:0,0:0:0:0:
278,117,139183,2,0,P|266:52|254:-11,1,120.000004577637,10|0,0:0|0:0,0:0:0:0:
170,125,139672,1,2,0:0:0:0:
170,125,139835,6,0,P|155:159|156:202,1,60.0000022888184,2|0,0:0|0:0,0:0:0:0:
220,245,140161,1,0,1:0:0:0:
59,158,140324,1,2,0:2:0:0:
227,54,140487,1,10,0:0:0:0:
227,54,140813,6,0,L|236:124,1,68.0000012969971,2|0,0:0|0:0,0:0:0:0:
369,218,141139,2,0,P|390:155|350:108,1,102.000001945496,2|0,1:2|0:0,0:0:0:0:
358,115,141465,1,2,0:0:0:0:
266,230,141628,1,2,0:0:0:0:
266,230,141791,2,0,L|276:302,1,68.0000012969971,8|0,0:0|0:0,0:0:0:0:
82,371,142117,6,0,P|86:322|103:303,1,68.0000012969971,2|2,0:0|0:0,0:0:0:0:
180,215,142443,2,0,P|123:231|73:196,1,102.000001945496,2|0,0:0|0:0,0:0:0:0:
71,199,142769,1,2,1:2:0:0:
186,317,142933,1,2,0:0:0:0:
326,230,143096,5,2,1:3:0:0:
309,117,143259,1,2,0:3:0:0:
458,258,143422,1,2,0:3:0:0:
441,371,143585,1,2,0:3:0:0:
187,244,143748,6,0,B|102:221|102:221|80:279|19:276,1,180.000006866455,6|0,1:2|0:0,0:0:0:0:
285,304,144400,2,0,P|307:250|292:193,1,120.000004577637,10|0,0:0|0:0,0:0:0:0:
183,314,144889,1,2,0:0:0:0:
183,314,145052,6,0,L|194:382,1,60.0000022888184,2|0,0:0|0:0,0:0:0:0:
285,305,145378,1,0,1:0:0:0:
79,234,145541,1,2,3:2:0:0:
226,106,145704,2,0,P|263:146|234:222,1,120.000004577637,10|2,0:0|0:0,0:0:0:0:
120,363,146356,6,0,P|143:318|141:290,1,60.0000022888184,2|0,1:2|0:0,0:0:0:0:
22,196,146683,2,0,P|31:243|46:262,1,60.0000022888184,2|0,0:0|0:0,0:0:0:0:
250,161,147009,6,0,P|215:121|154:132,1,102.000001945496,10|0,0:0|0:0,0:0:0:0:
152,133,147335,1,2,0:0:0:0:
282,273,147498,2,0,P|336:263|397:253,1,102.000001945496,2|0,0:0|0:0,0:0:0:0:
405,270,147824,5,2,0:0:0:0:
321,360,147987,1,2,1:2:0:0:
369,142,148150,1,2,0:0:0:0:
180,234,148313,5,2,1:3:0:0:
405,270,148476,1,2,0:3:0:0:
201,365,148639,1,2,0:3:0:0:
105,157,148802,1,2,0:3:0:0:
335,3,148965,6,0,P|383:32|361:146,1,180.000006866455,6|0,1:2|0:0,0:0:0:0:
105,52,149617,2,0,P|164:41|230:31,1,120.000004577637,10|0,0:0|0:0,0:0:0:0:
280,120,150106,1,2,0:0:0:0:
280,120,150269,6,0,L|266:185,1,60.0000022888184,2|0,0:0|0:0,0:0:0:0:
192,267,150596,1,0,1:0:0:0:
382,220,150759,1,2,0:2:0:0:
120,123,150922,1,10,0:0:0:0:
120,123,151248,6,0,P|73:138|43:144,1,68.0000012969971,2|0,0:0|0:0,0:0:0:0:
187,55,151574,2,0,P|238:66|305:80,1,102.000001945496,2|0,1:2|0:0,0:0:0:0:
305,67,151900,1,2,0:0:0:0:
383,178,152063,1,2,0:0:0:0:
383,178,152226,2,0,P|357:198|312:195,1,68.0000012969971,8|0,0:0|0:0,0:0:0:0:
431,72,152552,6,0,L|505:88,1,68.0000012969971,2|2,0:0|0:0,0:0:0:0:
320,3,152878,2,0,L|344:116,1,102.000001945496,2|0,0:0|0:0,0:0:0:0:
331,120,153204,1,2,1:2:0:0:
422,0,153367,1,2,0:0:0:0:
213,91,153530,5,2,1:3:0:0:
383,178,153693,1,2,0:3:0:0:
207,0,153856,1,2,0:3:0:0:
252,252,154019,1,2,0:3:0:0:
0,222,154183,6,0,B|94:233|77:165|169:183,1,180.000006866455,6|0,1:2|0:0,0:0:0:0:
326,72,154835,2,0,P|267:54|235:103,1,120.000004577637,10|0,0:0|0:0,0:0:0:0:
322,172,155324,1,2,0:0:0:0:
322,172,155487,6,0,L|388:158,1,60.0000022888184,2|0,0:0|0:0,0:0:0:0:
235,94,155813,1,0,1:0:0:0:
345,268,155976,1,2,3:2:0:0:
475,137,156139,2,0,P|484:80|432:41,1,120.000004577637,10|2,0:0|0:0,0:0:0:0:
232,249,156791,6,0,L|247:310,1,60.0000022888184,2|0,1:2|0:0,0:0:0:0:
422,211,157117,2,0,L|437:272,1,60.0000022888184,2|0,0:0|0:0,0:0:0:0:
293,157,157443,6,0,P|276:107|312:53,1,102.000001945496,10|0,0:0|0:0,0:0:0:0:
315,57,157769,1,2,0:0:0:0:
164,145,157933,2,0,P|117:140|50:132,1,102.000001945496,2|0,0:0|0:0,0:0:0:0:
43,153,158259,5,2,0:0:0:0:
149,59,158422,1,2,1:2:0:0:
237,209,158585,1,2,0:0:0:0:
85,260,158748,5,2,1:3:0:0:
256,100,158911,1,2,0:3:0:0:
427,260,159074,1,2,0:3:0:0:
256,88,159237,1,2,0:3:0:0:
196,336,159400,6,0,B|324:320|324:320|288:336|288:372,1,180.000006866455,6|0,1:2|0:0,0:0:0:0:
512,255,160052,2,0,P|456:264|394:209,1,120.000004577637,10|0,0:0|0:0,0:0:0:0:
291,140,160541,1,2,0:0:0:0:
291,140,160704,6,0,L|306:210,1,60.0000022888184,2|0,0:0|0:0,0:0:0:0:
198,195,161030,1,0,1:0:0:0:
400,142,161193,1,2,0:2:0:0:
253,10,161356,1,10,0:0:0:0:
253,10,161683,6,0,P|246:44|238:88,1,68.0000012969971,2|0,0:0|0:0,0:0:0:0:
352,201,162009,2,0,P|374:146|339:97,1,102.000001945496,2|0,1:2|0:0,0:0:0:0:
337,104,162335,1,2,0:0:0:0:
189,192,162498,1,2,0:0:0:0:
189,192,162661,2,0,L|260:183,1,68.0000012969971,8|0,0:0|0:0,0:0:0:0:
454,283,162987,6,0,P|401:288|370:264,1,68.0000012969971,2|2,0:0|0:0,0:0:0:0:
211,384,163313,2,0,P|262:335|311:352,1,102.000001945496,2|0,0:0|0:0,0:0:0:0:
303,350,163639,1,2,1:2:0:0:
256,183,163802,1,2,0:0:0:0:
167,259,163965,5,2,1:3:0:0:
365,215,164128,1,2,0:3:0:0:
167,259,164291,1,2,0:3:0:0:
365,215,164454,1,2,0:3:0:0:
290,262,164617,5,2,1:2:0:0:
