osu file format v14

[General]
AudioFilename: asdsadsad.mp3
AudioLeadIn: 0
PreviewTime: 33959
Countdown: 0
SampleSet: Soft
StackLeniency: 0.4
Mode: 0
LetterboxInBreaks: 0
WidescreenStoryboard: 0

[Editor]
Bookmarks: 32818
DistanceSpacing: 1.8
BeatDivisor: 4
GridSize: 4
TimelineZoom: 1

[Metadata]
Title:Boom Clap
TitleUnicode:Boom Clap
Artist:Charli XCX
ArtistUnicode:Charli XCX
Creator:schoolboy
Version:Bakari's Hard
Source:The Fault In Our Stars
Tags:komore bakari dailycare kalibe morinaga
BeatmapID:1542343
BeatmapSetID:730792

[Difficulty]
HPDrainRate:6
CircleSize:4.2
OverallDifficulty:6
ApproachRate:8
SliderMultiplier:1.8
SliderTickRate:2

[Events]
//Background and Video events
0,0,"bggg.jpg",0,0
Video,-1298,"vidya.mp4"
//Break Periods
2,104557,111693
//Storyboard Layer 0 (Background)
//Storyboard Layer 1 (Fail)
//Storyboard Layer 2 (Pass)
//Storyboard Layer 3 (Foreground)
//Storyboard Sound Samples

[TimingPoints]
270,652.173913043478,4,1,1,60,1,0
2226,-100,4,2,1,60,0,0
2878,-100,4,2,2,50,0,0
4835,-100,4,2,2,70,0,0
5487,-100,4,2,2,50,0,0
7443,-100,4,2,2,70,0,0
8096,-100,4,2,2,50,0,0
10052,-100,4,2,2,70,0,0
10704,-100,4,2,2,50,0,0
12498,-100,4,2,2,30,0,0
12661,-100,4,2,1,70,0,0
13150,-100,4,2,1,5,0,0
13313,-100,4,2,1,55,0,0
21139,-100,4,1,1,45,0,0
23096,-100,4,2,1,45,0,0
23748,-100,4,2,1,55,0,0
31574,-100,4,2,1,45,0,0
32389,-100,4,2,1,5,0,0
32471,-100,4,2,1,45,0,0
34183,-100,4,2,1,75,0,0
35487,-100,4,2,1,75,0,0
37443,-100,4,2,1,75,0,0
37688,-100,4,2,1,25,0,0
37769,-100,4,2,1,75,0,0
38177,-100,4,2,1,25,0,0
38259,-100,4,2,1,75,0,0
39400,-100,4,2,1,75,0,0
40704,-100,4,2,1,75,0,0
41683,-100,4,2,1,75,0,0
42253,-100,4,2,1,25,0,0
42335,-100,4,2,1,75,0,0
43558,-100,4,2,1,25,0,0
43639,-100,4,2,1,75,0,0
44617,-100,4,2,1,75,0,0
45759,-100,4,2,1,75,0,0
47878,-100,4,2,1,75,0,0
48123,-100,4,2,1,25,0,0
48204,-100,4,2,1,75,0,0
48612,-100,4,2,1,25,0,0
48693,-100,4,2,1,75,0,0
49835,-100,4,2,1,75,0,0
52117,-100,4,2,1,75,0,0
52688,-100,4,2,1,25,0,0
52769,-100,4,2,1,75,0,0
53992,-100,4,2,1,25,0,0
54074,-100,4,2,1,75,0,0
55052,-100,4,2,1,50,0,0
55134,-100,4,2,1,25,0,0
56683,-100,4,2,1,35,0,0
57661,-100,4,2,1,40,0,0
58965,-100,4,2,1,43,0,0
59128,-100,4,2,1,45,0,0
59291,-100,4,2,1,47,0,0
59454,-100,4,2,1,50,0,0
60269,-100,4,2,1,45,0,0
68096,-100,4,2,1,45,0,0
70704,-100,4,2,1,55,0,0
70867,-100,4,2,1,55,0,0
78530,-100,4,2,1,55,0,0
81139,-100,4,2,1,43,0,0
91574,-100,4,2,1,75,0,0
94835,-100,4,2,1,75,0,0
95079,-100,4,2,1,25,0,0
95161,-100,4,2,1,75,0,0
95568,-100,4,2,1,25,0,0
95650,-100,4,2,1,75,0,0
96791,-100,4,2,1,75,0,0
99074,-100,4,2,1,75,0,0
99644,-100,4,2,1,25,0,0
99726,-100,4,2,1,75,0,0
100949,-100,4,2,1,25,0,0
101030,-100,4,2,1,75,0,0
102009,-100,4,2,1,50,0,0
102661,-100,4,2,1,30,0,0
108856,-100,4,2,1,20,0,0
109427,-100,4,2,1,30,0,0
120269,-100,4,2,1,35,0,0
120514,-100,4,2,1,25,0,0
120759,-100,4,2,1,17,0,0
121248,-100,4,2,1,20,0,0
122226,-100,4,2,1,50,0,0
122878,-100,4,2,1,75,0,0
126139,-100,4,2,1,75,0,0
126384,-100,4,2,1,25,0,0
126465,-100,4,2,1,75,0,0
126873,-100,4,2,1,25,0,0
126954,-100,4,2,1,75,0,0
128096,-100,4,2,1,75,0,0
130378,-100,4,2,1,75,0,0
130949,-100,4,2,1,25,0,0
131030,-100,4,2,1,75,0,0
132253,-100,4,2,1,25,0,0
132335,-100,4,2,1,75,0,0
133313,-100,4,2,1,75,0,0
136574,-100,4,2,1,75,0,0
136818,-100,4,2,1,25,0,0
136900,-100,4,2,1,75,0,0
137308,-100,4,2,1,25,0,0
137389,-100,4,2,1,75,0,0
138530,-100,4,2,1,75,0,0
140813,-100,4,2,1,75,0,0
141384,-100,4,2,1,25,0,0
141465,-100,4,2,1,75,0,0
142688,-100,4,2,1,25,0,0
142769,-100,4,2,1,75,0,0
143748,-100,4,2,1,84,0,0
147009,-100,4,2,1,84,0,0
147253,-100,4,2,1,25,0,0
147335,-100,4,2,1,84,0,0
147742,-100,4,2,1,25,0,0
147824,-100,4,2,1,84,0,0
148965,-100,4,2,1,84,0,0
151248,-100,4,2,1,84,0,0
151818,-100,4,2,1,25,0,0
151900,-100,4,2,1,84,0,0
153123,-100,4,2,1,25,0,0
153204,-100,4,2,1,84,0,0
154183,-100,4,2,1,84,0,0
157443,-100,4,2,1,84,0,0
157688,-100,4,2,1,25,0,0
157769,-100,4,2,1,84,0,0
158177,-100,4,2,1,25,0,0
158259,-100,4,2,1,84,0,0
159400,-100,4,2,1,84,0,0
161683,-100,4,2,1,84,0,0
162253,-100,4,2,1,25,0,0
162335,-100,4,2,1,84,0,0
163558,-100,4,2,1,25,0,0
163639,-100,4,2,1,84,0,0
164617,-100,4,2,1,52,0,0

[Colours]
Combo1 : 225,225,225
Combo2 : 151,221,255
Combo3 : 236,213,168
Combo4 : 191,240,200

[HitObjects]
112,308,270,5,2,0:0:0:0:
112,308,922,1,2,0:0:0:0:
112,308,1574,1,2,0:0:0:0:
64,112,2226,2,0,L|56:220,1,90,12|0,0:0|0:0,0:0:0:0:
191,311,2878,6,0,P|210:323|232:352,3,45,2|0|0|0,1:2|0:0|0:0|0:0,0:0:0:0:
326,356,3530,2,0,P|278:362|229:388,2,90,8|0|0,0:0|0:0|0:0,0:0:0:0:
204,227,4509,1,0,1:0:0:0:
363,252,4835,2,0,P|315:258|266:284,1,90,8|0,0:0|0:0,0:0:0:0:
439,208,5487,6,0,P|441:168|436:140,3,45,2|0|0|0,1:2|0:0|0:0|0:0,0:0:0:0:
408,42,6139,2,0,P|407:86|416:130,2,90,8|0|0,0:0|0:0|0:0,0:0:0:0:
512,165,7117,1,0,1:0:0:0:
348,232,7443,2,0,L|400:220,1,45,2|2,0:3|0:3,0:0:0:0:
394,299,7769,2,0,L|444:306,1,45,2|2,0:3|0:3,0:0:0:0:
360,365,8096,6,0,P|335:343|317:319,3,45,2|0|0|0,1:2|0:0|0:0|0:0,0:0:0:0:
219,242,8748,2,0,P|270:271|303:302,2,90,8|0|0,0:0|0:0|0:0,0:0:0:0:
275,374,9726,1,0,1:2:0:0:
398,265,10052,2,0,P|382:311|355:352,1,90,8|0,0:0|0:0,0:0:0:0:
365,173,10704,6,0,P|379:146|394:125,3,45,2|0|0|0,1:2|0:0|0:0|0:0,0:0:0:0:
319,87,11356,2,0,P|334:75|356:62,3,45,2|0|0|0,1:2|0:0|0:0|0:0,0:0:0:0:
231,63,12009,2,0,P|187:61|99:102,1,135,2|0,1:2|0:0,0:0:0:0:
271,140,12661,1,8,0:0:0:0:
289,288,13313,6,0,L|275:147,1,135,2|0,1:2|0:0,0:0:0:0:
350,120,13965,2,0,L|337:218,1,90,10|0,0:0|0:0,0:0:0:0:
216,240,14617,1,2,0:0:0:0:
280,88,14943,1,0,1:2:0:0:
354,224,15269,2,0,L|333:362,1,135,10|0,0:0|0:0,0:0:0:0:
413,375,15922,6,0,L|395:286,1,90,2|2,1:2|0:0,0:0:0:0:
274,260,16574,2,0,L|291:348,1,90,10|0,0:0|0:0,0:0:0:0:
344,232,17226,1,2,0:0:0:0:
224,371,17552,1,0,1:0:0:0:
93,284,17878,2,0,L|162:291,1,45,2|2,1:3|0:3,0:0:0:0:
54,215,18204,2,0,L|98:205,1,45,2|2,0:3|0:3,0:0:0:0:
1,148,18530,6,0,P|-1:93|6:43,1,90,2|2,1:2|0:0,0:0:0:0:
175,23,19183,2,0,L|155:127,1,90,10|2,0:0|0:0,0:0:0:0:
236,212,19835,2,0,L|224:164,1,45,2|0,0:0|0:0,0:0:0:0:
242,91,20161,1,0,1:2:0:0:
152,226,20487,1,10,0:0:0:0:
152,226,20650,1,0,0:0:0:0:
152,226,20813,1,2,0:0:0:0:
338,252,21139,6,0,P|373:232|480:216,1,135,2|0,1:0|0:0,0:0:0:0:
502,140,21791,2,0,P|447:130|341:130,1,135,2|0,0:0|0:0,0:0:0:0:
327,49,22443,2,0,P|364:28|384:19,1,45,2|0,0:0|0:0,0:0:0:0:
239,102,22769,2,0,P|204:98|187:92,1,45
316,176,23096,1,8,0:0:0:0:
252,365,23748,6,0,L|261:219,1,135,2|0,1:2|0:0,0:0:0:0:
182,218,24400,2,0,L|204:309,1,90,10|0,0:0|0:0,0:0:0:0:
245,139,25052,1,2,0:0:0:0:
103,236,25378,1,0,1:2:0:0:
66,31,25704,2,0,P|118:85|142:152,1,135,10|0,0:0|0:0,0:0:0:0:
56,175,26356,6,0,P|74:116|99:77,1,90,2|2,1:2|0:0,0:0:0:0:
34,271,27009,2,0,P|32:226|20:182,1,90,10|0,0:0|0:0,0:0:0:0:
27,356,27661,1,2,0:0:0:0:
162,265,27987,1,0,1:0:0:0:
320,359,28313,2,0,L|268:352,3,45,2|2|2|2,1:3|0:3|0:3|0:3,0:0:0:0:
395,312,28965,5,2,1:2:0:0:
260,226,29291,1,2,0:0:0:0:
364,140,29617,2,0,L|372:212,3,45,10|2|2|2,0:0|0:0|0:0|0:0,0:0:0:0:
431,229,30269,2,0,B|445:198|445:198|438:135,1,90,2|0,0:0|1:2,0:0:0:0:
318,61,30922,1,10,0:0:0:0:
211,195,31248,1,2,0:0:0:0:
59,100,31574,6,0,P|101:24|129:92,1,180,2|0,0:0|0:0,0:0:0:0:
30,320,34183,6,2,P|80:325|155:381,1,135,6|0,1:2|0:0,0:0:0:0:
206,220,34835,2,2,P|170:242|116:253,1,90,10|0,0:0|0:0,0:0:0:0:
204,317,35324,1,2,0:0:0:0:
328,260,35487,2,0,L|259:271,1,45,2|0,0:0|0:0,0:0:0:0:
379,361,35813,2,0,L|321:354,1,45,0|2,1:0|3:2,0:0:0:0:
440,288,36139,1,10,0:0:0:0:
364,176,36465,1,2,0:0:0:0:
479,62,36791,5,2,1:2:0:0:
364,182,37117,1,2,0:0:0:0:
336,48,37443,1,10,0:0:0:0:
436,140,37769,1,2,0:0:0:0:
366,116,37933,1,2,0:0:0:0:
336,48,38096,2,0,P|340:18|356:-5,1,45,0|2,0:0|0:0,0:0:0:0:
480,20,38422,1,2,1:2:0:0:
416,60,38585,1,2,0:0:0:0:
336,48,38748,1,2,1:3:0:0:
336,48,39074,1,2,0:3:0:0:
252,250,39400,6,2,L|95:232,1,135,6|0,1:2|0:0,0:0:0:0:
243,174,40052,2,0,L|144:164,1,90,10|0,0:0|0:0,0:0:0:0:
221,90,40541,1,2,0:0:0:0:
340,88,40704,2,0,P|316:106|283:120,1,45,2|0,0:0|0:0,0:0:0:0:
442,69,41030,2,0,P|419:36|411:16,1,45,0|2,1:0|0:2,0:0:0:0:
401,159,41356,1,10,0:0:0:0:
280,19,41683,1,2,0:0:0:0:
208,28,41846,1,0,0:0:0:0:
136,12,42009,5,2,1:2:0:0:
244,108,42335,1,2,0:0:0:0:
406,39,42661,2,0,L|468:46,1,45,8|0,0:0|0:0,0:0:0:0:
392,109,42987,2,0,L|348:116,1,45,2|2,0:0|0:0,0:0:0:0:
425,172,43313,1,2,0:0:0:0:
281,35,43639,1,2,1:2:0:0:
149,200,43965,1,2,1:3:0:0:
12,82,44291,2,0,P|35:78|72:80,1,45,2|2,0:3|0:3,0:0:0:0:
210,92,44617,6,2,P|164:103|70:97,1,135,6|0,1:2|0:0,0:0:0:0:
239,165,45269,2,0,P|288:154|343:156,1,90,10|0,0:0|0:0,0:0:0:0:
270,42,45759,1,2,0:0:0:0:
143,102,45922,2,0,L|195:107,1,45,2|0,0:0|0:0,0:0:0:0:
327,162,46248,2,0,L|273:156,1,45,0|2,1:0|3:2,0:0:0:0:
186,270,46574,1,10,0:0:0:0:
264,30,46900,1,2,0:0:0:0:
186,270,47226,5,2,1:2:0:0:
142,89,47552,1,2,0:0:0:0:
186,270,47878,1,10,0:0:0:0:
92,160,48204,1,2,0:0:0:0:
152,200,48367,1,2,0:0:0:0:
186,270,48530,2,0,P|190:302|186:325,1,45,0|2,0:0|0:0,0:0:0:0:
60,344,48856,1,2,1:2:0:0:
108,286,49019,1,2,0:0:0:0:
186,270,49183,1,2,1:3:0:0:
186,270,49509,1,2,0:3:0:0:
405,343,49835,6,0,P|350:360|238:349,1,135,6|0,1:2|0:0,0:0:0:0:
111,371,50487,2,0,P|157:365|212:370,1,90,10|0,0:0|0:0,0:0:0:0:
225,295,50976,1,2,0:0:0:0:
225,295,51139,1,2,0:0:0:0:
225,295,51302,1,0,0:0:0:0:
176,217,51465,2,0,P|166:190|162:168,1,45,0|2,1:0|0:2,0:0:0:0:
290,111,51791,2,0,P|285:143|275:177,1,45,10|0,0:0|0:0,0:0:0:0:
199,39,52117,1,2,0:0:0:0:
199,39,52280,1,0,0:0:0:0:
199,39,52443,5,2,1:2:0:0:
239,237,52769,1,2,0:0:0:0:
4,8,53096,1,8,0:0:0:0:
199,39,53422,1,2,0:0:0:0:
266,55,53585,1,2,0:0:0:0:
271,125,53748,1,2,0:0:0:0:
4,8,54074,1,2,1:2:0:0:
199,39,54400,1,2,1:3:0:0:
88,112,54726,1,2,0:3:0:0:
93,18,55052,5,6,1:2:0:0:
256,192,56683,12,2,60269,0:2:0:0:
376,24,60922,6,0,P|396:64|404:128,1,90,8|2,0:3|0:0,0:0:0:0:
332,176,61574,1,2,0:0:0:0:
428,204,61900,1,2,0:0:0:0:
374,356,62226,2,0,L|363:265,1,90,2|0,0:0|0:0,0:0:0:0:
149,119,63204,5,2,0:0:0:0:
120,212,63530,1,2,0:0:0:0:
216,192,63856,2,0,L|320:200,1,90,2|2,0:0|0:0,0:0:0:0:
388,144,64509,1,2,0:0:0:0:
493,264,64835,2,0,P|490:232|484:208,3,45,2|2|2|2,0:3|0:3|0:3|0:3,0:0:0:0:
468,176,65487,5,2,0:0:0:0:
480,76,65813,1,2,0:0:0:0:
398,213,66139,1,8,0:3:0:0:
480,76,66465,1,2,0:0:0:0:
353,41,66791,2,0,L|250:27,1,90,2|2,0:0|0:0,0:0:0:0:
184,88,67443,1,2,0:0:0:0:
264,148,67769,1,2,0:0:0:0:
300,276,68096,6,0,P|271:321|192:368,1,135,2|0,0:0|0:0,0:0:0:0:
144,332,68748,2,0,P|165:308|224:269,1,90,0|2,0:0|0:0,0:0:0:0:
251,144,69400,2,0,P|240:102|219:53,1,90,2|0,0:0|0:0,0:0:0:0:
124,36,70052,2,0,P|100:40|60:40,3,45,2|2|2|2,0:3|0:3|0:3|0:3,0:0:0:0:
28,95,70704,6,0,P|68:104|160:160,1,135,2|0,1:2|0:0,0:0:0:0:
183,222,71356,2,0,P|168:264|164:332,1,90,10|0,0:0|0:0,0:0:0:0:
280,376,72009,1,2,0:0:0:0:
238,163,72335,1,0,1:2:0:0:
382,191,72661,2,0,P|338:160|227:156,1,135,10|0,0:0|0:0,0:0:0:0:
321,75,73313,6,0,P|332:38|335:7,3,45,2|0|2|0,1:2|0:0|0:0|0:0,0:0:0:0:
240,48,73965,2,0,P|254:100|254:167,1,90,10|0,0:0|0:0,0:0:0:0:
160,261,74617,1,2,0:0:0:0:
77,122,74943,1,0,1:0:0:0:
20,324,75269,2,0,P|14:293|14:261,3,45,2|2|2|2,1:3|0:3|0:3|0:3,0:0:0:0:
99,228,75922,6,0,L|79:369,1,135,2|0,1:2|0:0,0:0:0:0:
174,361,76574,2,0,L|161:272,1,90,10|2,0:0|0:0,0:0:0:0:
88,180,77226,1,2,0:0:0:0:
171,25,77552,1,0,1:2:0:0:
8,179,77878,1,10,0:0:0:0:
131,118,78204,1,2,0:0:0:0:
345,241,78530,6,0,P|342:267|284:227,1,135,2|0,1:2|0:0,0:0:0:0:
364,167,79183,1,8,0:0:0:0:
441,269,79509,1,0,0:0:0:0:
279,229,79835,1,2,0:0:0:0:
408,85,80161,1,2,1:2:0:0:
468,287,80487,2,0,L|452:342,3,45,2|2|2|2,1:3|0:3|0:3|0:3,0:0:0:0:
385,363,81139,5,6,0:0:0:0:
152,336,81791,1,2,0:0:0:0:
152,336,82117,1,0,0:0:0:0:
100,232,82443,1,0,0:0:0:0:
124,116,82769,1,2,0:0:0:0:
200,28,83096,1,2,0:0:0:0:
200,28,83422,1,2,0:0:0:0:
221,182,83748,5,2,0:0:0:0:
104,168,84074,1,0,0:0:0:0:
221,182,84400,1,2,0:0:0:0:
144,268,84726,1,0,0:0:0:0:
221,182,85052,1,0,0:0:0:0:
300,268,85378,1,2,0:0:0:0:
260,224,85541,1,0,0:0:0:0:
221,182,85704,1,2,0:0:0:0:
221,182,86030,1,2,0:0:0:0:
276,30,86356,5,2,0:0:0:0:
366,338,87009,1,2,0:0:0:0:
366,338,87335,1,0,0:0:0:0:
272,268,87661,1,0,0:0:0:0:
156,268,87987,1,2,0:0:0:0:
76,356,88313,1,2,0:0:0:0:
44,244,88639,1,0,0:0:0:0:
32,188,88802,1,2,0:0:0:0:
20,132,88965,1,2,0:0:0:0:
44,244,89291,1,0,0:0:0:0:
135,83,89617,1,0,0:0:0:0:
198,232,89943,5,2,0:0:0:0:
325,158,90269,1,2,0:0:0:0:
107,41,90922,1,0,0:0:0:0:
107,41,91574,6,0,P|162:24|274:35,1,135,6|0,1:2|0:0,0:0:0:0:
401,13,92226,2,0,P|355:19|300:14,1,90,10|0,0:0|0:0,0:0:0:0:
287,89,92715,1,2,0:0:0:0:
287,89,92878,1,2,0:0:0:0:
287,89,93041,1,0,0:0:0:0:
336,167,93204,2,0,P|346:194|350:216,1,45,0|2,1:0|3:2,0:0:0:0:
222,273,93530,2,0,P|227:241|237:207,1,45,10|0,0:0|0:0,0:0:0:0:
86,302,93856,2,0,P|96:329|100:351,1,45,2|0,0:0|0:0,0:0:0:0:
235,276,94183,5,2,1:2:0:0:
142,89,94509,1,2,0:0:0:0:
235,276,94835,1,10,0:0:0:0:
141,166,95161,1,2,0:0:0:0:
201,206,95324,1,2,0:0:0:0:
235,276,95487,2,0,P|241:300|235:331,1,45,0|2,0:0|0:0,0:0:0:0:
109,350,95813,1,2,1:2:0:0:
157,292,95976,1,2,0:0:0:0:
235,276,96140,1,2,1:3:0:0:
235,276,96466,1,2,0:3:0:0:
302,92,96791,6,2,P|348:103|442:97,1,135,6|0,1:2|0:0,0:0:0:0:
273,165,97443,2,0,P|224:154|169:156,1,90,10|0,0:0|0:0,0:0:0:0:
242,42,97933,1,2,0:0:0:0:
369,102,98096,2,0,L|317:107,1,45,2|0,0:0|0:0,0:0:0:0:
185,162,98422,2,0,L|239:156,1,45,0|2,1:0|0:2,0:0:0:0:
326,270,98748,1,10,0:0:0:0:
248,30,99074,1,2,0:0:0:0:
326,270,99400,5,2,1:2:0:0:
374,136,99726,1,2,0:0:0:0:
256,200,100052,1,8,0:0:0:0:
405,216,100378,1,2,0:0:0:0:
327,63,100704,1,2,0:0:0:0:
228,221,101030,1,2,1:2:0:0:
436,227,101356,2,0,P|420:198|404:182,1,45,2|2,1:3|0:3,0:0:0:0:
450,129,101683,2,0,P|421:119|394:115,1,45,2|2,0:3|0:3,0:0:0:0:
332,164,102009,5,6,0:0:0:0:
112,292,112443,5,6,1:2:0:0:
187,196,113096,6,0,L|176:114,3,45,2|2|2|2,0:0|0:0|0:0|0:0,0:0:0:0:
191,119,113748,1,2,0:0:0:0:
83,65,114074,1,2,1:2:0:0:
26,270,115052,6,0,P|82:279|161:379,1,180,2|2,1:2|0:0,0:0:0:0:
21,263,116683,1,2,1:2:0:0:
204,38,117661,6,0,L|194:135,1,90,2|0,1:2|0:0,0:0:0:0:
142,207,118313,2,0,L|135:258,3,45,2|2|2|2,0:0|0:0|0:0|0:0,0:0:0:0:
150,288,118965,1,2,0:0:0:0:
240,240,119291,1,2,0:0:0:0:
427,354,120269,5,2,0:0:0:0:
482,64,122878,6,2,P|432:59|357:3,1,135,6|0,1:2|0:0,0:0:0:0:
306,164,123530,2,2,P|342:142|396:131,1,90,10|0,0:0|0:0,0:0:0:0:
308,67,124019,1,2,0:0:0:0:
184,124,124182,2,0,L|253:113,1,45,2|0,0:0|0:0,0:0:0:0:
133,23,124508,2,0,L|191:30,1,45,0|2,1:0|3:2,0:0:0:0:
72,96,124834,1,10,0:0:0:0:
148,208,125160,1,0,0:0:0:0:
33,322,125486,5,2,1:2:0:0:
148,202,125812,1,2,0:0:0:0:
176,336,126138,1,10,0:0:0:0:
76,244,126464,1,2,0:0:0:0:
146,268,126628,1,2,0:0:0:0:
176,336,126791,2,0,P|169:373|162:385,1,45,0|2,0:0|0:0,0:0:0:0:
32,364,127117,1,2,1:2:0:0:
96,324,127280,1,2,0:0:0:0:
176,336,127443,1,2,1:3:0:0:
176,336,127769,1,2,0:3:0:0:
260,134,128095,6,0,L|417:152,1,135,6|0,1:2|0:0,0:0:0:0:
269,210,128747,2,0,L|368:220,1,90,10|0,0:0|0:0,0:0:0:0:
291,294,129236,1,2,0:0:0:0:
172,296,129399,2,0,P|196:278|229:264,1,45,2|0,0:0|0:0,0:0:0:0:
70,315,129725,2,0,P|93:348|101:368,1,45,0|2,1:0|0:2,0:0:0:0:
111,225,130051,1,10,0:0:0:0:
232,365,130378,1,2,0:0:0:0:
304,356,130541,1,0,0:0:0:0:
376,372,130704,5,2,1:2:0:0:
268,276,131030,1,2,0:0:0:0:
106,345,131356,2,0,L|44:338,1,45,8|0,0:0|0:0,0:0:0:0:
120,275,131682,2,0,L|164:268,1,45,2|2,0:0|0:0,0:0:0:0:
87,212,132008,1,2,0:0:0:0:
231,349,132334,1,2,1:2:0:0:
363,184,132660,1,2,1:3:0:0:
500,302,132986,2,0,P|477:306|440:304,1,45,2|2,0:3|0:3,0:0:0:0:
302,292,133312,6,2,P|348:281|442:287,1,135,6|0,1:2|0:0,0:0:0:0:
273,219,133964,2,0,P|224:230|169:228,1,90,10|0,0:0|0:0,0:0:0:0:
242,342,134454,1,2,0:0:0:0:
369,282,134617,2,0,L|317:277,1,45,2|0,0:0|0:0,0:0:0:0:
185,222,134943,2,0,L|239:228,1,45,0|2,1:0|3:2,0:0:0:0:
326,114,135269,1,10,0:0:0:0:
248,354,135595,1,2,0:0:0:0:
326,114,135921,5,2,1:2:0:0:
370,295,136247,1,2,0:0:0:0:
326,114,136573,1,10,0:0:0:0:
420,224,136899,1,2,0:0:0:0:
360,184,137062,1,2,0:0:0:0:
326,114,137226,2,0,P|333:80|348:57,1,45,0|2,0:0|0:0,0:0:0:0:
452,40,137551,1,2,1:2:0:0:
408,96,137714,1,2,0:0:0:0:
326,114,137878,1,2,1:3:0:0:
326,114,138204,1,2,0:3:0:0:
107,41,138530,6,0,P|162:24|274:35,1,135,6|0,1:2|0:0,0:0:0:0:
401,13,139182,2,0,P|355:19|300:14,1,90,10|0,0:0|0:0,0:0:0:0:
287,89,139671,1,2,0:0:0:0:
287,89,139834,1,2,0:0:0:0:
287,89,139997,1,0,0:0:0:0:
336,167,140160,2,0,P|346:194|350:216,1,45,0|2,1:0|0:2,0:0:0:0:
222,273,140486,2,0,P|227:241|237:207,1,45,10|0,0:0|0:0,0:0:0:0:
313,345,140812,1,2,0:0:0:0:
313,345,140975,1,0,0:0:0:0:
313,345,141138,5,2,1:2:0:0:
294,187,141464,1,2,0:0:0:0:
475,301,141791,1,8,0:0:0:0:
313,345,142117,1,2,0:0:0:0:
294,187,142443,1,2,0:0:0:0:
475,301,142769,1,2,1:2:0:0:
313,345,143095,1,2,1:3:0:0:
481,176,143421,1,2,0:3:0:0:
195,297,143748,6,0,L|51:322,1,135,6|0,1:2|0:0,0:0:0:0:
127,179,144400,2,0,L|118:282,1,90,10|0,0:0|0:0,0:0:0:0:
205,221,144889,1,2,0:0:0:0:
213,88,145052,2,0,L|204:155,1,45,2|0,0:0|0:0,0:0:0:0:
40,187,145378,2,0,L|47:125,1,45,0|2,1:0|3:2,0:0:0:0:
116,20,145704,1,10,0:0:0:0:
129,263,146030,1,2,0:0:0:0:
130,39,146356,6,0,L|118:152,1,90,2|2,1:2|0:0,0:0:0:0:
27,349,147009,1,10,0:0:0:0:
176,288,147335,1,2,0:0:0:0:
116,350,147498,1,2,0:0:0:0:
27,349,147661,2,0,P|10:316|13:290,1,45,0|2,0:0|0:0,0:0:0:0:
61,207,147987,1,2,1:2:0:0:
78,286,148150,1,2,0:0:0:0:
27,349,148313,1,2,1:3:0:0:
8,144,148639,1,2,0:3:0:0:
239,243,148965,6,0,P|289:236|367:176,1,135,6|0,1:2|0:0,0:0:0:0:
197,225,149617,2,0,P|163:230|108:258,1,90,10|0,0:0|0:0,0:0:0:0:
241,305,150106,1,2,0:0:0:0:
278,172,150269,2,0,L|250:114,1,45,2|0,0:0|0:0,0:0:0:0:
341,104,150596,2,0,L|341:49,1,45,0|2,1:0|0:2,0:0:0:0:
425,81,150922,1,10,0:0:0:0:
233,49,151248,1,2,0:0:0:0:
337,260,151574,5,2,1:2:0:0:
352,96,151900,1,2,0:0:0:0:
196,152,152226,1,8,0:0:0:0:
337,260,152552,1,2,0:0:0:0:
352,96,152878,1,2,0:0:0:0:
196,152,153204,1,2,1:2:0:0:
337,260,153530,1,2,1:3:0:0:
368,216,153693,1,2,0:3:0:0:
332,176,153856,1,2,0:3:0:0:
284,196,154019,1,2,0:3:0:0:
288,252,154183,6,0,P|264:308|208:384,1,135,6|0,1:2|0:0,0:0:0:0:
165,236,154835,2,0,P|187:192|212:155,1,90,10|0,0:0|0:0,0:0:0:0:
309,163,155324,1,2,0:0:0:0:
256,67,155487,2,0,P|256:46|260:12,1,45,2|0,0:0|0:0,0:0:0:0:
353,52,155813,2,0,P|373:26|390:10,1,45,0|2,1:0|3:2,0:0:0:0:
452,91,156139,1,10,0:0:0:0:
270,84,156465,1,2,0:0:0:0:
379,275,156791,5,2,1:2:0:0:
372,112,157117,1,2,0:0:0:0:
379,275,157443,1,10,0:0:0:0:
232,344,157769,1,2,0:0:0:0:
284,280,157933,1,2,0:0:0:0:
379,275,158096,2,0,P|414:292|432:307,1,45,0|2,0:0|0:0,0:0:0:0:
312,128,158422,1,2,1:2:0:0:
368,188,158585,1,2,0:0:0:0:
379,275,158748,1,2,1:3:0:0:
379,275,159074,1,2,0:3:0:0:
168,206,159400,6,0,P|227:207|299:243,1,135,6|0,1:2|0:0,0:0:0:0:
257,118,160052,2,0,P|234:82|223:35,1,90,10|0,0:0|0:0,0:0:0:0:
181,194,160541,1,2,0:0:0:0:
104,112,160704,2,0,P|133:111|169:116,1,45,2|0,0:0|0:0,0:0:0:0:
79,238,161030,2,0,P|88:210|105:181,1,45,0|2,1:0|0:2,0:0:0:0:
133,321,161356,1,10,0:0:0:0:
294,254,161683,1,2,0:0:0:0:
208,32,162009,5,2,1:2:0:0:
177,199,162335,1,2,0:0:0:0:
208,32,162661,1,8,0:0:0:0:
294,254,162987,1,2,0:0:0:0:
208,32,163313,1,2,0:0:0:0:
177,199,163639,1,2,1:2:0:0:
332,128,163965,1,2,1:3:0:0:
221,107,164291,1,2,0:3:0:0:
221,107,164454,1,2,0:3:0:0:
221,107,164617,1,2,1:2:0:0:
