osu file format v14

[General]
AudioFilename: audio.mp3
AudioLeadIn: 0
PreviewTime: 47089
Countdown: 0
SampleSet: Normal
StackLeniency: 0.7
Mode: 1
LetterboxInBreaks: 0
WidescreenStoryboard: 1

[Editor]
DistanceSpacing: 2.1
BeatDivisor: 4
GridSize: 4
TimelineZoom: 0.8999999

[Metadata]
Title:1999
TitleUnicode:1999
Artist:Charli XCX & Troye Sivan
ArtistUnicode:Charli XCX & Troye Sivan
Creator:0gg
Version:iFutsuu
Source:
Tags:english pop ogg electropop eurodance
BeatmapID:3565589
BeatmapSetID:1744031

[Difficulty]
HPDrainRate:7.5
CircleSize:5.2
OverallDifficulty:4
ApproachRate:5.2
SliderMultiplier:1.4
SliderTickRate:1

[Events]
//Background and Video events
Video,0,"video.mp4"
0,0,"steve jobs.png",0,110
//Break Periods
//Storyboard Layer 0 (Background)
//Storyboard Layer 1 (Fail)
//Storyboard Layer 2 (Pass)
//Storyboard Layer 3 (Foreground)
//Storyboard Layer 4 (Overlay)
//Storyboard Sound Samples

[TimingPoints]
154,483.870967741935,4,1,0,40,1,0
154,-111.111111111111,4,1,0,40,0,0
15635,-100,4,1,0,40,0,0
46524,-100,4,1,0,50,0,0
46605,-83.3333333333333,4,1,0,50,0,1
62089,-83.3333333333333,4,1,0,50,0,0
64022,-111.111111111111,4,1,0,50,0,0
76968,-108.108108108108,4,1,0,50,0,0
77210,-103.896103896104,4,1,0,50,0,0
77569,-100,4,1,0,50,0,0
93057,-83.3333333333333,4,1,0,50,0,1
124024,-83.3333333333333,4,1,0,50,0,0
124266,-125,4,1,0,40,0,0
131524,-111.111111111111,4,1,0,40,0,0
145556,-109.08955,4,1,0,40,0,0
146040,-105.25934,4,1,0,40,0,0
146282,-103.44336,4,1,0,40,0,0
146765,-100,4,1,0,40,0,0
147129,-100,4,1,0,50,0,0
147250,-83.3333333333333,4,1,0,50,0,1
185960,-83.5255730091387,4,1,0,50,0,0

[HitObjects]
277,190,154,5,0,0:0:0:0:
277,190,637,1,8,0:0:0:0:
277,190,879,1,8,0:0:0:0:
245,146,1121,1,0,0:0:0:0:
232,147,1363,1,0,0:0:0:0:
229,146,1605,1,8,0:0:0:0:
240,130,2089,1,8,0:0:0:0:
252,116,3057,1,0,0:0:0:0:
238,118,3541,1,8,0:0:0:0:
238,118,3783,1,0,0:0:0:0:
238,118,4024,1,8,0:0:0:0:
238,118,4266,1,0,0:0:0:0:
238,118,4508,1,8,0:0:0:0:
227,104,5476,1,8,0:0:0:0:
226,107,5718,1,8,0:0:0:0:
226,107,5960,1,8,0:0:0:0:
227,104,6444,1,8,0:0:0:0:
226,107,6928,1,0,0:0:0:0:
225,115,7412,1,8,0:0:0:0:
226,107,7653,1,0,0:0:0:0:
226,107,7895,1,0,0:0:0:0:
236,107,8379,1,8,0:0:0:0:
236,107,8621,1,8,0:0:0:0:
235,108,8863,1,0,0:0:0:0:
236,107,9105,1,0,0:0:0:0:
216,88,9347,1,8,0:0:0:0:
216,88,9831,1,0,0:0:0:0:
229,84,10557,1,8,0:0:0:0:
229,84,10799,1,0,0:0:0:0:
231,70,11041,1,0,0:0:0:0:
237,68,11283,1,8,0:0:0:0:
238,70,11766,1,8,0:0:0:0:
238,70,12008,1,0,0:0:0:0:
237,68,12250,1,0,0:0:0:0:
231,83,13218,1,0,0:0:0:0:
232,81,13460,1,0,0:0:0:0:
232,81,13702,1,8,0:0:0:0:
231,83,14186,1,8,0:0:0:0:
240,89,14670,1,0,0:0:0:0:
223,141,14912,1,8,0:0:0:0:
216,105,15153,1,0,0:0:0:0:
271,164,15879,1,8,0:0:0:0:
134,149,16363,1,8,0:0:0:0:
302,140,16605,1,8,0:0:0:0:
227,116,16847,1,0,0:0:0:0:
238,90,17089,1,8,0:0:0:0:
239,101,17573,1,0,0:0:0:0:
239,101,17815,1,0,0:0:0:0:
200,114,18299,1,0,0:0:0:0:
193,93,18541,1,0,0:0:0:0:
230,102,18783,1,8,0:0:0:0:
229,101,19024,1,8,0:0:0:0:
229,88,19750,1,0,0:0:0:0:
229,88,19992,1,8,0:0:0:0:
202,110,20476,1,8,0:0:0:0:
284,192,20839,1,0,0:0:0:0:
264,136,21081,1,8,0:0:0:0:
245,89,21686,1,8,0:0:0:0:
266,115,21928,1,8,0:0:0:0:
226,118,22170,1,0,0:0:0:0:
226,118,22412,1,8,0:0:0:0:
201,68,22774,1,8,0:0:0:0:
221,78,23137,1,0,0:0:0:0:
226,75,23379,1,0,0:0:0:0:
218,73,23863,1,8,0:0:0:0:
218,73,24347,1,8,0:0:0:0:
218,73,24831,1,8,0:0:0:0:
242,39,25315,1,0,0:0:0:0:
236,57,25557,1,8,0:0:0:0:
236,57,25799,1,8,0:0:0:0:
236,57,26041,1,0,0:0:0:0:
225,42,26283,1,8,0:0:0:0:
242,77,26645,1,8,0:0:0:0:
263,88,27250,1,0,0:0:0:0:
233,107,27492,1,8,0:0:0:0:
246,77,27734,1,8,0:0:0:0:
240,88,27976,1,0,0:0:0:0:
245,78,28218,1,0,0:0:0:0:
229,85,28581,1,8,0:0:0:0:
243,70,28944,1,8,0:0:0:0:
237,69,29186,1,8,0:0:0:0:
170,112,29670,1,8,0:0:0:0:
222,118,29912,1,0,0:0:0:0:
187,91,30153,1,0,0:0:0:0:
245,93,30516,1,8,0:0:0:0:
245,93,30758,1,8,0:0:0:0:
19,99,31121,1,4,0:0:0:0:
192,140,31605,1,8,0:0:0:0:
187,136,32331,1,0,0:0:0:0:
187,136,32573,1,8,0:0:0:0:
180,132,33057,1,0,0:0:0:0:
180,132,33299,1,0,0:0:0:0:
179,132,33541,1,8,0:0:0:0:
180,132,33783,1,8,0:0:0:0:
180,132,34024,1,0,0:0:0:0:
222,73,34508,1,8,0:0:0:0:
222,73,34750,1,8,0:0:0:0:
248,113,35476,1,8,0:0:0:0:
221,106,35960,1,0,0:0:0:0:
225,85,36202,1,8,0:0:0:0:
231,89,36686,1,0,0:0:0:0:
236,88,37170,1,8,0:0:0:0:
246,89,37653,1,0,0:0:0:0:
245,89,37895,1,8,0:0:0:0:
245,89,38137,1,8,0:0:0:0:
246,89,38379,1,0,0:0:0:0:
19,99,38863,1,4,0:0:0:0:
199,157,39347,1,8,0:0:0:0:
192,138,39831,1,0,0:0:0:0:
193,134,40073,1,0,0:0:0:0:
193,134,40315,1,8,0:0:0:0:
192,138,40799,1,8,0:0:0:0:
193,134,41283,1,0,0:0:0:0:
192,138,41524,1,8,0:0:0:0:
192,138,41766,1,0,0:0:0:0:
193,134,42250,1,8,0:0:0:0:
192,138,42492,1,8,0:0:0:0:
233,99,43218,1,0,0:0:0:0:
233,99,43460,1,8,0:0:0:0:
222,97,44186,1,0,0:0:0:0:
222,97,44428,1,8,0:0:0:0:
256,192,45637,8,0,46363,0:0:0:0:
19,99,46605,5,12,0:0:0:0:
276,152,47089,1,8,0:0:0:0:
283,136,47331,1,8,0:0:0:0:
287,124,47573,1,0,0:0:0:0:
258,118,47815,1,0,0:0:0:0:
258,123,48057,1,8,0:0:0:0:
287,124,48541,1,0,0:0:0:0:
269,113,49024,1,8,0:0:0:0:
215,113,49508,1,0,0:0:0:0:
226,99,49750,1,0,0:0:0:0:
260,88,49992,1,8,0:0:0:0:
310,75,50234,1,0,0:0:0:0:
232,101,50476,1,8,0:0:0:0:
211,153,50718,1,0,0:0:0:0:
214,137,50960,1,8,0:0:0:0:
246,92,51686,1,0,0:0:0:0:
244,93,51928,1,8,0:0:0:0:
235,79,52170,1,8,0:0:0:0:
231,75,52412,1,0,0:0:0:0:
224,73,52895,1,8,0:0:0:0:
220,73,53137,1,0,0:0:0:0:
211,68,53379,1,0,0:0:0:0:
230,111,53863,1,8,0:0:0:0:
181,151,54105,1,8,0:0:0:0:
193,35,54347,1,0,0:0:0:0:
195,98,54831,1,8,0:0:0:0:
237,88,55073,1,0,0:0:0:0:
218,69,55315,1,0,0:0:0:0:
210,57,55557,1,0,0:0:0:0:
223,72,55799,1,8,0:0:0:0:
204,44,56283,1,0,0:0:0:0:
217,100,57008,1,0,0:0:0:0:
211,84,57250,1,8,0:0:0:0:
222,117,57492,1,8,0:0:0:0:
261,85,57734,1,0,0:0:0:0:
219,87,57976,1,8,0:0:0:0:
235,124,58218,1,0,0:0:0:0:
281,137,58460,1,0,0:0:0:0:
274,136,58702,1,8,0:0:0:0:
289,99,59186,1,0,0:0:0:0:
228,110,59428,1,0,0:0:0:0:
253,93,59670,1,8,0:0:0:0:
203,88,59912,1,0,0:0:0:0:
203,88,60153,1,8,0:0:0:0:
213,62,60637,1,8,0:0:0:0:
219,72,61121,1,0,0:0:0:0:
219,71,61363,1,0,0:0:0:0:
217,100,61605,1,8,0:0:0:0:
240,146,64024,1,0,0:0:0:0:
194,130,64266,1,8,0:0:0:0:
194,130,64508,1,8,0:0:0:0:
239,90,64750,1,0,0:0:0:0:
202,147,64992,1,8,0:0:0:0:
194,121,65476,1,0,0:0:0:0:
266,104,65960,1,0,0:0:0:0:
254,100,66202,1,8,0:0:0:0:
254,100,66444,1,8,0:0:0:0:
228,87,66928,1,8,0:0:0:0:
217,90,67291,1,8,0:0:0:0:
217,93,67533,1,0,0:0:0:0:
176,113,68137,1,8,0:0:0:0:
183,104,68379,1,8,0:0:0:0:
190,90,68621,1,0,0:0:0:0:
203,91,68863,1,0,0:0:0:0:
301,117,69226,1,8,0:0:0:0:
181,114,69589,1,8,0:0:0:0:
225,60,69831,1,0,0:0:0:0:
225,135,70315,1,8,0:0:0:0:
225,135,70799,1,8,0:0:0:0:
264,117,71283,1,8,0:0:0:0:
199,110,71766,1,0,0:0:0:0:
287,144,72008,1,8,0:0:0:0:
287,144,72250,1,8,0:0:0:0:
250,155,72492,1,0,0:0:0:0:
250,155,72734,1,8,0:0:0:0:
225,134,73097,1,8,0:0:0:0:
225,134,73339,1,0,0:0:0:0:
273,147,73702,1,0,0:0:0:0:
250,127,73944,1,8,0:0:0:0:
244,131,74186,1,8,0:0:0:0:
230,124,74670,1,0,0:0:0:0:
260,170,75033,1,8,0:0:0:0:
221,91,75637,1,0,0:0:0:0:
183,110,75879,1,8,0:0:0:0:
259,117,76121,1,0,0:0:0:0:
247,101,76363,1,0,0:0:0:0:
247,117,76605,1,8,0:0:0:0:
223,142,76968,1,8,0:0:0:0:
336,160,77210,1,0,0:0:0:0:
227,61,77573,1,0,0:0:0:0:
266,117,78057,1,8,0:0:0:0:
280,132,78783,1,0,0:0:0:0:
280,132,79024,1,8,0:0:0:0:
300,106,79508,1,0,0:0:0:0:
305,89,79750,1,0,0:0:0:0:
312,93,79992,1,8,0:0:0:0:
234,98,80234,1,8,0:0:0:0:
246,113,80476,1,0,0:0:0:0:
259,108,80960,1,8,0:0:0:0:
259,108,81202,1,8,0:0:0:0:
274,110,81928,1,8,0:0:0:0:
235,92,82412,1,0,0:0:0:0:
260,97,82653,1,0,0:0:0:0:
251,93,82895,1,8,0:0:0:0:
257,97,83379,1,0,0:0:0:0:
260,97,83621,1,8,0:0:0:0:
257,97,84105,1,0,0:0:0:0:
257,97,84347,1,8,0:0:0:0:
236,95,84589,1,8,0:0:0:0:
283,111,84831,1,0,0:0:0:0:
225,57,85315,1,0,0:0:0:0:
287,125,85799,1,8,0:0:0:0:
225,99,86524,1,0,0:0:0:0:
225,99,86766,1,8,0:0:0:0:
320,94,87250,1,8,0:0:0:0:
311,95,87492,1,8,0:0:0:0:
311,107,87734,1,0,0:0:0:0:
310,107,87976,1,8,0:0:0:0:
310,107,88218,1,0,0:0:0:0:
311,107,88702,1,8,0:0:0:0:
304,87,88944,1,8,0:0:0:0:
276,105,89670,1,0,0:0:0:0:
276,105,89912,1,8,0:0:0:0:
166,142,90637,1,0,0:0:0:0:
166,142,90879,1,8,0:0:0:0:
256,192,92089,8,0,92815,0:0:0:0:
19,99,93057,5,12,0:0:0:0:
206,154,93541,1,8,0:0:0:0:
202,142,93783,1,8,0:0:0:0:
210,81,94024,1,0,0:0:0:0:
205,83,94266,1,0,0:0:0:0:
194,96,94508,1,8,0:0:0:0:
226,99,94992,1,0,0:0:0:0:
207,89,95960,1,0,0:0:0:0:
195,90,96202,1,8,0:0:0:0:
184,85,96444,1,0,0:0:0:0:
186,85,96686,1,0,0:0:0:0:
229,122,96928,1,8,0:0:0:0:
239,73,97170,1,8,0:0:0:0:
268,87,97412,1,0,0:0:0:0:
191,93,98137,1,0,0:0:0:0:
202,60,98379,1,8,0:0:0:0:
196,74,98621,1,0,0:0:0:0:
194,75,98863,1,8,0:0:0:0:
187,82,99347,1,8,0:0:0:0:
189,81,99589,1,8,0:0:0:0:
188,76,99831,1,8,0:0:0:0:
236,82,100315,1,8,0:0:0:0:
251,128,100557,1,0,0:0:0:0:
207,99,100799,1,0,0:0:0:0:
241,125,101283,1,8,0:0:0:0:
222,162,101524,1,8,0:0:0:0:
213,135,101766,1,0,0:0:0:0:
189,120,102008,1,0,0:0:0:0:
193,102,102250,1,8,0:0:0:0:
240,100,102734,1,0,0:0:0:0:
185,95,103460,1,8,0:0:0:0:
172,92,103702,1,0,0:0:0:0:
171,95,103944,1,0,0:0:0:0:
171,95,104186,1,8,0:0:0:0:
181,122,104428,1,0,0:0:0:0:
255,110,104670,1,8,0:0:0:0:
209,135,104912,1,0,0:0:0:0:
253,140,105153,1,8,0:0:0:0:
239,116,105637,1,0,0:0:0:0:
239,116,106121,1,0,0:0:0:0:
264,89,106363,1,0,0:0:0:0:
262,92,106605,1,8,0:0:0:0:
251,88,107089,1,8,0:0:0:0:
205,114,107573,1,0,0:0:0:0:
204,102,107815,1,0,0:0:0:0:
267,137,108057,1,0,0:0:0:0:
19,99,108541,1,12,0:0:0:0:
268,120,109266,1,8,0:0:0:0:
266,132,109508,1,0,0:0:0:0:
266,132,109992,1,0,0:0:0:0:
266,97,110234,1,0,0:0:0:0:
225,119,110476,1,8,0:0:0:0:
233,122,110839,1,8,0:0:0:0:
231,113,111202,1,8,0:0:0:0:
233,103,111444,1,0,0:0:0:0:
226,103,111928,1,0,0:0:0:0:
181,136,112170,1,0,0:0:0:0:
196,111,112412,1,8,0:0:0:0:
270,131,112774,1,8,0:0:0:0:
223,94,113137,1,8,0:0:0:0:
234,60,113379,1,0,0:0:0:0:
232,62,113863,1,8,0:0:0:0:
227,76,114105,1,0,0:0:0:0:
212,73,114347,1,8,0:0:0:0:
206,71,114710,1,8,0:0:0:0:
196,78,115073,1,8,0:0:0:0:
270,76,115315,1,0,0:0:0:0:
225,83,115799,1,8,0:0:0:0:
175,153,116041,1,0,0:0:0:0:
230,72,116283,1,0,0:0:0:0:
272,110,116766,1,8,0:0:0:0:
271,99,117008,1,8,0:0:0:0:
224,79,117250,1,0,0:0:0:0:
224,79,117492,1,0,0:0:0:0:
224,79,117734,1,8,0:0:0:0:
219,93,118218,1,8,0:0:0:0:
249,103,119186,1,8,0:0:0:0:
230,79,119428,1,0,0:0:0:0:
219,75,119670,1,8,0:0:0:0:
216,76,119912,1,0,0:0:0:0:
350,92,120153,1,8,0:0:0:0:
276,127,120395,1,8,0:0:0:0:
273,123,120637,1,0,0:0:0:0:
206,157,121121,1,0,0:0:0:0:
223,127,121363,1,0,0:0:0:0:
258,137,121605,1,8,0:0:0:0:
255,121,122089,1,8,0:0:0:0:
256,134,123057,1,0,0:0:0:0:
184,84,123299,1,8,0:0:0:0:
243,48,123541,1,8,0:0:0:0:
252,90,123783,1,8,0:0:0:0:
147,80,124024,1,0,0:0:0:0:
235,152,126928,1,0,0:0:0:0:
235,152,127412,1,8,0:0:0:0:
199,146,127895,1,8,0:0:0:0:
199,146,128379,1,0,0:0:0:0:
209,143,131524,1,8,0:0:0:0:
188,131,131766,1,0,0:0:0:0:
192,172,132250,1,8,0:0:0:0:
192,172,132492,1,0,0:0:0:0:
192,172,132734,1,8,0:0:0:0:
192,172,133218,1,0,0:0:0:0:
192,172,133702,1,8,0:0:0:0:
192,172,133944,1,8,0:0:0:0:
192,172,134428,1,0,0:0:0:0:
192,172,134670,1,8,0:0:0:0:
189,116,135395,1,0,0:0:0:0:
189,116,135637,1,8,0:0:0:0:
189,116,135879,1,8,0:0:0:0:
189,116,136121,1,0,0:0:0:0:
197,93,136605,1,8,0:0:0:0:
197,93,137089,1,0,0:0:0:0:
197,93,137573,1,0,0:0:0:0:
197,93,137815,1,8,0:0:0:0:
197,93,138299,1,8,0:0:0:0:
197,93,138541,1,8,0:0:0:0:
143,113,139024,1,8,0:0:0:0:
143,113,139508,1,0,0:0:0:0:
219,150,140476,1,8,0:0:0:0:
282,144,140960,1,8,0:0:0:0:
260,129,141202,1,0,0:0:0:0:
172,101,142412,1,8,0:0:0:0:
196,109,142895,1,8,0:0:0:0:
196,112,143137,1,0,0:0:0:0:
196,121,144105,1,0,0:0:0:0:
196,121,144347,1,8,0:0:0:0:
271,131,144589,1,0,0:0:0:0:
271,131,144831,1,8,0:0:0:0:
271,131,145073,1,0,0:0:0:0:
251,118,145557,1,0,0:0:0:0:
251,118,146041,1,0,0:0:0:0:
251,118,146283,1,8,0:0:0:0:
251,118,146766,1,0,0:0:0:0:
19,99,147250,1,4,0:0:0:0:
211,172,147734,1,8,0:0:0:0:
203,159,147976,1,0,0:0:0:0:
196,138,148218,1,0,0:0:0:0:
196,140,148460,1,8,0:0:0:0:
208,109,148702,1,8,0:0:0:0:
355,78,149186,1,0,0:0:0:0:
224,121,149428,1,8,0:0:0:0:
243,126,149670,1,8,0:0:0:0:
265,72,150153,1,0,0:0:0:0:
254,77,150395,1,0,0:0:0:0:
256,123,150637,1,8,0:0:0:0:
193,103,150879,1,0,0:0:0:0:
229,113,151121,1,8,0:0:0:0:
211,88,151363,1,0,0:0:0:0:
207,87,151605,1,8,0:0:0:0:
230,133,152331,1,0,0:0:0:0:
230,133,152573,1,8,0:0:0:0:
241,82,152815,1,8,0:0:0:0:
241,82,153057,1,0,0:0:0:0:
220,92,153541,1,8,0:0:0:0:
217,95,153783,1,0,0:0:0:0:
218,93,154024,1,8,0:0:0:0:
284,91,154508,1,8,0:0:0:0:
296,148,154750,1,8,0:0:0:0:
226,98,154992,1,0,0:0:0:0:
223,132,155476,1,8,0:0:0:0:
223,132,155718,1,8,0:0:0:0:
188,124,155960,1,0,0:0:0:0:
280,68,156202,1,0,0:0:0:0:
255,106,156444,1,8,0:0:0:0:
247,57,156928,1,0,0:0:0:0:
183,91,157653,1,8,0:0:0:0:
177,98,157895,1,0,0:0:0:0:
186,79,158137,1,0,0:0:0:0:
186,81,158379,1,8,0:0:0:0:
286,77,158621,1,0,0:0:0:0:
193,102,158863,1,8,0:0:0:0:
250,81,159105,1,0,0:0:0:0:
253,49,159347,1,8,0:0:0:0:
229,68,159831,1,0,0:0:0:0:
221,56,160315,1,0,0:0:0:0:
221,56,160557,1,0,0:0:0:0:
221,56,160799,1,8,0:0:0:0:
192,106,161283,1,8,0:0:0:0:
177,87,161766,1,0,0:0:0:0:
193,125,162008,1,8,0:0:0:0:
234,74,162250,1,0,0:0:0:0:
19,99,162734,1,12,0:0:0:0:
292,187,163460,1,8,0:0:0:0:
252,116,163702,1,0,0:0:0:0:
252,116,164186,1,0,0:0:0:0:
196,160,164670,1,8,0:0:0:0:
286,114,165033,1,8,0:0:0:0:
262,117,165395,1,8,0:0:0:0:
272,54,165637,1,0,0:0:0:0:
269,63,166121,1,0,0:0:0:0:
254,130,166363,1,0,0:0:0:0:
198,115,166605,1,8,0:0:0:0:
304,144,166968,1,8,0:0:0:0:
277,101,167331,1,0,0:0:0:0:
200,71,167573,1,8,0:0:0:0:
266,114,168057,1,0,0:0:0:0:
296,101,168299,1,8,0:0:0:0:
265,106,168541,1,8,0:0:0:0:
270,100,168903,1,8,0:0:0:0:
234,109,169266,1,8,0:0:0:0:
234,76,169508,1,0,0:0:0:0:
239,60,169992,1,8,0:0:0:0:
203,134,170234,1,0,0:0:0:0:
234,76,170476,1,0,0:0:0:0:
246,92,170960,1,8,0:0:0:0:
245,88,171202,1,8,0:0:0:0:
242,86,171444,1,0,0:0:0:0:
241,87,171686,1,0,0:0:0:0:
241,87,171928,1,8,0:0:0:0:
270,55,172412,1,8,0:0:0:0:
228,81,173379,1,0,0:0:0:0:
226,83,173621,1,0,0:0:0:0:
224,83,173863,1,8,0:0:0:0:
266,101,174105,1,8,0:0:0:0:
248,96,174347,1,0,0:0:0:0:
170,176,174589,1,8,0:0:0:0:
204,136,174831,1,0,0:0:0:0:
285,112,175315,1,0,0:0:0:0:
285,112,175557,1,0,0:0:0:0:
285,112,175799,1,8,0:0:0:0:
280,108,176283,1,8,0:0:0:0:
191,155,176524,1,0,0:0:0:0:
286,104,176766,1,8,0:0:0:0:
300,56,177250,1,8,0:0:0:0:
262,77,177734,1,0,0:0:0:0:
19,99,178218,1,4,0:0:0:0:
235,174,178702,1,8,0:0:0:0:
301,109,178944,1,0,0:0:0:0:
231,132,179186,1,8,0:0:0:0:
289,101,179428,1,0,0:0:0:0:
287,103,179670,1,8,0:0:0:0:
272,105,180153,1,0,0:0:0:0:
218,82,180879,1,8,0:0:0:0:
224,73,181121,1,0,0:0:0:0:
219,74,181363,1,0,0:0:0:0:
223,77,181605,1,8,0:0:0:0:
271,104,181847,1,8,0:0:0:0:
250,64,182089,1,0,0:0:0:0:
242,71,182331,1,0,0:0:0:0:
260,77,182573,1,8,0:0:0:0:
254,69,183057,1,0,0:0:0:0:
261,70,183299,1,0,0:0:0:0:
254,149,183541,1,8,0:0:0:0:
254,115,184024,1,8,0:0:0:0:
224,82,184508,1,8,0:0:0:0:
239,67,184750,1,8,0:0:0:0:
230,73,184992,1,0,0:0:0:0:
224,82,185234,1,8,0:0:0:0:
220,104,185476,1,0,0:0:0:0:
256,186,185960,1,0,0:0:0:0:
